<?xml version="1.0" standalone="no"?>
<!DOCTYPE svg PUBLIC "-//W3C//DTD SVG 1.1//EN" "http://www.w3.org/Graphics/SVG/1.1/DTD/svg11.dtd" >
<svg xmlns="http://www.w3.org/2000/svg" xmlns:xlink="http://www.w3.org/1999/xlink" version="1.1">
<metadata>
Created by FontForge 20170731 at Fri Apr 30 16:13:02 1993
 By Aleksey,,,
From Doug Miles' Black Chancery bitmap font. Outlines by Earl Allen &#38; Doug Miles. Public domain.
</metadata>
<defs>
<font id="BlackChancery" horiz-adv-x="450" >
  <font-face 
    font-family="BlackChancery"
    font-weight="5"
    font-stretch="normal"
    units-per-em="1000"
    panose-1="0 0 0 0 0 0 0 0 0 0"
    ascent="800"
    descent="-200"
    x-height="428"
    cap-height="651"
    bbox="-194 -351 1462 833"
    underline-thickness="25"
    underline-position="-314"
    unicode-range="U+0020-F002"
  />
<missing-glyph horiz-adv-x="833" 
d="M52 0v833h729v-833h-729zM729 52v729h-625v-729h625z" />
    <glyph glyph-name=".notdef" horiz-adv-x="833" 
d="M52 0v833h729v-833h-729zM729 52v729h-625v-729h625z" />
    <glyph glyph-name="glyph1" horiz-adv-x="0" 
 />
    <glyph glyph-name="glyph2" horiz-adv-x="250" 
 />
    <glyph glyph-name="space" unicode=" " horiz-adv-x="250" 
 />
    <glyph glyph-name="exclam" unicode="!" horiz-adv-x="365" 
d="M330 666q-32 -49 -61 -182.5t-48 -201.5t-83 -173q-19 51 -28.5 99.5t-9.5 92.5q0 102 42 179t94.5 122t93.5 64zM154 8q6 0 33 -25t55 -41q-6 -9 -45 -51t-51 -42q-7 0 -30 23.5t-58 43.5q10 14 48 53t48 39z" />
    <glyph glyph-name="quotedbl" unicode="&#x22;" horiz-adv-x="323" 
d="M290 639q-5 -24 -5 -58v-26.5t1 -26.5q0 -26 -3.5 -50.5t-12.5 -52.5q-9 36 -48 91.5t-39 122.5q12 7 27 10t26 3q21 0 33 -4t21 -9zM122 639q-5 -24 -5 -58v-26.5t1 -26.5q0 -26 -3.5 -50.5t-12.5 -52.5q-9 36 -48 91.5t-39 122.5q12 7 27 10t26 3q21 0 33 -4t21 -9z
" />
    <glyph glyph-name="numbersign" unicode="#" horiz-adv-x="445" 
d="M142 296l-30 -59h-32l30 59h-60l24 32h52l43 86h-65l24 32h57l33 66h32l-33 -66h70l33 66h32l-33 -66h57l-24 -32h-49l-43 -86h62l-24 -32h-54l-30 -59h-32l30 59h-70zM271 414h-70l-43 -86h70z" />
    <glyph glyph-name="dollar" unicode="$" horiz-adv-x="392" 
d="M208 -1v-82l-40 1v80q-37 0 -79.5 15.5t-74.5 67.5v100q41 -70 83.5 -109t98.5 -39q35 0 57.5 31t22.5 66q0 57 -65 101q-61 35 -122 71q-66 47 -66 109q0 83 47.5 117t97.5 34v77l40 2v-79q23 0 74.5 -16.5t51.5 -94.5q-21 35 -51.5 51t-80.5 16q-34 0 -61.5 -16
t-27.5 -60q0 -43 89.5 -92.5t126.5 -79t37 -109.5q0 -73 -44.5 -117.5t-113.5 -44.5z" />
    <glyph glyph-name="percent" unicode="%" horiz-adv-x="490" 
d="M133 560q49 0 70.5 -34.5t21.5 -85.5q0 -61 -29 -86.5t-71 -25.5q-50 0 -71.5 37t-21.5 85q0 50 29 80t72 30zM376 558q31 0 50.5 -7.5t19.5 -22.5q0 -8 -7 -18l-324 -464q-6 -11 -6 -18q0 -12 13 -18.5t48 -20.5h-67q-30 0 -51.5 6t-21.5 20q0 6 6 14l334 480q6 8 6 14
q0 12 -16.5 19t-39.5 16h56zM371 219q44 0 68 -35.5t24 -85.5q0 -58 -31 -84.5t-70 -26.5q-49 0 -70.5 37t-21.5 85q0 58 31.5 84t69.5 26zM76 450q0 -33 12.5 -64.5t35.5 -31.5q26 0 42 20.5t16 64.5q0 37 -11.5 66t-36.5 29q-26 0 -42 -20.5t-16 -63.5zM315 110
q0 -37 11 -67t36 -30t41 20.5t16 63.5q0 40 -11.5 68.5t-35.5 28.5q-25 0 -41 -20.5t-16 -63.5z" />
    <glyph glyph-name="ampersand" unicode="&#x26;" horiz-adv-x="650" 
d="M254 662q44 0 76 -35t32 -82q0 -44 -26.5 -81t-96.5 -104q42 -52 142 -155t142 -138q20 30 31.5 60t11.5 63q0 54 -38.5 105.5t-131.5 98.5q111 0 159.5 -55t48.5 -139q0 -43 -12.5 -86.5t-31.5 -72.5q67 -62 103.5 -90.5t102.5 -51.5h-50q-85 0 -130 25q-40 26 -70 44
q-31 -37 -90 -69.5t-154 -32.5q-118 0 -182 58.5t-64 142.5q0 77 40 143.5t96 122.5q-20 26 -40 61t-20 84q0 68 43 126t109 58zM170 528q0 -29 10 -66t42 -75q25 19 49 58t24 66q0 40 -13.5 62t-53.5 22q-25 0 -41.5 -14t-16.5 -53zM117 165q0 -106 57 -156.5t160 -50.5
q43 0 78.5 11.5t61.5 39.5q-60 40 -145.5 125.5t-146.5 171.5q-21 -25 -43 -65t-22 -76z" />
    <glyph glyph-name="quotesingle" unicode="'" horiz-adv-x="125" 
d="M118 639q-5 -24 -5 -58v-26.5t1 -26.5q0 -26 -3.5 -50.5t-12.5 -52.5q-9 36 -48 91.5t-39 122.5q12 7 27 10t26 3q21 0 33 -4t21 -9z" />
    <glyph glyph-name="parenleft" unicode="(" horiz-adv-x="230" 
d="M188 -188q-67 50 -114 152.5t-47 213.5q0 100 39 187.5t126 154.5q-35 -44 -54.5 -144.5t-19.5 -217.5q0 -111 17.5 -204.5t52.5 -141.5z" />
    <glyph glyph-name="parenright" unicode=")" horiz-adv-x="230" 
d="M43 519q67 -50 114 -152.5t47 -213.5q0 -100 -39 -187.5t-126 -154.5q35 44 54.5 144.5t19.5 217.5q0 111 -17.5 204.5t-52.5 141.5z" />
    <glyph glyph-name="asterisk" unicode="*" horiz-adv-x="573" 
d="M283 662l20 -42q12 -5 43 -20q-20 -8 -39 -16q-11 -8 -11 -42q0 -33 4 -38q16 -10 38 -26q23 23 28 28.5t5 11.5q-2 13 -2 29q37 0 43 7t6 44h44v-44q-35 0 -43 -7t-8 -44q-20 1 -25 1q-8 0 -19 -12.5t-21 -21.5q8 -18 14.5 -29.5t23.5 -11.5h24q33 0 42 12q8 21 16 37
q10 -22 21 -43q13 -4 43 -19q-21 -10 -42 -19q-6 -12 -22 -43q-8 18 -15 36q-9 13 -43 13q-37 0 -42 -5q-8 -16 -20 -36q12 -14 22 -24t20 -10q12 1 23 1q0 -34 7.5 -40.5t43.5 -6.5v-45h-44q0 32 -7.5 40.5t-41.5 8.5v19q0 14 -4 20q-13 13 -27 29q-18 -11 -35 -21
q-7 -6 -7 -23v-19q0 -32 11 -40q21 -9 39 -18l-44 -20q-4 -13 -19 -43q-22 45 -32.5 49.5t-29.5 13.5q18 8 37 16q12 9 12 41v19q0 18 -5 23q-17 10 -36 22q-14 -14 -23.5 -24t-9.5 -21v-23q-37 0 -43.5 -6.5t-6.5 -42.5h-42v45q34 0 42 6.5t8 40.5h15q19 0 27.5 9t24.5 24
q-10 17 -17 29t-23 12h-23q-33 0 -43 -13q-8 -21 -16 -36q-20 42 -23 44q-13 3 -39 18q19 10 30 16t32 47q8 -20 16 -39q9 -11 43 -11q35 0 41 6q9 16 22 35q-14 15 -24 25.5t-19 10.5q-13 -1 -26 -1q0 37 -6 43t-42 6v44h42q0 -37 6 -43t44 -6q-1 -22 -1 -27q0 -8 9.5 -18
t24.5 -26q19 12 38 25q5 5 5 38q0 34 -10 42q-22 8 -41 17l44 20q3 12 18 42zM221 415q0 -28 17.5 -45.5t42.5 -17.5t45 17t20 46q0 28 -19.5 47.5t-44.5 19.5t-43 -19t-18 -48z" />
    <glyph glyph-name="plus" unicode="+" horiz-adv-x="563" 
d="M282 400q25 0 41.5 6.5t38.5 25.5q-13 -32 -38.5 -47.5t-25.5 -66.5q0 -41 6 -47t52 -6q43 0 56 25.5t53 39.5q-20 -25 -27 -40.5t-7 -39.5q0 -25 6 -40.5t28 -41.5q-40 13 -52.5 39.5t-56.5 26.5q-43 0 -50.5 -4t-7.5 -33v-21q0 -44 27 -54t37 -48q-16 13 -31.5 20
t-48.5 7q-29 0 -44.5 -5t-35.5 -24q12 38 39 49t27 55q0 43 -4 50.5t-32 7.5h-18q-46 0 -58.5 -24.5t-51.5 -40.5q20 25 26 40.5t6 40.5q0 28 -11 48q-14 20 -22 32q42 -13 53.5 -39t57.5 -26q42 0 48 6t6 47q0 49 -27.5 64.5t-38.5 49.5q20 -19 37 -25.5t43 -6.5zM499 230
q-21 0 -21 21q0 20 21 20t21 -21q0 -20 -21 -20zM283 446q-21 0 -21 21q0 20 21 20t21 -21q0 -20 -21 -20zM283 14q-21 0 -21 21q0 20 21 20t21 -21q0 -20 -21 -20zM67 230q-21 0 -21 21q0 20 21 20t21 -21q0 -20 -21 -20zM282 272q-21 0 -21 -22q0 -20 21 -20t21 22
q0 20 -21 20z" />
    <glyph glyph-name="comma" unicode="," horiz-adv-x="240" 
d="M120 95q52 -48 52 -100q0 -37 -25 -69.5t-71 -57.5q15 17 22.5 33.5t7.5 31.5q0 28 -14 43.5t-47 43.5q8 20 23 41.5t52 33.5z" />
    <glyph glyph-name="hyphen" unicode="-" horiz-adv-x="586" 
d="M79 176q25 76 88 95t175 22.5t152 24.5q-39 -81 -99 -98t-166 -18t-150 -26z" />
    <glyph glyph-name="period" unicode="." horiz-adv-x="240" 
d="M119 96q18 0 45 -23t46 -52l-83 -83q-27 26 -45.5 40t-46.5 31q9 16 39.5 50.5t44.5 36.5z" />
    <glyph glyph-name="slash" unicode="/" horiz-adv-x="464" 
d="M376 658h50l-338 -760h-50z" />
    <glyph glyph-name="zero" unicode="0" 
d="M244 433q82 0 128.5 -59t46.5 -146q0 -91 -66.5 -162.5t-150.5 -71.5q-80 0 -128 59.5t-48 149.5t66 160t152 70zM114 262q0 -78 23 -149t98 -71q42 0 68 36t26 92q0 81 -27 148.5t-92 67.5q-44 0 -70 -35t-26 -89z" />
    <glyph glyph-name="one" unicode="1" horiz-adv-x="280" 
d="M204 431v-367q0 -27 7 -37.5t31 -26.5h-171q14 11 28 23q13 15 13 41v263q0 28 -26 28q-19 0 -46 -18q35 40 66.5 67t97.5 27z" />
    <glyph glyph-name="two" unicode="2" horiz-adv-x="424" 
d="M224 435q76 0 120.5 -32t44.5 -103q0 -52 -135.5 -126.5t-151.5 -93.5q23 0 47.5 -0.5t50.5 -0.5q76 0 131.5 4.5t84.5 18.5q-22 -34 -43 -67q-33 -37 -86 -37l-265 2q0 67 68 123q63 43 129.5 90t66.5 96q0 44 -18.5 69.5t-68.5 25.5q-31 0 -62 -23.5t-31 -56.5
q0 -26 4 -43t22 -43q-48 25 -63.5 46.5t-15.5 56.5q0 39 50.5 66.5t120.5 27.5z" />
    <glyph glyph-name="three" unicode="3" horiz-adv-x="424" 
d="M216 428h177q-24 -81 -96.5 -143t-98.5 -94q27 6 50 6q72 0 110 -55.5t38 -139.5q0 -74 -68 -149t-162 -75q-89 0 -120.5 37t-31.5 110q32 -43 65 -87q42 -35 95 -35q67 0 97.5 52t30.5 117q0 83 -26.5 133.5t-90.5 50.5q-31 0 -75 -15q27 36 100 103t98 108h-151
q-42 0 -59 -6t-51 -22q17 53 62.5 78.5t106.5 25.5z" />
    <glyph glyph-name="four" unicode="4" horiz-adv-x="480" 
d="M362 428v-410q14 0 45 1t58 12q-3 -28 -22.5 -46t-80.5 -18v-121q0 -25 14.5 -39.5t29.5 -24.5h-178q14 10 28.5 25t14.5 39v121h-255q40 55 105 192.5t101 197.5t83 65zM270 367q-43 -52 -106.5 -188.5t-79.5 -160.5h186v349z" />
    <glyph glyph-name="five" unicode="5" horiz-adv-x="464" 
d="M97 168q30 14 55.5 24t69.5 10q95 0 161 -56.5t66 -153.5q0 -80 -51.5 -144.5t-175.5 -64.5q-108 0 -154.5 53t-46.5 161q51 -95 110 -139t114 -44q58 0 85 41.5t27 110.5q0 110 -49 153t-119 43q-39 0 -69 -13t-74 -43l110 322q18 0 37 -0.5t38 -0.5q70 0 114 5t77 22
q-23 -81 -84 -98.5t-178 -17.5q-8 0 -31.5 -69t-31.5 -101z" />
    <glyph glyph-name="six" unicode="6" horiz-adv-x="480" 
d="M334 650q-96 -48 -145 -124t-67 -152q-5 -32 -9 -64q31 23 66 35.5t85 12.5q92 0 142.5 -50.5t50.5 -131.5q0 -89 -59 -136.5t-151 -47.5q-111 0 -166.5 69.5t-55.5 190.5q0 153 84.5 275.5t224.5 122.5zM122 210q0 -69 49.5 -126.5t109.5 -57.5q36 0 60 24t24 76
q0 78 -32 135.5t-95 57.5q-47 0 -81.5 -31t-34.5 -78z" />
    <glyph glyph-name="seven" unicode="7" horiz-adv-x="480" 
d="M169 -22q0 -42 23 -76t75 -65q-25 -31 -42 -49t-28 -18q-33 0 -75 60.5t-42 123.5q0 92 100.5 192t192.5 191h-271q-40 0 -60.5 -7t-61.5 -39q20 64 62.5 100.5t103.5 36.5h249q29 0 57 7.5t49 18.5q-45 -103 -124 -180.5t-146 -142.5q-62 -71 -62 -153z" />
    <glyph glyph-name="eight" unicode="8" horiz-adv-x="400" 
d="M204 624q74 0 107 -39.5t33 -90.5q0 -48 -25 -71.5t-89 -67.5q51 -30 101.5 -76t50.5 -128q0 -76 -59.5 -117.5t-150.5 -41.5q-158 0 -158 142q0 70 28 106t88 78q-39 38 -57.5 74.5t-18.5 93.5q0 87 46 112.5t104 25.5zM100 525q0 -48 34 -90.5t78 -65.5q22 13 45 30
t23 71q0 53 -31.5 88.5t-73.5 35.5q-32 0 -53.5 -15t-21.5 -54zM78 185q0 -79 43.5 -119t92.5 -40q33 0 50.5 18t17.5 65q0 88 -34 124.5t-102 72.5q-37 -30 -52.5 -53.5t-15.5 -67.5z" />
    <glyph glyph-name="nine" unicode="9" horiz-adv-x="448" 
d="M238 431q95 0 139.5 -67t44.5 -174q0 -130 -60 -226t-137 -151.5t-131 -74.5q144 122 190 206t46 186q0 125 -35 184t-117 59q-43 0 -68.5 -26.5t-25.5 -63.5q0 -65 52.5 -141t151.5 -103q-146 0 -202.5 43.5t-56.5 148.5q0 92 61.5 146t147.5 54z" />
    <glyph glyph-name="colon" unicode=":" horiz-adv-x="240" 
d="M124 327q10 0 42.5 -33.5t32.5 -42.5q0 -8 -28 -37t-60 -46q-17 29 -34 48q-30 28 -37 35q30 31 52 53.5t32 22.5zM124 92q10 0 42.5 -32.5t32.5 -42.5q0 -34 -88 -83q-15 26 -37.5 49t-33.5 34q30 31 52 53t32 22z" />
    <glyph glyph-name="semicolon" unicode=";" horiz-adv-x="240" 
d="M135 327q11 0 43 -33t32 -43q0 -9 -25 -35t-58 -45q-19 32 -34 48q-32 27 -39 34q49 52 60 63t21 11zM124 95q52 -48 52 -100q0 -37 -25 -69.5t-71 -57.5q15 17 22.5 33.5t7.5 31.5q0 28 -14 43.5t-47 43.5q8 20 23 41.5t52 33.5z" />
    <glyph glyph-name="less" unicode="&#x3c;" horiz-adv-x="426" 
d="M258 414h67l-155 -160v-8l155 -159h-67l-163 157v9z" />
    <glyph glyph-name="equal" unicode="=" horiz-adv-x="416" 
d="M36 133q21 42 56 63.5t118 21.5q13 0 26.5 -0.5t27.5 -0.5q45 0 69 5.5t44 15.5q-34 -54 -78.5 -68t-113.5 -14q-68 0 -93.5 -2.5t-55.5 -20.5zM26 264q27 55 69.5 70t110.5 15h42q40 0 66.5 3.5t52.5 17.5q-34 -55 -79.5 -69t-116.5 -14q-72 0 -96.5 -4.5t-48.5 -18.5z
" />
    <glyph glyph-name="greater" unicode="&#x3e;" horiz-adv-x="365" 
d="M57 416h75l164 -163v-9l-167 -158h-67l159 158v9z" />
    <glyph glyph-name="question" unicode="?" horiz-adv-x="592" 
d="M325 662q113 0 170 -54t57 -154q0 -81 -42.5 -130.5t-153 -158.5t-110.5 -154q0 -32 17 -40.5t51 -8.5q26 0 51 33t25 72v16q-3 8 -4 11q10 -5 12.5 -23.5t3.5 -36.5q0 -55 -26.5 -92t-92.5 -37q-39 0 -63.5 22.5t-24.5 69.5q0 68 63 148l118 134q64 79 64 140
q0 107 -55 157.5t-133 50.5q-69 0 -108.5 -46.5t-39.5 -118.5q0 -65 22.5 -115t75.5 -85q-73 0 -116 53.5t-43 124.5q0 90 64 156t218 66zM290 -170q6 0 32 -24.5t56 -41.5q-6 -9 -45 -51t-51 -42q-7 0 -30 23.5t-58 43.5q10 14 48 53t48 39z" />
    <glyph glyph-name="at" unicode="@" horiz-adv-x="656" 
d="M385 31q-27 0 -43.5 11.5t-16.5 34.5q0 8 3 19l12 44q-58 -46 -102 -77.5t-68 -31.5q-23 0 -33.5 20t-10.5 47q0 53 28 117t106.5 113.5t219.5 49.5l-77 -283q-5 -22 34 -22q64 0 110.5 59.5t46.5 133.5q0 90 -78 145t-172 55q-116 0 -199 -83t-83 -199t83 -199t199 -83
q67 0 124 28.5t98 79.5l31 -16q-45 -58 -111.5 -92.5t-143.5 -34.5q-132 0 -224 93t-92 224t92 224t224 93q103 0 194 -61.5t91 -159.5q0 -113 -60.5 -181t-181.5 -68zM218 174q0 -20 9 -30t27 -10q36 0 96 43l48 178q-71 0 -125.5 -60t-54.5 -121z" />
    <glyph glyph-name="A" unicode="A" horiz-adv-x="785" 
d="M998 -231h-76q-107 0 -181 75q-71 82 -141 163q-108 106 -273 155q-28 -34 -75 -89.5t-111 -113t-103 -57.5q-19 0 -26.5 7.5t-7.5 26.5q0 15 86.5 67.5t203.5 169.5q-45 11 -85 11q-42 0 -64.5 -7.5t-57.5 -25.5q29 27 66.5 39t79.5 12q39 0 77 -8q92 115 160 242
t97 231q33 -152 77 -334.5t131 -343t223 -220.5zM507 450q-31 -68 -71.5 -132.5t-91.5 -131.5q77 -19 143.5 -45.5t112.5 -63.5q-22 45 -49 152t-44 221z" />
    <glyph glyph-name="B" unicode="B" horiz-adv-x="914" 
d="M482 651l18 15v-15q166 0 247 -60.5t81 -172.5q0 -64 -22 -89t-84 -51q44 -16 108.5 -89t64.5 -154q0 -124 -130 -189t-297 -65q-99 0 -172 23.5t-87 65.5q47 -32 81 -44t82 -12v572q0 43 29 119.5t54 109.5q-238 0 -319.5 -57.5t-81.5 -145.5q0 -95 44 -153.5
t156 -123.5q-122 0 -186 69.5t-64 173.5q0 136 115.5 204.5t362.5 68.5zM499 -5q0 -57 -33 -101.5t-67 -78.5q185 0 275.5 43t90.5 169q0 102 -46.5 167t-120.5 84q77 22 103.5 56t26.5 84q0 116 -57.5 156.5t-171.5 40.5v-620z" />
    <glyph glyph-name="C" unicode="C" horiz-adv-x="728" 
d="M378 650h248q8 -37 41.5 -97t41.5 -87q-71 55 -142 111q-88 47 -184 47q-142 0 -193.5 -85.5t-51.5 -223.5q0 -154 78 -301.5t225 -147.5q120 0 177 46t94 118q0 -93 -61 -144t-228 -51q-176 0 -292 96t-116 288q0 199 107 315t256 116z" />
    <glyph glyph-name="D" unicode="D" horiz-adv-x="999" 
d="M968 216q0 -221 -121.5 -327.5t-433.5 -106.5h-36q-84 0 -149.5 30t-89.5 130q37 -67 87 -91t111 -37v576q0 43 31 114.5t56 104.5q-191 0 -280 -36.5t-89 -156.5q0 -101 43 -155t160 -121q-126 0 -189.5 67t-63.5 167q0 122 89.5 198t352.5 76l18 16v-16q226 0 365 -98
t139 -334zM467 9q0 -44 -30 -96.5t-62 -96.5q147 0 246.5 23t160 94t60.5 209q0 221 -81 345.5t-294 124.5v-603z" />
    <glyph glyph-name="E" unicode="E" horiz-adv-x="849" 
d="M382 651l16 15v-15h357q0 -39 33.5 -96.5t43.5 -92.5q-65 58 -129 116q-70 42 -153 42h-153v-313q49 61 97.5 99.5t119.5 38.5q39 0 60 -22t21 -58q0 -33 -21 -71q3 26 3 43q0 41 -14.5 53.5t-40.5 12.5q-54 0 -139.5 -88.5t-85.5 -220.5q0 -82 26.5 -99t114.5 -17
q99 0 174 45.5t118 133.5q-5 -47 -29.5 -102.5t-45.5 -101.5h-582l38 20q60 37 60 88v351q0 47 12.5 80.5t62.5 127.5q-162 0 -227 -47.5t-65 -160.5t37.5 -170.5t121.5 -104.5q-117 0 -163 71t-46 178q0 128 86 196.5t292 68.5z" />
    <glyph glyph-name="F" unicode="F" horiz-adv-x="919" 
d="M1004 666q-39 -50 -101.5 -79t-130.5 -29h-367q81 -16 177.5 -91t109.5 -194q65 0 121.5 29.5t84.5 97.5l-59 -250q-15 43 -29 87q-35 -12 -64.5 -19t-47.5 -11q0 -203 -107 -315t-269 -112q-151 0 -209.5 69t-58.5 170q0 126 86.5 186.5t214.5 60.5h206
q-26 142 -106 210.5t-192 68.5q-99 0 -157 -47t-102 -140q0 128 104.5 210t237.5 82q78 0 209.5 -1t181.5 -1q116 0 178.5 3.5t88.5 14.5zM96 44q0 -87 71 -159t163 -72q120 0 177 98.5t57 291.5h-293q-72 0 -123.5 -44t-51.5 -115z" />
    <glyph glyph-name="G" unicode="G" horiz-adv-x="846" 
d="M429 666q52 0 154.5 -19t130.5 -19q-31 -60 -40 -86.5t-15 -66.5q-32 92 -102 127t-179 35q-133 0 -187.5 -87t-54.5 -222q0 -187 78.5 -326.5t231.5 -139.5q90 0 145.5 51.5t55.5 139.5q0 87 -41 106t-152 19q-51 0 -95 -10t-77 -57q0 48 52.5 99.5t127.5 51.5
q26 0 54 -0.5t57 -0.5q99 0 166 5t103 20q-14 -38 -54.5 -77t-113.5 -39q19 -22 26 -42.5t7 -65.5q0 -125 -79.5 -175.5t-207.5 -50.5q-214 0 -310.5 115t-96.5 269q0 204 109.5 325t306.5 121z" />
    <glyph glyph-name="H" unicode="H" horiz-adv-x="912" 
d="M263 651h232q-43 -18 -70.5 -45.5t-27.5 -67.5v-275q73 59 141 92t131 44v129q0 48 -17 72.5t-78 50.5h316q-62 -18 -76.5 -54t-17.5 -69l1 -119q57 -9 74.5 -23t25.5 -50q-29 26 -45.5 34t-53.5 8v-316q0 -39 26 -66t66 -43h-309q41 17 64 44t23 65v306
q-77 -15 -174 -101t-97 -181q0 -65 24.5 -90t67.5 -43h-314q39 16 68 49t29 74v495q0 25 -15.5 37.5t-43.5 12.5q-54 0 -106.5 -39t-52.5 -128q0 -91 39 -152.5t126 -107.5q-111 0 -163 66t-52 160q0 109 77.5 170t181.5 61z" />
    <glyph glyph-name="I" unicode="I" horiz-adv-x="581" 
d="M284 651h337q-91 -38 -91 -112v-469q0 -32 19.5 -64.5t71.5 -54.5h-308q91 40 91 119v420q0 57 15 85q22 28 35 44h-179q-126 0 -173.5 -52t-47.5 -146q0 -74 40 -134t102 -60q58 0 72 51t40 51q19 0 19 -25q0 -35 -36 -67.5t-103 -32.5q-87 0 -135.5 62t-48.5 155
q0 119 91 174.5t189 55.5z" />
    <glyph glyph-name="J" unicode="J" horiz-adv-x="670" 
d="M392 651h333q-44 -18 -68 -46.5t-24 -67.5v-476q0 -82 -28.5 -169.5t-114.5 -156.5t-243 -69q-137 0 -190 61.5t-53 148.5q0 59 21.5 109.5t73.5 50.5q-35 -11 -52 -41.5t-17 -68.5q0 -97 72 -164t171 -67q119 0 176.5 88.5t57.5 202.5v496q0 52 9.5 74.5t41.5 61.5h-210
q-108 0 -150.5 -59t-42.5 -140q0 -76 41.5 -135.5t111.5 -59.5q55 0 83.5 31t42.5 83q0 -79 -41.5 -107.5t-102.5 -28.5q-89 0 -137 62t-48 146q0 111 87 176t200 65z" />
    <glyph glyph-name="K" unicode="K" horiz-adv-x="878" 
d="M296 651h658q-56 -10 -98 -35t-83 -64.5t-101.5 -100.5t-71.5 -74t-11 -28q0 -12 14 -29.5t126 -153.5t208 -245t176.5 -167t156.5 -58q63 0 98.5 39t35.5 94q0 26 -11 42.5t-23 32.5q0 14 11.5 19.5t22.5 5.5q29 0 43.5 -26t14.5 -65q0 -67 -50.5 -117.5t-132.5 -50.5
q-103 0 -216.5 78.5t-230.5 200t-331 360.5v-238q0 -59 25 -82t61 -38h-341q72 16 98.5 47t26.5 73v475q0 42 -27.5 61t-64.5 19q-108 0 -166.5 -50.5t-58.5 -154.5q0 -99 44.5 -171.5t147.5 -103.5q-128 0 -185 70t-57 179q0 117 86 186.5t206 69.5zM501 546v-201
q53 52 141.5 137t104 102t15.5 26q0 15 -20.5 19.5t-57.5 4.5h-30q-76 0 -114.5 -15.5t-38.5 -72.5z" />
    <glyph glyph-name="L" unicode="L" horiz-adv-x="577" 
d="M255 651h434q-111 -24 -135 -46t-24 -67v-477q0 -40 58 -123t155 -147t216 -64q50 0 83.5 18.5t33.5 56.5q0 30 -24 48.5t-42 31.5q13 26 30 35.5t45 9.5q29 0 39 -31t10 -61q0 -63 -39.5 -98t-152.5 -35q-145 0 -220.5 45.5t-161.5 125.5t-138 80h-176q-66 0 -120 -42
q-28 -26 -55 -53q46 97 136 119l136 14q62 13 62 93v447q0 44 -31.5 69.5t-85.5 25.5q-129 0 -181.5 -53t-52.5 -152q0 -77 47.5 -130t100.5 -53q37 0 74 24t57 94q0 -75 -37.5 -106.5t-99.5 -31.5q-96 0 -144 51.5t-48 134.5q0 125 81 186t170 61z" />
    <glyph glyph-name="M" unicode="M" horiz-adv-x="974" 
d="M406 666q69 0 108 -50.5t58 -121.5t35.5 -130t30.5 -98q19 64 39 129q41 113 104.5 192t157.5 79q44 0 70.5 -17t39.5 -45q-20 22 -46 32.5t-55 10.5q-62 0 -97 -58t-35 -127q0 -85 48.5 -230t139 -274t211.5 -178h-93q-176 0 -263 143t-116 335l-14 168
q-27 -53 -64 -183t-53 -203q-22 38 -48.5 107.5t-60 168t-47.5 138.5q0 -87 -38 -251.5t-110 -294.5t-170 -130q-61 0 -105 57t-44 135q26 -32 67.5 -53.5t89.5 -21.5q105 0 168.5 110t89.5 245t26 212q0 97 -20 136t-88 39q-123 0 -195 -63t-72 -171q0 -80 31 -140
q34 -47 69 -93q0 -13 -21.5 -23t-36.5 -10q-31 25 -61.5 70t-30.5 147q0 154 104.5 233t296.5 79z" />
    <glyph glyph-name="N" unicode="N" horiz-adv-x="822" 
d="M314 659q109 0 143 -40t96 -128l183 -383v434q0 44 -29 68.5t-69 40.5h252q-74 -16 -100 -43t-26 -66v-487q71 -160 126 -210.5t141 -50.5q25 0 60.5 16.5t64.5 41.5q-27 -38 -62 -60.5t-104 -22.5q-147 0 -242 131.5t-208 372.5t-177 299v-510q0 -40 28.5 -65.5
t71.5 -43.5h-250q73 16 97.5 41.5t24.5 67.5v533q-22 22 -41.5 30.5t-55.5 8.5q-97 0 -140.5 -55.5t-43.5 -141.5q0 -105 45 -162.5t127 -96.5q-113 0 -167.5 66t-54.5 162q0 135 80 194t230 59z" />
    <glyph glyph-name="O" unicode="O" horiz-adv-x="882" 
d="M450 667q201 0 305 -100t104 -289q0 -215 -109.5 -328.5t-307.5 -113.5q-200 0 -304.5 102.5t-104.5 281.5q0 86 32 186.5t125 180.5t260 80zM158 337q0 -214 80.5 -340.5t253.5 -126.5q138 0 192 77t54 215q0 123 -25.5 226t-98.5 175t-203 72q-114 0 -183.5 -67.5
t-69.5 -230.5z" />
    <glyph glyph-name="P" unicode="P" horiz-adv-x="842" 
d="M466 672v-18q11 1 19 1q63 0 140 -18.5t141 -79.5t64 -179q0 -106 -59 -159t-149 -53q-56 0 -89.5 21.5t-33.5 44.5q45 -34 58.5 -39.5t44.5 -5.5q55 0 94 47.5t39 151.5q0 143 -86 191t-186 48v-547q0 -61 67.5 -99.5t67.5 -77.5q0 -10 -1 -15q-21 42 -62 54.5
t-106 12.5q-127 0 -201 -63t-74 -129q0 -24 7.5 -35.5t48.5 -39.5q-11 -1 -17 -1q-33 0 -60.5 14t-27.5 54q0 52 60 114q56 52 112 103q61 61 61 108v313q0 45 19 121.5t65 112.5q-216 0 -292 -56t-76 -144q0 -102 54 -172.5t161 -118.5q-129 0 -197 66t-68 183
q0 140 117.5 205.5t324.5 65.5z" />
    <glyph glyph-name="Q" unicode="Q" horiz-adv-x="909" 
d="M441 666q199 0 304.5 -102.5t105.5 -286.5q0 -135 -50 -232q-55 -72 -109 -144l26 -48q36 -55 93.5 -96t138.5 -41q52 0 77 14t55 54q0 -41 -53 -71.5t-130 -30.5q-104 0 -165.5 51.5t-116.5 133.5q-28 -14 -79.5 -23.5t-104.5 -9.5q-210 0 -310.5 106t-100.5 278
q0 225 115.5 336.5t303.5 111.5zM146 336q0 -228 91 -350t221 -122q31 0 70.5 6.5t74.5 21.5q-44 95 -109 169.5t-128 74.5q-34 0 -52.5 -10.5t-34.5 -29.5q5 40 37 56t75 16q91 0 160.5 -67.5t114.5 -162.5q34 35 47 95t13 127q0 110 -26.5 216.5t-98 182t-195.5 75.5
q-126 0 -193 -65t-67 -233z" />
    <glyph glyph-name="R" unicode="R" horiz-adv-x="920" 
d="M897 445q0 -100 -78 -157.5t-196 -57.5q38 -67 105 -177.5t183 -226t235 -115.5q61 0 126 36t93 64q-45 -66 -110 -103.5t-175 -37.5q-136 0 -243.5 85.5t-182 206t-150.5 283.5q132 0 199.5 32t67.5 134q0 112 -63.5 161.5t-244.5 49.5v-560q0 -35 20.5 -63t70.5 -47
h-341q58 11 91.5 42t33.5 76v324q0 58 22 127t58 101q-217 0 -290.5 -52t-73.5 -142q0 -87 47.5 -156t162.5 -117q-125 0 -192.5 68.5t-67.5 170.5q0 129 101 194t344 65l16 15v-16q239 0 335.5 -44t96.5 -163z" />
    <glyph glyph-name="S" unicode="S" horiz-adv-x="790" 
d="M279 651h331q0 -36 42.5 -114t46.5 -95q-89 99 -172.5 141.5t-209.5 42.5q-93 0 -137.5 -38t-44.5 -96q0 -102 155 -139t305 -71q162 -62 162 -219q0 -124 -79 -210.5t-265 -86.5q-106 0 -193.5 20t-151.5 85t-64 191q0 50 11 85t47 55q-16 -18 -20.5 -40.5t-4.5 -54.5
q0 -120 122.5 -196.5t311.5 -76.5q118 0 172.5 42t54.5 129q0 128 -158 176l-294 68q-159 55 -159 201q0 83 57 142t135 59z" />
    <glyph glyph-name="T" unicode="T" horiz-adv-x="750" 
d="M996 669q-61 -65 -130 -91t-164 -26h-291q20 0 88.5 -33.5t131.5 -118t63 -227.5q0 -193 -107.5 -290t-266.5 -97q-147 0 -219.5 89.5t-72.5 187.5q0 107 57.5 180.5t167.5 73.5q73 0 124.5 -48.5t51.5 -122.5q0 -50 -33 -86t-69 -47q19 32 29 59t10 66q0 74 -36 112.5
t-93 38.5q-55 0 -111 -53.5t-56 -147.5q0 -113 72 -191t185 -78q119 0 177 99t58 227q0 203 -85 304t-215 101q-107 0 -160 -47t-100 -145q0 138 102.5 215t240.5 77h100h79h63h50h39h31h23h19h15h11h24t13 1q30 0 84.5 5.5t99.5 12.5z" />
    <glyph glyph-name="U" unicode="U" horiz-adv-x="922" 
d="M356 651h234q-120 -126 -172.5 -231t-52.5 -222q0 -152 52 -192.5t150 -40.5q61 0 115.5 40t54.5 93v494q0 28 -12 38.5t-39 20.5h193q27 0 51 -15t38 -39q-15 9 -31.5 19t-32.5 10q-11 0 -26.5 -11.5t-15.5 -39.5v-510q0 -32 24 -63t73 -49h-222v51q-37 -52 -104 -100.5
t-151 -48.5q-137 0 -192.5 81t-55.5 221q0 113 42 203t98.5 152.5t115.5 108.5h-176q-126 0 -188.5 -62.5t-62.5 -159.5q0 -66 27.5 -122.5t85.5 -86.5q-78 9 -125 66.5t-47 134.5q0 93 82 176.5t270 83.5z" />
    <glyph glyph-name="V" unicode="V" horiz-adv-x="960" 
d="M303 651h251q-51 -51 -89.5 -152t-38.5 -241q0 -160 48 -281.5t129 -121.5q19 0 67.5 43.5t89.5 132.5t41 219q0 91 -42.5 166.5t-104.5 75.5q-11 0 -23.5 -11t-30.5 -31q9 57 50 112.5t79 55.5q51 0 125.5 -97.5t74.5 -219.5q0 -137 -121.5 -306.5t-245.5 -169.5
q-134 0 -198 116.5t-64 275.5q0 119 42 218t108 187h-134q-111 0 -187 -55.5t-76 -148.5q0 -69 40 -143t143 -133q-101 0 -167.5 65.5t-66.5 167.5q0 131 91.5 203.5t209.5 72.5z" />
    <glyph glyph-name="W" unicode="W" horiz-adv-x="1134" 
d="M270 651h259q-24 -3 -65.5 -14.5t-41.5 -36.5q0 -3 2 -9l189 -481q12 30 28.5 76.5t44 126t39.5 114.5q-40 104 -58.5 144t-86.5 80h307q-94 -29 -94 -60q0 -8 3 -17l183 -464q53 159 85 257.5t36 117.5t4 32q0 53 -40 84.5t-99 49.5h367q-71 -13 -120.5 -55.5
t-65.5 -81.5l-210 -631l-194 504l-172 -504q-5 16 -57.5 150.5t-92 236t-76.5 196.5t-60.5 125.5t-57.5 30.5q-63 0 -113.5 -49.5t-50.5 -146.5q0 -76 40.5 -144.5t111.5 -68.5q39 0 72.5 30.5t33.5 67.5q0 19 -10 36q24 -18 24 -49q0 -40 -38 -74t-100 -34q-61 0 -126.5 49
t-65.5 154q0 127 78.5 192.5t187.5 65.5z" />
    <glyph glyph-name="X" unicode="X" horiz-adv-x="810" 
d="M314 662q128 0 199.5 -73.5t88.5 -142.5l95 155q-10 23 -14 29.5t-37 20.5h251q-128 -21 -166.5 -67t-118.5 -169q71 -282 195 -432t259 -150q59 0 98.5 24t68.5 57q-33 -58 -85.5 -85.5t-140.5 -27.5q-159 0 -264.5 96t-155 200.5t-73.5 188.5q-63 -94 -91 -137.5
t-47 -82.5t-19 -67q0 -19 16.5 -30.5t26.5 -18.5h-220q62 24 108.5 69.5t102 129.5t111.5 170q-38 124 -62.5 182t-71 97t-122.5 39q-99 0 -141 -73t-42 -178q0 -83 28 -130t97 -87q-99 0 -141.5 63t-42.5 146q0 115 70.5 199.5t239.5 84.5z" />
    <glyph glyph-name="Y" unicode="Y" horiz-adv-x="419" 
d="M676 682q91 0 144 -65.5t53 -160.5q-45 103 -87.5 134.5t-117.5 31.5q-108 0 -173 -68t-93 -154.5t-28 -137.5v-192q0 -34 27.5 -68t81.5 -49h-293q45 18 68.5 42.5t23.5 66.5v217q0 34 -40.5 111t-121 152t-198.5 109h319q-26 -10 -44 -21t-18 -29q0 -1 42 -52
t78 -105.5t43 -93.5q26 120 112 226t222 106z" />
    <glyph glyph-name="Z" unicode="Z" horiz-adv-x="784" 
d="M756 663l-350 -305q134 0 245.5 -85t111.5 -245q0 -53 -33.5 -137t-131.5 -154.5t-280 -70.5q-145 0 -223.5 72.5t-78.5 198.5q0 116 73 183.5t184 67.5q110 0 172.5 -60.5t62.5 -142.5q0 -33 -12 -65q0 86 -80 160t-178 74q-85 0 -122 -50t-37 -126q0 -130 71 -203
t184 -73q132 0 215 101.5t83 241.5q0 116 -72 187t-185 71q-58 0 -118 -19l305 268h-344q-49 0 -111 -22q-58 -25 -65 -28q30 47 99 98t150 51h367q11 -1 18 -1q20 0 38.5 2.5t41.5 10.5z" />
    <glyph glyph-name="bracketleft" unicode="[" horiz-adv-x="262" 
d="M37 495h193v-25h-68v-610h68v-25h-193v660z" />
    <glyph glyph-name="backslash" unicode="\" horiz-adv-x="454" 
d="M46 562h42l325 -660h-42z" />
    <glyph glyph-name="bracketright" unicode="]" horiz-adv-x="272" 
d="M37 495h193v-660h-193v25h67v610h-67v25z" />
    <glyph glyph-name="asciicircum" unicode="^" horiz-adv-x="397" 
d="M200 342l168 -173h-46l-117 117h-11l-118 -117h-46q2 2 77.5 80t92.5 93z" />
    <glyph glyph-name="underscore" unicode="_" horiz-adv-x="454" 
d="M-2 -40h460v-25h-460v25z" />
    <glyph glyph-name="grave" unicode="`" horiz-adv-x="202" 
d="M170 466q-15 0 -83.5 48t-68.5 84q0 16 21 16q35 0 89 -74z" />
    <glyph glyph-name="a" unicode="a" horiz-adv-x="462" 
d="M383 428v-370q1 -13 13 -13q9 0 21.5 6.5t40.5 22.5q-13 -27 -43.5 -53t-58.5 -26q-16 0 -41.5 22t-25.5 59v54q-61 -61 -103 -98t-73 -37q-34 0 -60.5 40t-26.5 107q0 136 75 211t195 75h87zM122 218q0 -49 16 -72t44 -23q24 0 51.5 14.5t55.5 39.5v223
q-75 0 -121 -55.5t-46 -126.5z" />
    <glyph glyph-name="b" unicode="b" horiz-adv-x="370" 
d="M118 264q50 83 95 123.5t77 40.5q36 0 47.5 -19.5t11.5 -71.5v-122q0 -103 -56.5 -161.5t-137.5 -58.5q-60 0 -96.5 40t-36.5 139v320q0 73 38.5 123t101.5 50h90q-32 -58 -83 -61.5t-51 -18.5v-323zM118 126q0 -88 64 -88q27 0 48.5 27.5t21.5 92.5v128q0 21 -4 32.5
t-25 11.5q-33 0 -69 -49t-36 -69v-86z" />
    <glyph glyph-name="c" unicode="c" horiz-adv-x="394" 
d="M254 431q39 0 82 -25.5t43 -62.5q0 -10 -26 -37t-45 -38q-9 45 -46 73t-76 28q-37 0 -60.5 -40.5t-23.5 -94.5q0 -96 44.5 -135.5t101.5 -39.5q24 0 52 13.5t58 33.5q-40 -61 -79.5 -85.5t-109.5 -24.5q-97 0 -124 52t-27 128q0 115 66 185t170 70z" />
    <glyph glyph-name="d" unicode="d" horiz-adv-x="458" 
d="M383 58q1 -13 13 -13q9 0 21.5 6.5t40.5 22.5q-12 -26 -43 -51.5t-59 -28.5q-16 0 -41.5 23t-25.5 59v54q-60 -60 -102.5 -98t-73.5 -38q-34 0 -60.5 40.5t-26.5 107.5q0 136 74 211t189 75v68q0 72 38 121.5t103 49.5h89q-32 -58 -84 -61.5t-52 -18.5v-529zM122 218
q0 -49 16 -72t44 -23q24 0 51.5 14.5t55.5 39.5v223q-75 0 -121 -55.5t-46 -126.5z" />
    <glyph glyph-name="e" unicode="e" horiz-adv-x="414" 
d="M256 432q39 0 64.5 -14t69.5 -58l-243 -243q20 -33 49.5 -42.5t66.5 -9.5t69.5 17t58.5 36q-40 -61 -88 -91.5t-110 -30.5q-89 0 -126 57t-37 123q0 116 65 186t161 70zM138 140l70 68q53 57 53 86q0 35 -17 54.5t-45 19.5q-35 0 -55 -41.5t-20 -98.5q0 -24 3 -45.5
t11 -42.5z" />
    <glyph glyph-name="f" unicode="f" horiz-adv-x="285" 
d="M283 450q-20 -46 -47.5 -63t-76.5 -17v-417q0 -151 -54.5 -219t-126.5 -68h-106q20 65 107 67t87 71v566h-69l53 59h17v49q0 77 38.5 133t101.5 56h192q-25 -43 -64.5 -54t-99.5 -11q-49 0 -62.5 -2.5t-13.5 -21.5v-149q114 0 124 21z" />
    <glyph glyph-name="g" unicode="g" horiz-adv-x="410" 
d="M383 -51q0 -119 -71.5 -202t-162.5 -83q-67 0 -93.5 40t-26.5 103q0 43 14.5 86t69.5 107q-35 0 -61 37.5t-26 104.5q0 130 86.5 208t183.5 78l87 1v-480zM289 130q-72 -71 -143 -142q-57 -80 -57 -160q0 -57 25 -81t68 -24q48 0 77.5 44t29.5 105v258zM122 218
q0 -49 16 -72t44 -23q24 0 51.5 14.5t55.5 39.5v223q-75 0 -121 -55.5t-46 -126.5z" />
    <glyph glyph-name="h" unicode="h" horiz-adv-x="430" 
d="M349 337l-1 -279q1 -13 12 -13q15 0 57 29q-14 -30 -41.5 -54t-61.5 -24t-48 21.5t-14 52.5v216q0 21 -4 32.5t-25 11.5q-33 0 -69 -49t-36 -69v-118q0 -38 -28 -68t-69 -30v498q0 72 39 122.5t102 50.5h90q-32 -58 -83 -61.5t-51 -18.5v-323q50 84 95.5 125t76.5 41
q36 0 47.5 -20t11.5 -73z" />
    <glyph glyph-name="i" unicode="i" horiz-adv-x="261" 
d="M135 651q25 0 42 -18t17 -49q0 -35 -30 -55t-54 -20q-21 0 -31.5 22.5t-10.5 52.5q0 38 18 52.5t49 14.5zM122 433q31 0 43.5 -24t12.5 -57v-281q4 -28 21 -28q12 0 28 13t21 17q-24 -41 -48.5 -60t-55.5 -19q-26 0 -42 22t-16 52v295q0 19 -14 19q-19 0 -59 -34
q5 19 41 52t68 33z" />
    <glyph glyph-name="j" unicode="j" horiz-adv-x="196" 
d="M113 435q38 0 46.5 -27t10.5 -56v-399q0 -113 -77.5 -201t-156.5 -88q-76 0 -103 65.5t-27 168.5q27 -79 72 -123t116 -44q54 0 69 49t15 126v458q0 20 -15 20q-16 0 -52 -23q17 25 41 49.5t61 24.5zM119 651q25 0 42 -18t17 -49q0 -35 -30 -55t-54 -20q-21 0 -31.5 22.5
t-10.5 52.5q0 38 18 52.5t49 14.5z" />
    <glyph glyph-name="k" unicode="k" horiz-adv-x="428" 
d="M118 269q63 70 113 115t96 45h92q-67 -20 -137.5 -62t-116.5 -84q70 -13 115 -117t93 -104q10 0 23.5 5.5t33.5 19.5q-14 -31 -47.5 -61t-66.5 -30q-48 0 -94.5 107t-103.5 113v-122q0 -38 -28 -68t-69 -30v498q0 72 39 122.5t102 50.5h90q-32 -58 -83 -61.5t-51 -18.5
v-318z" />
    <glyph glyph-name="l" unicode="l" horiz-adv-x="220" 
d="M20 494q0 72 39.5 122.5t102.5 50.5h90q-32 -58 -83 -61.5t-51 -18.5v-509q0 -18 14 -18q12 0 32.5 13.5t45.5 35.5q-25 -46 -63.5 -80.5t-69.5 -34.5q-30 0 -43.5 22.5t-13.5 61.5v416z" />
    <glyph glyph-name="m" unicode="m" horiz-adv-x="681" 
d="M275 -6v292q0 23 -5 36.5t-28 13.5q-25 0 -66 -52.5t-41 -61.5v-170q-5 -21 -34.5 -39.5t-58.5 -18.5v342q0 16 -12 16q-15 0 -57 -27q38 48 69.5 75.5t49.5 27.5q28 0 35.5 -30.5t7.5 -94.5v-37q39 61 82.5 111.5t91.5 50.5q37 0 49 -25t12 -75q0 -15 -0.5 -29.5
t-0.5 -29.5q37 53 82.5 106t91.5 53q32 0 45.5 -17t13.5 -58v-288q0 -24 15 -24q17 0 52 32q-12 -33 -39 -56t-62 -23q-58 0 -58 75v217q0 26 -8 38t-26 12q-23 0 -65 -53t-42 -61v-170q-5 -21 -33.5 -39.5t-60.5 -18.5z" />
    <glyph glyph-name="n" unicode="n" horiz-adv-x="446" 
d="M369 63q0 -22 15 -22q20 0 55 33q-20 -38 -50.5 -59t-54.5 -21q-27 0 -43.5 16.5t-16.5 50.5l1 225q0 23 -5 36.5t-28 13.5q-25 0 -66 -52.5t-41 -61.5v-170q-5 -21 -34.5 -39.5t-58.5 -18.5v342q0 16 -12 16q-15 0 -57 -27q38 48 69.5 75.5t49.5 27.5q28 0 35.5 -30.5
t7.5 -94.5v-37q39 61 82.5 111.5t91.5 50.5q37 0 49 -25t12 -75q0 -15 -0.5 -29.5t-0.5 -29.5q0 -29 -0.5 -61.5t-0.5 -78.5v-45.5t1 -20.5z" />
    <glyph glyph-name="o" unicode="o" 
d="M244 433q82 0 128.5 -59t46.5 -146q0 -92 -68 -163t-152 -71q-79 0 -126 59.5t-47 149.5t66 160t152 70zM114 262q0 -82 21.5 -151t96.5 -69q43 0 70 36t27 92q0 81 -27 148.5t-92 67.5q-44 0 -70 -35t-26 -89z" />
    <glyph glyph-name="p" unicode="p" horiz-adv-x="434" 
d="M115 434q18 0 22.5 -16t4.5 -90q27 33 55 67q39 39 88 39q34 0 79 -54.5t45 -151.5q0 -99 -79.5 -166t-129.5 -67q-13 0 -29.5 11.5t-28.5 21.5v-218q0 -37 34 -70t39 -43q-47 24 -62.5 29t-35.5 5q-29 0 -46.5 -8t-92.5 -57q4 12 38 49t34 80v525q0 10 -5 14t-14 4
q-18 0 -33.5 -8t-23.5 -13q29 39 66 78t75 39zM142 122q0 -27 20.5 -49.5t51.5 -22.5q45 0 71.5 49t26.5 104q0 74 -19.5 107t-49.5 33q-34 0 -67.5 -31.5t-33.5 -46.5v-143z" />
    <glyph glyph-name="q" unicode="q" horiz-adv-x="426" 
d="M383 -168q0 -17 28.5 -44.5t44.5 -55.5q-22 21 -42.5 27t-51.5 6q-36 0 -63.5 -14t-73.5 -48q0 7 32 46.5t32 57.5v323q-61 -61 -103 -98t-73 -37q-34 0 -60.5 40t-26.5 107q0 136 75 211t195 75h87v-596zM122 218q0 -49 16 -72t44 -23q24 0 51.5 14.5t55.5 39.5v223
q-75 0 -121 -55.5t-46 -126.5z" />
    <glyph glyph-name="r" unicode="r" horiz-adv-x="402" 
d="M104 433q28 0 35.5 -26.5t7.5 -92.5v-45q38 53 77 106q49 58 97 58q27 0 42.5 -19.5t15.5 -47.5q0 -34 -38 -75.5t-75 -77.5q5 10 10.5 33.5t5.5 41.5q0 22 -7.5 36t-25.5 14q-19 0 -47.5 -34.5t-54.5 -69.5v-187q-17 -16 -40 -32.5t-53 -20.5v331q0 21 -20 21
q-9 0 -21 -6.5t-27 -21.5q16 33 57 74t61 41z" />
    <glyph glyph-name="s" unicode="s" horiz-adv-x="330" 
d="M305 436q-17 -27 -25 -54t-14 -49q-32 35 -60 49t-65 14t-52 -13t-15 -35q0 -25 75 -56.5t118.5 -62.5t43.5 -99q0 -80 -49.5 -106t-125.5 -26q-77 0 -98 28.5t-21 139.5q19 -52 62 -94t103 -42q69 0 69 62q0 30 -73 63t-114 64t-41 104q0 63 39 87t104 24q17 0 47 -6
t35 -6q16 0 27 2.5t30 11.5z" />
    <glyph glyph-name="t" unicode="t" horiz-adv-x="266" 
d="M145 429h82q-13 -29 -36.5 -35.5t-45.5 -7.5v-303q0 -22 17 -22q14 0 35.5 13.5t51.5 41.5q-28 -53 -66 -87.5t-77 -34.5q-30 0 -41.5 24.5t-11.5 87.5v280h-59q3 23 53.5 51.5t97.5 148.5v-157z" />
    <glyph glyph-name="u" unicode="u" horiz-adv-x="490" 
d="M94 434q33 0 41 -25t10 -51v-188v-27q0 -31 7.5 -47.5t34.5 -16.5q25 0 62 38.5t37 68.5v172q0 31 26.5 53.5t65.5 22.5v-356q3 -4 7.5 -8t15.5 -4q14 0 33.5 10.5t47.5 37.5q-22 -35 -64.5 -77.5t-80.5 -42.5q-28 0 -39.5 16.5t-11.5 48.5v44q-47 -50 -86 -79.5
t-82 -29.5q-36 0 -50.5 34t-14.5 83v232q0 19 -4 28t-17 9q-16 0 -45 -18q23 37 50 54.5t57 17.5z" />
    <glyph glyph-name="v" unicode="v" horiz-adv-x="472" 
d="M377 448q16 0 47 -40.5t31 -89.5q0 -25 -66 -133t-101 -194q-47 73 -94.5 178t-67.5 135.5t-64 30.5q-7 0 -36.5 -10.5t-43.5 -19.5q20 33 71.5 79.5t75.5 46.5q45 0 108 -137.5t91 -171.5q14 17 29.5 54.5t15.5 76.5t-19.5 64.5t-60.5 51.5q11 21 37.5 50t46.5 29z" />
    <glyph glyph-name="w" unicode="w" horiz-adv-x="767" 
d="M676 466q16 0 45 -34t29 -66q0 -20 -26 -71.5t-84.5 -164t-73.5 -148.5q-76 152 -151 304q-16 -46 -78.5 -165t-69.5 -135q-80 183 -131.5 277.5t-82.5 94.5q-14 0 -33.5 -7t-45.5 -25q21 34 63 70.5t80 36.5q40 0 108 -143t84 -171q7 9 45.5 92t46.5 105q-9 13 -18 27
q-13 16 -36 23q15 22 34 44.5t41 22.5q24 0 44 -38.5t70 -147t72 -126.5q18 23 43 79.5t25 75.5q0 29 -23.5 63t-53.5 52q21 33 41 54t36 21z" />
    <glyph glyph-name="x" unicode="x" horiz-adv-x="491" 
d="M99 434q60 0 94.5 -48.5t56.5 -114.5q9 16 36 57t27 62t-39 39h164q-53 -20 -89 -55t-86 -131q22 -75 57.5 -138t78.5 -63q15 0 28 6.5t50 26.5q-17 -40 -47.5 -60.5t-71.5 -20.5q-59 0 -98 45.5t-70 116.5q-17 -27 -40.5 -66.5t-23.5 -51.5q0 -9 14 -20.5t34 -17.5h-161
q40 13 83 62t81 128q-30 89 -60.5 140t-69.5 51q-23 0 -71 -22q45 52 64.5 63.5t58.5 11.5z" />
    <glyph glyph-name="y" unicode="y" horiz-adv-x="467" 
d="M378 450q15 0 48 -42t33 -90q0 -24 -72 -152t-108 -201.5t-36 -132.5q0 -49 28.5 -88t75.5 -39q39 0 60.5 20.5t43.5 72.5q0 -77 -45.5 -105t-105.5 -28q-78 0 -114 25.5t-36 91.5q0 53 31.5 103.5t88.5 125.5l-49.5 110t-69.5 139t-50.5 72t-22.5 3q-23 0 -48 -10.5
t-48 -24.5q29 45 71.5 89.5t76.5 44.5q46 0 112.5 -141.5t91.5 -175.5q16 29 31 64.5t15 72.5q0 41 -20.5 69.5t-60.5 46.5q15 27 33 53.5t46 26.5z" />
    <glyph glyph-name="z" unicode="z" horiz-adv-x="410" 
d="M171 428h234l-195 -193h67q14 0 30 3.5t37 14.5q-36 -47 -61 -67t-65 -20h-76q-24 -20 -48 -45t-24 -51h208q51 0 85 45q26 49 29 54q1 -11 1 -19q0 -56 -17 -104t-68 -48l-282 2q0 52 20.5 92t61.5 74h-69q-19 0 -30 -5t-19 -11q23 28 53.5 56.5t66.5 28.5h64l124 123
h-169q-29 0 -44 -8.5t-15 -31.5t19 -35q25 -11 33 -15q-53 0 -74 17.5t-21 41.5q0 56 44.5 78.5t99.5 22.5z" />
    <glyph glyph-name="braceleft" unicode="{" horiz-adv-x="350" 
d="M298 498q-72 -39 -81 -82t-15.5 -155.5t-47.5 -154.5q34 -34 41 -78t7 -120t14 -124t67 -83q-67 0 -123 77.5t-56 123.5v47q0 74 -10.5 118t-44.5 44q34 0 44.5 45t10.5 117v33q0 48 56.5 120t137.5 72z" />
    <glyph glyph-name="bar" unicode="|" horiz-adv-x="182" 
d="M58 658h58v-926h-58v926z" />
    <glyph glyph-name="braceright" unicode="}" horiz-adv-x="350" 
d="M258 306v-35q0 -70 10.5 -115t44.5 -45q-34 0 -44.5 -45t-10.5 -120v-44q0 -46 -56 -123.5t-124 -77.5q64 43 77 126q2 74 5.5 154.5t47.5 124.5q-41 41 -47.5 155.5t-15.5 156t-81 80.5q81 0 137.5 -71.5t56.5 -120.5z" />
    <glyph glyph-name="asciitilde" unicode="~" horiz-adv-x="456" 
d="M146 562q26 0 93 -33.5t99 -33.5q38 0 55 15.5t37 39.5q-10 -51 -35.5 -82t-73.5 -31q-33 0 -96 33t-96 33q-34 0 -50 -12t-42 -41q7 48 35 80t74 32z" />
    <glyph glyph-name="nbspace" unicode="&#xa0;" horiz-adv-x="250" 
 />
    <glyph glyph-name="exclamdown" unicode="&#xa1;" horiz-adv-x="365" 
d="M25 -335q32 49 61.5 185.5t48 201t83.5 170.5q19 -51 28.5 -99.5t9.5 -92.5q0 -103 -42.5 -180t-94.5 -121t-94 -64zM201 323q-7 0 -33.5 25.5t-54.5 41.5q10 13 47.5 52.5t48.5 39.5q8 0 31 -24t58 -43q-28 -31 -57.5 -61.5t-39.5 -30.5z" />
    <glyph glyph-name="cent" unicode="&#xa2;" horiz-adv-x="427" 
d="M202 453v61h42v-61q40 0 85.5 -36t53.5 -85q-47 54 -139 54v-272q49 0 80 12t62 42q-15 -56 -58 -86t-83 -30v-64h-42v64q-62 0 -110.5 49.5t-48.5 151.5q0 93 52.5 146.5t105.5 53.5zM114 252q0 -62 24 -100t64 -38v272q-44 0 -66 -34t-22 -100z" />
    <glyph glyph-name="sterling" unicode="&#xa3;" horiz-adv-x="486" 
d="M346 310h-109q12 -26 23 -68.5t11 -76.5q0 -17 -3 -32q33 -25 59 -39t45 -14q14 0 22 9t8 30q0 14 -6 21t-23 7q-12 0 -27 -4l-16 51q31 17 60 17q36 0 60 -27.5t24 -81.5q0 -50 -29.5 -83.5t-70.5 -33.5q-27 0 -65 24.5t-72 50.5q-22 -36 -57.5 -55.5t-73.5 -19.5
t-68.5 26.5t-30.5 74.5q0 47 27.5 69t69.5 22q32 0 60 -11q-14 78 -39 144h-94l15 56h61q-2 12 -5 34.5t-3 34.5q0 90 57.5 142t132.5 52q60 0 108.5 -37.5t48.5 -108.5q0 -35 -14.5 -58t-42.5 -23q-26 0 -37 15t-11 38q0 16 3 30.5t6 24.5q0 24 -20 36t-41 12
q-40 0 -62 -31t-22 -81q0 -20 3.5 -39t10.5 -41h143zM74 86q0 -27 20 -27q18 0 37 14.5t26 23.5q-11 8 -25.5 13.5t-28.5 5.5q-13 0 -21 -7t-8 -23z" />
    <glyph glyph-name="currency" unicode="&#xa4;" horiz-adv-x="673" 
d="M142 224q-18 32 -25.5 56.5t-7.5 58.5q0 62 33 118l-40 39l72 72l39 -40q55 34 116 34q68 0 121 -34l39 40l70 -72l-40 -39q34 -53 34 -117q0 -31 -8 -61t-26 -55l40 -40l-70 -71l-39 40q-57 -35 -116 -35q-68 0 -121 35l-39 -40l-72 71zM487 340q0 63 -44.5 109.5
t-111.5 46.5q-65 0 -110.5 -46.5t-45.5 -109.5q0 -62 45 -109t111 -47q65 0 110.5 46.5t45.5 109.5z" />
    <glyph glyph-name="section" unicode="&#xa7;" horiz-adv-x="442" 
d="M42 241q0 36 13 66.5t37 48.5q-21 16 -33 44t-12 59q0 82 53.5 126t122.5 44q53 0 109.5 -34.5t56.5 -94.5q0 -24 -15.5 -40.5t-35.5 -16.5q-38 0 -54 53.5t-62 53.5q-37 0 -52.5 -17t-15.5 -43q0 -35 81.5 -62.5t124 -55.5t42.5 -112q0 -63 -39 -102q40 -40 40 -104
q0 -96 -61 -144t-142 -48q-83 0 -128.5 43t-45.5 92q0 29 16 46t40 17q43 0 58 -58t72 -58q43 0 66 21t23 56q0 44 -95.5 73.5t-129.5 47.5t-34 99zM164 319q-9 -8 -15 -19t-6 -23q0 -33 50.5 -51t104.5 -35q3 10 5.5 19t2.5 16q0 40 -50 58.5t-92 34.5z" />
    <glyph glyph-name="dieresis" unicode="&#xa8;" horiz-adv-x="278" 
d="M78 573q13 0 21.5 -12.5t8.5 -27.5q0 -19 -11.5 -24.5t-28.5 -5.5q-13 0 -21.5 12.5t-8.5 27.5q0 30 40 30zM211 573q14 0 22.5 -12t8.5 -28q0 -19 -11.5 -24.5t-28.5 -5.5q-14 0 -22 13t-8 27t11.5 22t27.5 8z" />
    <glyph glyph-name="copyright" unicode="&#xa9;" horiz-adv-x="672" 
d="M24 197q0 131 92.5 223.5t223.5 92.5t223.5 -92.5t92.5 -223.5q0 -132 -92 -224t-224 -92q-131 0 -223.5 92.5t-92.5 223.5zM342 -84q116 0 198 82t82 199q0 115 -82 198t-198 83q-117 0 -199 -82t-82 -199t82 -199t199 -82zM336 404h123q4 -18 21 -48.5t21 -43.5
q-36 28 -71 56q-44 23 -92 23q-70 0 -96.5 -42.5t-26.5 -111.5q0 -76 39.5 -150t112.5 -74q60 0 89 23.5t46 58.5q0 -46 -30.5 -72t-113.5 -26q-88 0 -146 48t-58 144q0 99 53.5 157t128.5 58z" />
    <glyph glyph-name="guillemotleft" unicode="&#xab;" horiz-adv-x="326" 
d="M246 288l42 -156l-42 -31l-81 187l81 169l42 -28zM109 288l41 -156l-41 -31l-82 180l82 176l41 -28z" />
    <glyph glyph-name="registered" unicode="&#xae;" horiz-adv-x="688" 
d="M542 26q18 -16 34.5 -24t34.5 -8q19 0 44.5 14.5t42.5 35.5q-18 -32 -43.5 -51t-69.5 -19q-41 0 -78 26q-77 -47 -167 -47q-131 0 -223.5 92.5t-92.5 223.5t92.5 223.5t223.5 92.5t223.5 -92.5t92.5 -223.5q0 -73 -29.5 -135.5t-84.5 -107.5zM479 25q-37 38 -66 97.5
t-59 138.5q54 0 81 16t27 67q0 56 -26 81t-98 25v-280q0 -19 8 -32.5t28 -23.5h-136q50 13 50 60v163q2 29 8 61t24 52q-87 0 -116.5 -26t-29.5 -70t19.5 -78.5t64.5 -59.5q-50 0 -77 34.5t-27 86.5q0 64 40.5 96t137.5 32l6 9v-8q96 0 134.5 -22.5t38.5 -82.5
q0 -47 -30.5 -74.5t-78.5 -32.5q20 -45 47 -99.5t69 -103.5q49 39 76.5 96t27.5 122q0 115 -82 198t-198 83q-117 0 -199 -82t-82 -199t82 -199t199 -82q35 0 70.5 10t66.5 27z" />
    <glyph glyph-name="degree" unicode="&#xb0;" horiz-adv-x="394" 
d="M198 664q44 0 72 -28t28 -69q0 -44 -28.5 -71.5t-70.5 -27.5q-44 0 -70.5 27.5t-26.5 70.5q0 42 27 70t69 28zM146 566q0 -20 17 -36t37 -16q21 0 37.5 14.5t16.5 37.5q0 21 -17 38t-38 17q-20 0 -36.5 -16.5t-16.5 -38.5z" />
    <glyph glyph-name="plusminus" unicode="&#xb1;" horiz-adv-x="549" 
d="M506 19h-462v68h462v-68zM309 331h197v-68h-197v-122h-68v122h-197v68h197v122h68v-122z" />
    <glyph glyph-name="acute" unicode="&#xb4;" horiz-adv-x="202" 
d="M166 628q21 0 21 -16q0 -36 -68.5 -84t-84.5 -48l42 74q54 74 90 74z" />
    <glyph glyph-name="mu" unicode="&#xb5;" horiz-adv-x="576" 
d="M166 153q0 -71 14 -95t50 -24q57 0 95 81t38 204v130h92v-328q0 -45 9.5 -66t28.5 -21q20 0 31.5 20.5t11.5 61.5v14h21l1 -9v-13q0 -55 -23.5 -86t-66.5 -31q-49 0 -75.5 43t-26.5 129q-23 -89 -61.5 -130.5t-96.5 -41.5q-42 0 -73 26q-28 27 -40 77l-1 -28
q0 -65 32 -142t32 -91q0 -20 -11 -31t-31 -11q-23 0 -33 17t-10 53l2 58l2 89l-1 101l-2 95v245h92v-296z" />
    <glyph glyph-name="paragraph" unicode="&#xb6;" horiz-adv-x="653" 
d="M176 -221q41 12 54.5 33t13.5 46v15v284q-38 0 -76 7.5t-71.5 28t-54.5 65.5t-21 102q0 53 19.5 99t47 66t56.5 28.5t84 8.5h20h368q-44 -12 -56 -29t-12 -70v-586q0 -57 9.5 -72t58.5 -26h-440zM373 501v-661q0 -12 7 -18t16 -6q22 0 22 24v661q0 12 -7 18t-16 6
q-22 0 -22 -24zM163 230q46 0 67.5 23t21.5 109q0 82 -17 100t-62 18q-37 0 -66.5 -36.5t-29.5 -81.5q0 -49 25 -90.5t61 -41.5z" />
    <glyph glyph-name="cedilla" unicode="&#xb8;" horiz-adv-x="294" 
d="M130 -49l31 2q26 0 46 -20t20 -52q0 -47 -26.5 -70.5t-66.5 -23.5q-31 0 -66 6.5t-55 23.5h21q55 0 91 13t36 55q0 21 -15 30t-34 9h-27l8 76h43z" />
    <glyph glyph-name="guillemotright" unicode="&#xbb;" horiz-adv-x="326" 
d="M69 457l81 -169l-81 -187l-42 31l42 156l-42 141zM206 457l82 -176l-86 -180l-41 31l45 156l-45 141z" />
    <glyph glyph-name="questiondown" unicode="&#xbf;" horiz-adv-x="533" 
d="M239 -332q-102 0 -153.5 48.5t-51.5 138.5q0 73 71 156q66 65 135.5 133t69.5 109q0 29 -16 37t-46 8q-23 0 -45.5 -30.5t-22.5 -66.5q0 -12 3 -23q-9 5 -10.5 21.5t-2.5 33.5q0 48 24 82t82 34q35 0 57 -20t22 -63q0 -61 -56 -132q-52 -60 -104 -119q-56 -70 -56 -130
q0 -85 48.5 -127t111.5 -42q56 0 88 38t32 96q0 63 -12.5 106t-57.5 72q66 0 104.5 -49t38.5 -112q0 -82 -57.5 -140.5t-195.5 -58.5zM270 416q-7 0 -32 23.5t-48 35.5q22 28 50.5 56t36.5 28t29.5 -22t50.5 -39q-18 -21 -48 -51.5t-39 -30.5z" />
    <glyph glyph-name="Agrave" unicode="&#xc0;" horiz-adv-x="628" 
d="M798 -185h-60q-86 0 -145 60q-57 65 -113 130q-87 86 -218 125q-22 -27 -58.5 -70.5t-89 -90.5t-84.5 -47q-20 0 -23.5 7.5t-3.5 19.5t69.5 54.5t162.5 134.5q-39 10 -70 10q-33 0 -51.5 -7t-43.5 -20q23 22 52.5 31.5t64.5 9.5q12 0 26 -1.5t35 -5.5q74 93 128 194
t78 185q51 -234 74.5 -326t91.5 -218.5t178 -174.5zM513 548q-15 0 -84 38.5t-69 67.5q0 12 22 12q35 0 89 -59q21 -30 42 -59zM406 360q-25 -56 -57.5 -106.5t-73.5 -104.5q59 -15 114 -36.5t91 -50.5q-42 89 -74 298z" />
    <glyph glyph-name="Aacute" unicode="&#xc1;" horiz-adv-x="628" 
d="M798 -185h-60q-86 0 -145 60q-57 65 -113 130q-87 86 -218 125q-22 -27 -58.5 -70.5t-89 -90.5t-84.5 -47q-20 0 -23.5 7.5t-3.5 19.5t69.5 54.5t162.5 134.5q-39 10 -70 10q-33 0 -51.5 -7t-43.5 -20q23 22 52.5 31.5t64.5 9.5q12 0 26 -1.5t35 -5.5q74 93 128 194
t78 185q51 -234 74.5 -326t91.5 -218.5t178 -174.5zM518 664q21 0 21 -13q0 -28 -69 -66.5t-84 -38.5q21 29 42 59q54 59 90 59zM406 360q-25 -56 -57.5 -106.5t-73.5 -104.5q59 -15 114 -36.5t91 -50.5q-42 89 -74 298z" />
    <glyph glyph-name="Acircumflex" unicode="&#xc2;" horiz-adv-x="628" 
d="M798 -185h-60q-86 0 -145 60q-57 65 -113 130q-87 86 -218 125q-22 -27 -58.5 -70.5t-89 -90.5t-84.5 -47q-20 0 -23.5 7.5t-3.5 19.5t69.5 54.5t162.5 134.5q-39 10 -70 10q-33 0 -51.5 -7t-43.5 -20q23 22 52.5 31.5t64.5 9.5q12 0 26 -1.5t35 -5.5q74 93 128 194
t78 185q51 -234 74.5 -326t91.5 -218.5t178 -174.5zM576 540q-34 16 -72.5 31t-61.5 15q-22 0 -62.5 -15t-77.5 -31q25 48 66 69t78 33q37 -11 76 -31.5t54 -70.5zM406 360q-25 -56 -57.5 -106.5t-73.5 -104.5q59 -15 114 -36.5t91 -50.5q-42 89 -74 298z" />
    <glyph glyph-name="Atilde" unicode="&#xc3;" horiz-adv-x="628" 
d="M798 -185h-60q-86 0 -145 60q-57 65 -113 130q-87 86 -218 125q-22 -27 -58.5 -70.5t-89 -90.5t-84.5 -47q-20 0 -23.5 7.5t-3.5 19.5t69.5 54.5t162.5 134.5q-39 10 -70 10q-33 0 -51.5 -7t-43.5 -20q23 22 52.5 31.5t64.5 9.5q12 0 26 -1.5t35 -5.5q74 93 128 194
t78 185q51 -234 74.5 -326t91.5 -218.5t178 -174.5zM398 654q25 0 65 -22t67 -22q38 0 55 15.5t37 39.5q-10 -48 -38.5 -80.5t-70.5 -32.5q-21 0 -65 22t-66 22q-34 0 -50.5 -12t-41.5 -42q7 46 37 79t71 33zM406 360q-25 -56 -57.5 -106.5t-73.5 -104.5q59 -15 114 -36.5
t91 -50.5q-42 89 -74 298z" />
    <glyph glyph-name="Adieresis" unicode="&#xc4;" horiz-adv-x="628" 
d="M798 -185h-60q-86 0 -145 60q-57 65 -113 130q-87 86 -218 125q-22 -27 -58.5 -70.5t-89 -90.5t-84.5 -47q-20 0 -23.5 7.5t-3.5 19.5t69.5 54.5t162.5 134.5q-39 10 -70 10q-33 0 -51.5 -7t-43.5 -20q23 22 52.5 31.5t64.5 9.5q12 0 26 -1.5t35 -5.5q74 93 128 194
t78 185q51 -234 74.5 -326t91.5 -218.5t178 -174.5zM385 630q14 0 22 -12t8 -28q0 -19 -11.5 -24t-28.5 -5q-13 0 -21.5 12.5t-8.5 27.5q0 12 10.5 20.5t29.5 8.5zM518 630q14 0 22.5 -11.5t8.5 -28.5q0 -19 -11.5 -24t-28.5 -5q-10 0 -20 10t-10 30q0 13 12 21t27 8z
M406 360q-25 -56 -57.5 -106.5t-73.5 -104.5q59 -15 114 -36.5t91 -50.5q-42 89 -74 298z" />
    <glyph glyph-name="Aring" unicode="&#xc5;" horiz-adv-x="628" 
d="M462 486q36 -169 68.5 -283t99.5 -228.5t168 -159.5h-60q-86 0 -145 60q-57 65 -113 130q-87 86 -218 125q-22 -27 -58.5 -70.5t-89 -90.5t-84.5 -47q-20 0 -23.5 7.5t-3.5 19.5t69.5 54.5t162.5 134.5q-39 10 -70 10q-33 0 -51.5 -7t-43.5 -20q23 22 52.5 31.5t64.5 9.5
q12 0 26 -1.5t35 -5.5q63 78 112.5 165.5t77.5 165.5q-32 5 -55 30.5t-23 58.5q0 39 27 66t66 27q38 0 65.5 -26.5t27.5 -65.5q0 -36 -24 -60.5t-60 -29.5zM454 531q20 0 34 13t14 34q0 19 -15 32t-35 13t-33 -13t-13 -32q0 -21 13 -34t35 -13zM406 360
q-25 -56 -57.5 -106.5t-73.5 -104.5q59 -15 114 -36.5t91 -50.5q-42 89 -74 298z" />
    <glyph glyph-name="AE" unicode="&#xc6;" horiz-adv-x="1128" 
d="M444 -46q40 4 76 24.5t36 54.5q0 33 -69.5 81t-140.5 71q-30 -37 -81 -97t-119 -123t-108 -63q-19 0 -26.5 7.5t-7.5 26.5q0 18 96 80.5t213 178.5q-38 9 -67 9q-49 0 -95 -22q-42 -25 -54 -31q38 36 92 57.5t105 21.5q22 0 38 -4q59 74 100.5 146.5t73 147t59.5 150.5
v-19h475q0 -38 33 -96t44 -93q-65 58 -129 116q-70 42 -154 42l-108 1q-44 0 -44 -45v-269q49 61 97.5 99.5t118.5 38.5q39 0 60.5 -21.5t21.5 -58.5q0 -34 -22 -71q4 24 4 45q0 40 -14.5 52t-41.5 12q-53 0 -138.5 -89t-85.5 -220q0 -82 26.5 -99t114.5 -17q99 0 174 45.5
t118 133.5q-5 -48 -29.5 -103t-45.5 -101zM556 572q-27 -94 -78.5 -186.5t-107.5 -167.5q66 -17 100.5 -32.5t85.5 -54.5v441z" />
    <glyph glyph-name="Ccedilla" unicode="&#xc7;" horiz-adv-x="582" 
d="M287 -46q-122 14 -198.5 89.5t-76.5 214.5q0 160 85.5 252.5t204.5 92.5h199q6 -28 32.5 -76t33.5 -71q-57 44 -113 89q-69 37 -148 37q-113 0 -154.5 -69t-41.5 -178q0 -124 62.5 -241.5t180.5 -117.5q97 0 141 35.5t76 95.5q0 -73 -49.5 -114.5t-182.5 -41.5h-12
l-4 -41l27 2q24 0 42 -18t18 -47q0 -42 -24.5 -63.5t-59.5 -21.5q-28 0 -60 6t-50 22h20q50 0 82 11.5t32 48.5q0 19 -14 27.5t-30 8.5h-25z" />
    <glyph glyph-name="Egrave" unicode="&#xc8;" horiz-adv-x="679" 
d="M306 511l12 12v-12h286q0 -30 27 -76.5t35 -74.5l-74 72q-69 54 -152 54h-122v-250q37 47 77 78.5t96 31.5q30 0 47.5 -17.5t17.5 -45.5q0 -26 -17 -57q3 20 3 34q0 34 -11 43.5t-33 9.5q-43 0 -111.5 -71t-68.5 -176q0 -66 20.5 -79.5t91.5 -13.5q79 0 139.5 36.5
t94.5 106.5q-4 -39 -23.5 -82.5t-36.5 -80.5h-466q33 17 56 34.5t23 51.5v281q0 46 11.5 72t48.5 94q-131 0 -182.5 -37.5t-51.5 -128.5q0 -90 30 -136t97 -84q-94 0 -130.5 56.5t-36.5 142.5q0 103 68.5 157.5t234.5 54.5zM417 548q-15 0 -84 38.5t-69 67.5q0 12 22 12
q35 0 89 -59q21 -30 42 -59z" />
    <glyph glyph-name="Eacute" unicode="&#xc9;" horiz-adv-x="679" 
d="M302 511l13 12v-12h286q0 -30 26.5 -76t34.5 -75q-37 36 -73 72q-68 54 -152 54h-123v-250q38 47 78 78.5t96 31.5q30 0 47.5 -17.5t17.5 -45.5q0 -26 -17 -57q3 20 3 34q0 33 -11.5 43t-33.5 10q-43 0 -111.5 -71t-68.5 -176q0 -66 21 -79.5t92 -13.5q162 0 234 143
q-4 -37 -24 -81.5t-36 -81.5h-466q33 17 56 34.5t23 51.5v281q0 46 11.5 72t48.5 94q-131 0 -182.5 -37.5t-51.5 -128.5q0 -90 30 -136t97 -84q-94 0 -130.5 56.5t-36.5 142.5q0 103 68.5 157.5t233.5 54.5zM514 664q22 0 22 -13q0 -28 -69 -66.5t-84 -38.5q20 29 41 59
q53 59 90 59z" />
    <glyph glyph-name="Ecircumflex" unicode="&#xca;" horiz-adv-x="679" 
d="M306 511l12 12v-12h286q0 -30 27 -76.5t35 -74.5l-74 72q-69 54 -152 54h-122v-250q37 47 77 78.5t96 31.5q30 0 47.5 -17.5t17.5 -45.5q0 -26 -17 -57q3 20 3 34q0 34 -11 43.5t-33 9.5q-43 0 -111.5 -71t-68.5 -176q0 -66 20.5 -79.5t91.5 -13.5q79 0 139.5 36.5
t94.5 106.5q-4 -39 -23.5 -82.5t-36.5 -80.5h-466q33 17 56 34.5t23 51.5v281q0 46 11.5 72t48.5 94q-131 0 -182.5 -37.5t-51.5 -128.5q0 -90 30 -136t97 -84q-94 0 -130.5 56.5t-36.5 142.5q0 103 68.5 157.5t234.5 54.5zM550 553q-34 15 -73 30t-60 15q-24 0 -64 -14.5
t-77 -30.5q25 48 66 69t78 33q37 -12 76.5 -33t53.5 -69z" />
    <glyph glyph-name="Edieresis" unicode="&#xcb;" horiz-adv-x="679" 
d="M306 511l12 12v-12h286q0 -30 27 -76.5t35 -74.5l-74 72q-69 54 -152 54h-122v-250q37 47 77 78.5t96 31.5q30 0 47.5 -17.5t17.5 -45.5q0 -26 -17 -57q3 20 3 34q0 34 -11 43.5t-33 9.5q-43 0 -111.5 -71t-68.5 -176q0 -66 20.5 -79.5t91.5 -13.5q79 0 139.5 36.5
t94.5 106.5q-4 -39 -23.5 -82.5t-36.5 -80.5h-466q33 17 56 34.5t23 51.5v281q0 46 11.5 72t48.5 94q-131 0 -182.5 -37.5t-51.5 -128.5q0 -90 30 -136t97 -84q-94 0 -130.5 56.5t-36.5 142.5q0 103 68.5 157.5t234.5 54.5zM362 646q14 0 22.5 -11.5t8.5 -28.5
q0 -19 -11.5 -24t-28.5 -5q-14 0 -22.5 12t-8.5 28q0 12 10.5 20.5t29.5 8.5zM496 646q14 0 22 -12t8 -28q0 -19 -11.5 -24t-28.5 -5q-9 0 -19 10.5t-10 29.5q0 13 12 21t27 8z" />
    <glyph glyph-name="Igrave" unicode="&#xcc;" horiz-adv-x="465" 
d="M227 511h270q-73 -30 -73 -89v-376q0 -26 16 -52t57 -43h-247q73 33 73 95v336q0 45 12 68q18 23 28 36h-143q-101 0 -139 -41.5t-38 -117.5q0 -59 32 -107t82 -48q47 0 58 41t31 41q16 0 16 -21q0 -27 -29 -53t-83 -26q-69 0 -108 49.5t-39 123.5q0 96 72.5 140
t151.5 44zM394 548q-15 0 -83.5 38.5t-68.5 67.5q0 12 21 12q35 0 89 -59q21 -30 42 -59z" />
    <glyph glyph-name="Iacute" unicode="&#xcd;" horiz-adv-x="465" 
d="M227 511h270q-73 -30 -73 -89v-376q0 -26 16 -52t57 -43h-247q73 33 73 95v336q0 45 12 68q18 23 28 36h-143q-101 0 -139 -41.5t-38 -117.5q0 -59 32 -107t82 -48q47 0 58 41t31 41q16 0 16 -21q0 -27 -29 -53t-83 -26q-69 0 -108 49.5t-39 123.5q0 96 72.5 140
t151.5 44zM470 664q21 0 21 -13q0 -28 -69 -66.5t-84 -38.5q21 29 42 59q54 59 90 59z" />
    <glyph glyph-name="Icircumflex" unicode="&#xce;" horiz-adv-x="465" 
d="M227 511h270q-73 -30 -73 -89v-376q0 -26 16 -52t57 -43h-247q73 33 73 95v336q0 45 12 68q18 23 28 36h-143q-101 0 -139 -41.5t-38 -117.5q0 -59 32 -107t82 -48q47 0 58 41t31 41q16 0 16 -21q0 -27 -29 -53t-83 -26q-69 0 -108 49.5t-39 123.5q0 96 72.5 140
t151.5 44zM515 553q-34 15 -73 30t-60 15q-24 0 -64 -14.5t-77 -30.5q25 48 66 69t78 33q37 -12 76.5 -33t53.5 -69z" />
    <glyph glyph-name="Idieresis" unicode="&#xcf;" horiz-adv-x="465" 
d="M227 511h270q-73 -30 -73 -89v-376q0 -26 16 -52t57 -43h-247q73 33 73 95v336q0 45 12 68q18 23 28 36h-143q-101 0 -139 -41.5t-38 -117.5q0 -59 32 -107t82 -48q47 0 58 41t31 41q16 0 16 -21q0 -27 -29 -53t-83 -26q-69 0 -108 49.5t-39 123.5q0 96 72.5 140
t151.5 44zM330 646q14 0 22.5 -11.5t8.5 -28.5q0 -19 -11.5 -24t-28.5 -5q-14 0 -22.5 12t-8.5 28q0 12 10.5 20.5t29.5 8.5zM464 646q14 0 22 -12t8 -28q0 -19 -11.5 -24t-28.5 -5q-9 0 -19 10.5t-10 29.5q0 13 12 21t27 8z" />
    <glyph glyph-name="Ntilde" unicode="&#xd1;" horiz-adv-x="658" 
d="M248 518q87 0 115 -33.5t76 -101.5l147 -306v347q0 36 -23 55t-56 32h202q-60 -13 -80.5 -34t-20.5 -53v-390q47 -104 87 -156t127 -52q21 0 48 12t52 34q-21 -30 -49.5 -48t-83.5 -18q-118 0 -192.5 103t-166 298t-143.5 241v-408q0 -31 23 -52t57 -35h-200
q59 13 78.5 33.5t19.5 53.5v426q-17 16 -34.5 24t-43.5 8q-77 0 -112 -44.5t-35 -113.5q0 -85 35 -130t103 -77q-91 0 -134.5 52.5t-43.5 129.5q0 109 64 156t184 47zM379 651q25 0 65 -22t66 -22q31 0 50 13.5t42 41.5q-9 -48 -37.5 -80.5t-70.5 -32.5q-21 0 -65 22t-67 22
q-33 0 -49 -12t-43 -42q8 46 38.5 79t70.5 33z" />
    <glyph glyph-name="Ograve" unicode="&#xd2;" horiz-adv-x="706" 
d="M360 534q161 0 244 -80t83 -232q0 -173 -87 -263t-246 -90q-161 0 -244.5 81.5t-83.5 225.5q0 68 26 149.5t100 145t208 63.5zM401 548q-15 0 -84 38.5t-69 67.5q0 12 22 12q35 0 89 -59q21 -30 42 -59zM126 270q0 -171 64.5 -272.5t203.5 -101.5q110 0 153 61.5
t43 172.5q0 204 -72.5 291t-188.5 87q-92 0 -147.5 -53.5t-55.5 -184.5z" />
    <glyph glyph-name="Oacute" unicode="&#xd3;" horiz-adv-x="706" 
d="M360 534q161 0 244 -80t83 -232q0 -173 -87 -263t-246 -90q-161 0 -244.5 81.5t-83.5 225.5q0 68 26 149.5t100 145t208 63.5zM457 664q21 0 21 -13q0 -28 -68.5 -66.5t-83.5 -38.5q20 29 41 59q53 59 90 59zM126 270q0 -171 64.5 -272.5t203.5 -101.5q110 0 153 61.5
t43 172.5q0 204 -72.5 291t-188.5 87q-92 0 -147.5 -53.5t-55.5 -184.5z" />
    <glyph glyph-name="Ocircumflex" unicode="&#xd4;" horiz-adv-x="706" 
d="M360 534q161 0 244 -80t83 -232q0 -173 -87 -263t-246 -90q-161 0 -244.5 81.5t-83.5 225.5q0 68 26 149.5t100 145t208 63.5zM493 553q-34 15 -73.5 30t-60.5 15q-24 0 -64 -14.5t-77 -30.5q25 48 66 69t78 33q38 -12 77.5 -33t53.5 -69zM126 270q0 -171 64.5 -272.5
t203.5 -101.5q110 0 153 61.5t43 172.5q0 204 -72.5 291t-188.5 87q-92 0 -147.5 -53.5t-55.5 -184.5z" />
    <glyph glyph-name="Otilde" unicode="&#xd5;" horiz-adv-x="706" 
d="M360 534q161 0 244 -80t83 -232q0 -173 -87 -263t-246 -90q-161 0 -244.5 81.5t-83.5 225.5q0 68 26 149.5t100 145t208 63.5zM283 658q25 0 65 -22t66 -22q39 0 56 15.5t36 38.5q-9 -48 -37.5 -80.5t-70.5 -32.5q-21 0 -65 22t-67 22q-33 0 -49 -12t-43 -41
q8 46 38.5 79t70.5 33zM126 270q0 -171 64.5 -272.5t203.5 -101.5q110 0 153 61.5t43 172.5q0 204 -72.5 291t-188.5 87q-92 0 -147.5 -53.5t-55.5 -184.5z" />
    <glyph glyph-name="Odieresis" unicode="&#xd6;" horiz-adv-x="706" 
d="M360 534q161 0 244 -80t83 -232q0 -173 -87 -263t-246 -90q-161 0 -244.5 81.5t-83.5 225.5q0 68 26 149.5t100 145t208 63.5zM286 640q13 0 21.5 -12.5t8.5 -27.5q0 -19 -11.5 -24.5t-28.5 -5.5q-13 0 -21.5 12.5t-8.5 27.5q0 30 40 30zM419 640q14 0 22.5 -12t8.5 -28
q0 -19 -11.5 -24.5t-28.5 -5.5q-13 0 -21.5 13.5t-8.5 26.5q0 14 11.5 22t27.5 8zM126 270q0 -171 64.5 -272.5t203.5 -101.5q110 0 153 61.5t43 172.5q0 204 -72.5 291t-188.5 87q-92 0 -147.5 -53.5t-55.5 -184.5z" />
    <glyph glyph-name="Oslash" unicode="&#xd8;" horiz-adv-x="882" 
d="M709 603q150 -95 150 -325q0 -215 -109.5 -328.5t-307.5 -113.5q-117 0 -203 37l-23 -36h-50l35 55q-83 47 -125.5 130.5t-42.5 197.5q0 86 32 186.5t125 180.5t260 80q132 0 223 -44l26 42h50zM654 517l-370 -573q41 -37 91.5 -55.5t116.5 -18.5q138 0 192 77t54 215
q0 105 -18.5 195.5t-65.5 159.5zM254 -25l371 575q-38 41 -90.5 63t-123.5 22q-114 0 -183.5 -67.5t-69.5 -230.5q0 -118 23 -208.5t73 -153.5z" />
    <glyph glyph-name="Ugrave" unicode="&#xd9;" horiz-adv-x="738" 
d="M285 511h187q-95 -100 -137.5 -185t-42.5 -177q0 -122 41.5 -154.5t120.5 -32.5q49 0 92.5 32t43.5 75v395q0 22 -10.5 30.5t-30.5 16.5h154q21 0 40.5 -12t30.5 -31q-12 7 -24 15q-15 8 -27 8q-13 0 -23 -12t-10 -29v-408q0 -26 18.5 -50t58.5 -39h-177v41
q-32 -44 -84 -82t-120 -38q-111 0 -155 65t-44 177q0 89 34 162.5t79 122.5t92 86h-141q-102 0 -151.5 -49.5t-49.5 -127.5q0 -53 22 -98.5t69 -69.5q-63 7 -100.5 53t-37.5 108q0 74 66 141t216 67zM545 548q-15 0 -84 38.5t-69 67.5q0 12 22 12q35 0 89 -59q21 -30 42 -59
z" />
    <glyph glyph-name="Uacute" unicode="&#xda;" horiz-adv-x="738" 
d="M288 511h187q-95 -100 -137.5 -185t-42.5 -177q0 -122 41.5 -154.5t120.5 -32.5q49 0 92.5 32t43.5 75v395q0 22 -10.5 30.5t-30.5 16.5h154q21 0 41 -12t31 -31q-29 17 -35.5 20t-16.5 3q-13 0 -23 -12t-10 -29v-408q0 -26 18.5 -50t58.5 -39h-177v41q-32 -44 -84 -82
t-120 -38q-111 0 -155 65t-44 177q0 89 34 162.5t79 122.5t92 86h-141q-101 0 -150.5 -49.5t-49.5 -127.5q0 -55 21.5 -99t68.5 -69q-63 7 -100.5 53t-37.5 108q0 74 66 141t216 67zM652 664q22 0 22 -13q0 -28 -69 -66.5t-84 -38.5q20 29 41 59q53 59 90 59z" />
    <glyph glyph-name="Ucircumflex" unicode="&#xdb;" horiz-adv-x="738" 
d="M282 511h187q-94 -99 -137 -184.5t-43 -177.5q0 -122 41.5 -154.5t119.5 -32.5q50 0 93 32t43 75v395q0 22 -10.5 31t-29.5 16h154q21 0 40.5 -12t30.5 -31q-12 7 -24 15q-15 8 -27 8q-10 0 -22 -9t-12 -32v-408q0 -25 19.5 -49.5t58.5 -39.5h-178v41q-31 -44 -83 -82
t-121 -38q-110 0 -154 65t-44 177q0 89 34 162.5t79 122.5t92 86h-141q-102 0 -151.5 -49.5t-49.5 -127.5q0 -53 22 -98.5t69 -69.5q-63 7 -100.5 53t-37.5 108q0 74 66 141t216 67zM634 553q-34 15 -73.5 30t-60.5 15q-24 0 -64 -14.5t-77 -30.5q25 48 66 69t78 33
q37 -12 76.5 -33t54.5 -69z" />
    <glyph glyph-name="Udieresis" unicode="&#xdc;" horiz-adv-x="738" 
d="M282 511h187q-94 -99 -137 -184.5t-43 -177.5q0 -122 41.5 -154.5t119.5 -32.5q50 0 93 32t43 75v395q0 22 -10.5 31t-29.5 16h154q21 0 40.5 -12t30.5 -31q-12 7 -24 15q-15 8 -27 8q-10 0 -22 -9t-12 -32v-408q0 -25 19.5 -49.5t58.5 -39.5h-178v41q-31 -44 -83 -82
t-121 -38q-110 0 -154 65t-44 177q0 89 34 162.5t79 122.5t92 86h-141q-102 0 -151.5 -49.5t-49.5 -127.5q0 -53 22 -98.5t69 -69.5q-63 7 -100.5 53t-37.5 108q0 74 66 141t216 67zM449 630q14 0 22 -12t8 -28q0 -19 -11.5 -24t-28.5 -5q-13 0 -21.5 12.5t-8.5 27.5
q0 12 10.5 20.5t29.5 8.5zM582 630q14 0 22.5 -11.5t8.5 -28.5q0 -19 -11.5 -24t-28.5 -5q-10 0 -20 10t-10 30q0 13 12 21t27 8z" />
    <glyph glyph-name="germandbls" unicode="&#xdf;" horiz-adv-x="560" 
d="M359 512q-33 24 -70.5 47t-66.5 23q-13 0 -24.5 -12t-17 -23t-5.5 -21v-519q0 -69 -66 -192.5t-84 -141.5t-36 -21t-42 -3q-25 0 -45.5 2t-24.5 3q6 13 36.5 58t36.5 45q11 0 23.5 -1t19.5 -1q56 0 75 18t19 63v501q-18 14 -43 14q-19 0 -38 -17l62 76h19
q0 107 75.5 181.5t116.5 74.5q30 0 107.5 -48t84.5 -59q-20 3 -98.5 -74t-78.5 -95q0 -31 84 -67t123 -62.5t39 -94.5q0 -83 -54.5 -126.5t-120.5 -43.5q-77 0 -97.5 27.5t-20.5 135.5q23 -59 58.5 -98t100.5 -39q35 0 55.5 35t20.5 75q0 39 -56.5 68.5t-111.5 58.5
q-59 42 -59 106q0 43 50.5 95.5t53.5 51.5z" />
    <glyph glyph-name="agrave" unicode="&#xe0;" horiz-adv-x="462" 
d="M383 428v-370q1 -13 13 -13q9 0 21.5 6.5t40.5 22.5q-13 -27 -43.5 -53t-58.5 -26q-16 0 -41.5 22t-25.5 59v54q-61 -61 -103 -98t-73 -37q-34 0 -60.5 40t-26.5 107q0 136 75 211t195 75h87zM314 466q-15 0 -83.5 48t-68.5 84q0 16 21 16q35 0 89 -74zM122 218
q0 -49 16 -72t44 -23q24 0 51.5 14.5t55.5 39.5v223q-75 0 -121 -55.5t-46 -126.5z" />
    <glyph glyph-name="aacute" unicode="&#xe1;" horiz-adv-x="462" 
d="M383 428v-370q1 -13 13 -13q9 0 21.5 6.5t40.5 22.5q-13 -27 -43.5 -53t-58.5 -26q-16 0 -41.5 22t-25.5 59v54q-61 -61 -103 -98t-73 -37q-34 0 -60.5 40t-26.5 107q0 136 75 211t195 75h87zM361 628q21 0 21 -16q0 -36 -68.5 -84t-83.5 -48q20 37 41 74q53 74 90 74z
M122 218q0 -49 16 -72t44 -23q24 0 51.5 14.5t55.5 39.5v223q-75 0 -121 -55.5t-46 -126.5z" />
    <glyph glyph-name="acircumflex" unicode="&#xe2;" horiz-adv-x="462" 
d="M383 428v-370q1 -13 13 -13q9 0 21.5 6.5t40.5 22.5q-13 -27 -43.5 -53t-58.5 -26q-16 0 -41.5 22t-25.5 59v54q-61 -61 -103 -98t-73 -37q-34 0 -60.5 40t-26.5 107q0 136 75 211t195 75h87zM396 502q-38 22 -80.5 43t-67.5 21t-70 -21t-87 -43q28 68 73.5 98.5
t86.5 47.5q40 -16 84.5 -46t60.5 -100zM122 218q0 -49 16 -72t44 -23q24 0 51.5 14.5t55.5 39.5v223q-75 0 -121 -55.5t-46 -126.5z" />
    <glyph glyph-name="atilde" unicode="&#xe3;" horiz-adv-x="462" 
d="M383 428v-370q1 -13 13 -13q9 0 21.5 6.5t40.5 22.5q-13 -27 -43.5 -53t-58.5 -26q-16 0 -41.5 22t-25.5 59v54q-61 -61 -103 -98t-73 -37q-34 0 -60.5 40t-26.5 107q0 136 75 211t195 75h87zM171 600q25 0 65 -22t66 -22q39 0 56 15.5t36 38.5q-9 -47 -37.5 -79.5
t-70.5 -32.5q-21 0 -65 22t-67 22q-33 0 -49 -12t-43 -42q8 46 38.5 79t70.5 33zM122 218q0 -49 16 -72t44 -23q24 0 51.5 14.5t55.5 39.5v223q-75 0 -121 -55.5t-46 -126.5z" />
    <glyph glyph-name="adieresis" unicode="&#xe4;" horiz-adv-x="462" 
d="M383 428v-370q1 -13 13 -13q9 0 21.5 6.5t40.5 22.5q-13 -27 -43.5 -53t-58.5 -26q-16 0 -41.5 22t-25.5 59v54q-61 -61 -103 -98t-73 -37q-34 0 -60.5 40t-26.5 107q0 136 75 211t195 75h87zM183 573q14 0 22.5 -12t8.5 -28q0 -19 -11.5 -24.5t-28.5 -5.5
q-14 0 -22.5 12.5t-8.5 27.5q0 13 10.5 21.5t29.5 8.5zM317 573q13 0 21.5 -12.5t8.5 -27.5q0 -19 -11.5 -24.5t-28.5 -5.5q-9 0 -19 10.5t-10 29.5q0 14 11.5 22t27.5 8zM122 218q0 -49 16 -72t44 -23q24 0 51.5 14.5t55.5 39.5v223q-75 0 -121 -55.5t-46 -126.5z" />
    <glyph glyph-name="aring" unicode="&#xe5;" horiz-adv-x="462" 
d="M383 428v-370q1 -13 13 -13q9 0 21.5 6.5t40.5 22.5q-13 -27 -43.5 -53t-58.5 -26q-16 0 -41.5 22t-25.5 59v54q-61 -61 -103 -98t-73 -37q-34 0 -60.5 40t-26.5 107q0 136 75 211t195 75h87zM190 559q0 39 27 66t66 27q38 0 65.5 -26.5t27.5 -65.5t-27.5 -64.5
t-67.5 -25.5q-36 0 -63.5 26.5t-27.5 62.5zM122 218q0 -49 16 -72t44 -23q24 0 51.5 14.5t55.5 39.5v223q-75 0 -121 -55.5t-46 -126.5zM332 562q0 19 -15 32t-35 13t-33 -13t-13 -32q0 -20 13.5 -33t34.5 -13q20 0 34 13t14 33z" />
    <glyph glyph-name="ae" unicode="&#xe6;" horiz-adv-x="672" 
d="M290 132q-69 -69 -107 -103t-70 -34q-34 0 -60.5 40t-26.5 107q0 137 75 213t195 76l187 1q55 0 89.5 -15t77.5 -57l-244 -243q18 -28 42 -40t74 -12q38 0 70 17t58 36q-40 -61 -88 -91.5t-110 -30.5q-72 0 -112 43.5t-50 92.5zM122 208q0 -48 14 -69t41 -21
q23 0 53.5 17t58.5 42q0 64 18 120t94 106h-84q-110 0 -152.5 -61.5t-42.5 -133.5zM397 140l70 68q53 57 53 86q0 35 -17 54.5t-45 19.5q-32 0 -53.5 -38t-21.5 -81q0 -33 4 -63t10 -46z" />
    <glyph glyph-name="ccedilla" unicode="&#xe7;" horiz-adv-x="394" 
d="M142 -2q-79 8 -101.5 58.5t-22.5 119.5q0 115 66 185t170 70q39 0 82 -25.5t43 -62.5q0 -10 -26 -37t-45 -38q-9 45 -46 73t-76 28q-37 0 -60.5 -40.5t-23.5 -94.5q0 -96 44.5 -135.5t101.5 -39.5q24 0 52 13.5t58 33.5q-39 -60 -76.5 -85t-100.5 -25l-3 -38l27 2
q24 0 42 -18t18 -47q0 -42 -24.5 -63.5t-59.5 -21.5q-28 0 -60 6t-50 22h20q50 0 82 11.5t32 48.5q0 19 -14 27.5t-30 8.5h-25z" />
    <glyph glyph-name="egrave" unicode="&#xe8;" horiz-adv-x="414" 
d="M256 432q39 0 64.5 -14t69.5 -58l-243 -243q20 -33 49.5 -42.5t66.5 -9.5t69.5 17t58.5 36q-40 -61 -88 -91.5t-110 -30.5q-89 0 -126 57t-37 123q0 116 65 186t161 70zM279 466q-15 0 -84 48.5t-69 83.5q0 16 22 16q35 0 89 -74zM138 140l70 68q53 57 53 86
q0 35 -17 54.5t-45 19.5q-35 0 -55 -41.5t-20 -98.5q0 -24 3 -45.5t11 -42.5z" />
    <glyph glyph-name="eacute" unicode="&#xe9;" horiz-adv-x="414" 
d="M256 432q39 0 64.5 -14t69.5 -58l-243 -243q20 -33 49.5 -42.5t66.5 -9.5t69.5 17t58.5 36q-40 -61 -88 -91.5t-110 -30.5q-89 0 -126 57t-37 123q0 116 65 186t161 70zM316 628q22 0 22 -16q0 -36 -68.5 -84t-84.5 -48q20 37 41 74q53 74 90 74zM138 140l70 68
q53 57 53 86q0 35 -17 54.5t-45 19.5q-35 0 -55 -41.5t-20 -98.5q0 -24 3 -45.5t11 -42.5z" />
    <glyph glyph-name="ecircumflex" unicode="&#xea;" horiz-adv-x="414" 
d="M256 432q39 0 64.5 -14t69.5 -58l-243 -243q20 -33 49.5 -42.5t66.5 -9.5t69.5 17t58.5 36q-40 -61 -88 -91.5t-110 -30.5q-89 0 -126 57t-37 123q0 116 65 186t161 70zM377 502q-38 22 -80.5 43t-67.5 21t-70 -21t-87 -43q28 68 73.5 98.5t86.5 47.5q40 -16 84.5 -46
t60.5 -100zM138 140l70 68q53 57 53 86q0 35 -17 54.5t-45 19.5q-35 0 -55 -41.5t-20 -98.5q0 -24 3 -45.5t11 -42.5z" />
    <glyph glyph-name="edieresis" unicode="&#xeb;" horiz-adv-x="414" 
d="M256 432q39 0 64.5 -14t69.5 -58l-243 -243q20 -33 49.5 -42.5t66.5 -9.5t69.5 17t58.5 36q-40 -61 -88 -91.5t-110 -30.5q-89 0 -126 57t-37 123q0 116 65 186t161 70zM174 573q13 0 21.5 -12.5t8.5 -27.5q0 -19 -11.5 -24.5t-28.5 -5.5q-13 0 -21.5 12.5t-8.5 27.5
q0 30 40 30zM307 573q14 0 22.5 -12t8.5 -28q0 -19 -11.5 -24.5t-28.5 -5.5q-14 0 -22 13t-8 27t11.5 22t27.5 8zM138 140l70 68q53 57 53 86q0 35 -17 54.5t-45 19.5q-35 0 -55 -41.5t-20 -98.5q0 -24 3 -45.5t11 -42.5z" />
    <glyph glyph-name="igrave" unicode="&#xec;" horiz-adv-x="261" 
d="M122 433q31 0 43.5 -24t12.5 -57v-281q4 -28 21 -28q12 0 28 13t21 17q-24 -41 -48.5 -60t-55.5 -19q-26 0 -42 22t-16 52v295q0 19 -14 19q-19 0 -59 -34q5 19 41 52t68 33zM170 466q-15 0 -83.5 48t-68.5 84q0 16 21 16q35 0 89 -74z" />
    <glyph glyph-name="iacute" unicode="&#xed;" horiz-adv-x="261" 
d="M122 433q31 0 43.5 -24t12.5 -57v-281q4 -28 21 -28q12 0 28 13t21 17q-24 -41 -48.5 -60t-55.5 -19q-26 0 -42 22t-16 52v295q0 19 -14 19q-19 0 -59 -34q5 19 41 52t68 33zM204 628q22 0 22 -16q0 -36 -68.5 -84t-84.5 -48q20 37 41 74q53 74 90 74z" />
    <glyph glyph-name="icircumflex" unicode="&#xee;" horiz-adv-x="261" 
d="M122 433q31 0 43.5 -24t12.5 -57v-281q4 -28 21 -28q12 0 28 13t21 17q-24 -41 -48.5 -60t-55.5 -19q-26 0 -42 22t-16 52v295q0 19 -14 19q-19 0 -59 -34q5 19 41 52t68 33zM284 502q-38 22 -80.5 43t-67.5 21t-70 -21t-87 -43q28 68 73.5 98.5t86.5 47.5
q40 -16 84.5 -46t60.5 -100z" />
    <glyph glyph-name="idieresis" unicode="&#xef;" horiz-adv-x="261" 
d="M122 433q31 0 43.5 -24t12.5 -57v-281q4 -28 21 -28q12 0 28 13t21 17q-24 -41 -48.5 -60t-55.5 -19q-26 0 -42 22t-16 52v295q0 19 -14 19q-19 0 -59 -34q5 19 41 52t68 33zM65 573q13 0 21.5 -12.5t8.5 -27.5q0 -19 -11.5 -24.5t-28.5 -5.5q-13 0 -21.5 12.5t-8.5 27.5
q0 30 40 30zM198 573q14 0 22.5 -12.5t8.5 -27.5q0 -19 -11.5 -24.5t-28.5 -5.5q-10 0 -20 10t-10 30q0 14 11.5 22t27.5 8z" />
    <glyph glyph-name="ntilde" unicode="&#xf1;" horiz-adv-x="446" 
d="M369 63q0 -22 15 -22q20 0 55 33q-20 -38 -50.5 -59t-54.5 -21q-27 0 -43.5 16.5t-16.5 50.5l1 225q0 23 -5 36.5t-28 13.5q-25 0 -66 -52.5t-41 -61.5v-170q-5 -21 -34.5 -39.5t-58.5 -18.5v342q0 16 -12 16q-15 0 -57 -27q38 48 69.5 75.5t49.5 27.5q28 0 35.5 -30.5
t7.5 -94.5v-37q39 61 82.5 111.5t91.5 50.5q37 0 49 -25t12 -75q0 -15 -0.5 -29.5t-0.5 -29.5q0 -29 -0.5 -61.5t-0.5 -78.5v-45.5t1 -20.5zM171 600q25 0 65 -22t66 -22q39 0 56 15.5t36 38.5q-9 -47 -37.5 -79.5t-70.5 -32.5q-21 0 -65 22t-67 22q-33 0 -49 -12t-43 -42
q8 46 38.5 79t70.5 33z" />
    <glyph glyph-name="ograve" unicode="&#xf2;" 
d="M244 433q82 0 128.5 -59t46.5 -146q0 -92 -68 -163t-152 -71q-79 0 -126 59.5t-47 149.5t66 160t152 70zM263 466q-15 0 -84 48.5t-69 83.5q0 16 22 16q35 0 89 -74zM114 262q0 -82 21.5 -151t96.5 -69q43 0 70 36t27 92q0 81 -27 148.5t-92 67.5q-44 0 -70 -35t-26 -89z
" />
    <glyph glyph-name="oacute" unicode="&#xf3;" 
d="M244 433q82 0 128.5 -59t46.5 -146q0 -92 -68 -163t-152 -71q-79 0 -126 59.5t-47 149.5t66 160t152 70zM300 628q22 0 22 -16q0 -36 -68.5 -84t-84.5 -48q20 37 41 74q53 74 90 74zM114 262q0 -82 21.5 -151t96.5 -69q43 0 70 36t27 92q0 81 -27 148.5t-92 67.5
q-44 0 -70 -35t-26 -89z" />
    <glyph glyph-name="ocircumflex" unicode="&#xf4;" 
d="M244 433q82 0 128.5 -59t46.5 -146q0 -92 -68 -163t-152 -71q-79 0 -126 59.5t-47 149.5t66 160t152 70zM367 502q-38 22 -80.5 43t-67.5 21t-70 -21t-87 -43q28 68 73.5 98.5t86.5 47.5q41 -16 85 -46t60 -100zM114 262q0 -82 21.5 -151t96.5 -69q43 0 70 36t27 92
q0 81 -27 148.5t-92 67.5q-44 0 -70 -35t-26 -89z" />
    <glyph glyph-name="otilde" unicode="&#xf5;" 
d="M244 433q82 0 128.5 -59t46.5 -146q0 -92 -68 -163t-152 -71q-79 0 -126 59.5t-47 149.5t66 160t152 70zM171 600q25 0 65 -22t66 -22q39 0 56 15.5t36 38.5q-9 -47 -37.5 -79.5t-70.5 -32.5q-21 0 -65 22t-67 22q-33 0 -49 -12t-43 -42q8 46 38.5 79t70.5 33zM114 262
q0 -82 21.5 -151t96.5 -69q43 0 70 36t27 92q0 81 -27 148.5t-92 67.5q-44 0 -70 -35t-26 -89z" />
    <glyph glyph-name="odieresis" unicode="&#xf6;" 
d="M244 433q82 0 128.5 -59t46.5 -146q0 -92 -68 -163t-152 -71q-79 0 -126 59.5t-47 149.5t66 160t152 70zM170 573q14 0 22.5 -12.5t8.5 -27.5q0 -19 -11.5 -24.5t-28.5 -5.5q-14 0 -22.5 12t-8.5 28q0 13 10.5 21.5t29.5 8.5zM304 573q13 0 21.5 -12.5t8.5 -27.5
q0 -19 -11 -24.5t-29 -5.5q-9 0 -19 10.5t-10 29.5q0 14 11.5 22t27.5 8zM114 262q0 -82 21.5 -151t96.5 -69q43 0 70 36t27 92q0 81 -27 148.5t-92 67.5q-44 0 -70 -35t-26 -89z" />
    <glyph glyph-name="divide" unicode="&#xf7;" horiz-adv-x="549" 
d="M275 158q24 0 40 -16t16 -41q0 -24 -17 -40q-15 -17 -39 -17t-40.5 17.5t-16.5 39.5q0 24 17.5 40.5t39.5 16.5zM506 202h-463v68h463v-68zM275 427q24 0 40 -17t16 -40q0 -24 -17 -40q-15 -17 -39 -17t-40.5 16.5t-16.5 40.5t17.5 40.5t39.5 16.5z" />
    <glyph glyph-name="oslash" unicode="&#xf8;" 
d="M345 401q35 -26 54.5 -72t19.5 -101q0 -92 -68 -163t-152 -71q-29 0 -57 10l-30 -60h-50l40 81q-76 59 -76 178q0 90 66 160t152 70q34 0 62 -11l25 49h50zM302 316l-130 -254q12 -9 27.5 -14.5t32.5 -5.5q43 0 70 36t27 92q0 35 -6.5 74.5t-20.5 71.5zM142 101l132 258
q-25 27 -64 27q-44 0 -70 -35t-26 -89q0 -61 6 -96.5t22 -64.5z" />
    <glyph glyph-name="ugrave" unicode="&#xf9;" horiz-adv-x="490" 
d="M94 434q33 0 41 -25t10 -51v-188v-27q0 -31 7.5 -47.5t34.5 -16.5q25 0 62 38.5t37 68.5v172q0 31 26.5 53.5t65.5 22.5v-356q3 -4 7.5 -8t15.5 -4q14 0 33.5 10.5t47.5 37.5q-22 -35 -64.5 -77.5t-80.5 -42.5q-28 0 -39.5 16.5t-11.5 48.5v44q-47 -50 -86 -79.5
t-82 -29.5q-36 0 -50.5 34t-14.5 83v232q0 19 -4 28t-17 9q-16 0 -45 -18q23 37 50 54.5t57 17.5zM241 466q-15 0 -84 48.5t-69 83.5q0 16 22 16q35 0 89 -74z" />
    <glyph glyph-name="uacute" unicode="&#xfa;" horiz-adv-x="490" 
d="M94 434q33 0 41 -25t10 -51v-188v-27q0 -31 7.5 -47.5t34.5 -16.5q25 0 62 38.5t37 68.5v172q0 31 26.5 53.5t65.5 22.5v-356q3 -4 7.5 -8t15.5 -4q14 0 33.5 10.5t47.5 37.5q-22 -35 -64.5 -77.5t-80.5 -42.5q-28 0 -39.5 16.5t-11.5 48.5v44q-47 -50 -86 -79.5
t-82 -29.5q-36 0 -50.5 34t-14.5 83v232q0 19 -4 28t-17 9q-16 0 -45 -18q23 37 50 54.5t57 17.5zM322 628q22 0 22 -16q0 -36 -68.5 -84t-84.5 -48q20 37 41 74q53 74 90 74z" />
    <glyph glyph-name="ucircumflex" unicode="&#xfb;" horiz-adv-x="490" 
d="M94 434q33 0 41 -25t10 -51v-188v-27q0 -31 7.5 -47.5t34.5 -16.5q25 0 62 38.5t37 68.5v172q0 31 26.5 53.5t65.5 22.5v-356q3 -4 7.5 -8t15.5 -4q14 0 33.5 10.5t47.5 37.5q-22 -35 -64.5 -77.5t-80.5 -42.5q-28 0 -39.5 16.5t-11.5 48.5v44q-47 -50 -86 -79.5
t-82 -29.5q-36 0 -50.5 34t-14.5 83v232q0 19 -4 28t-17 9q-16 0 -45 -18q23 37 50 54.5t57 17.5zM351 502q-38 22 -80.5 43t-67.5 21t-70 -21t-87 -43q28 68 73.5 98.5t86.5 47.5q41 -16 85 -46t60 -100z" />
    <glyph glyph-name="udieresis" unicode="&#xfc;" horiz-adv-x="490" 
d="M94 434q33 0 41 -25t10 -51v-188v-27q0 -31 7.5 -47.5t34.5 -16.5q25 0 62 38.5t37 68.5v172q0 31 26.5 53.5t65.5 22.5v-356q3 -4 7.5 -8t15.5 -4q14 0 33.5 10.5t47.5 37.5q-22 -35 -64.5 -77.5t-80.5 -42.5q-28 0 -39.5 16.5t-11.5 48.5v44q-47 -50 -86 -79.5
t-82 -29.5q-36 0 -50.5 34t-14.5 83v232q0 19 -4 28t-17 9q-16 0 -45 -18q23 37 50 54.5t57 17.5zM164 570q13 0 21.5 -12.5t8.5 -27.5q0 -19 -11 -24.5t-29 -5.5q-13 0 -21.5 12.5t-8.5 27.5q0 11 10.5 20.5t29.5 9.5zM298 570q13 0 21.5 -12.5t8.5 -27.5
q0 -19 -11.5 -24.5t-28.5 -5.5q-10 0 -20 10t-10 30q0 13 11.5 21.5t28.5 8.5z" />
    <glyph glyph-name="ydieresis" unicode="&#xff;" horiz-adv-x="467" 
d="M378 450q15 0 48 -42t33 -90q0 -24 -72 -152t-108 -201.5t-36 -132.5q0 -49 28.5 -88t75.5 -39q39 0 60.5 20.5t43.5 72.5q0 -77 -45.5 -105t-105.5 -28q-78 0 -114 25.5t-36 91.5q0 53 31.5 103.5t88.5 125.5l-49.5 110t-69.5 139t-50.5 72t-22.5 3q-23 0 -48 -10.5
t-48 -24.5q29 45 71.5 89.5t76.5 44.5q46 0 112.5 -141.5t91.5 -175.5q16 29 31 64.5t15 72.5q0 41 -20.5 69.5t-60.5 46.5q15 27 33 53.5t46 26.5zM177 573q13 0 21.5 -12.5t8.5 -27.5q0 -19 -11.5 -24.5t-28.5 -5.5q-13 0 -21.5 12.5t-8.5 27.5q0 30 40 30zM310 573
q14 0 22.5 -12.5t8.5 -27.5q0 -19 -11.5 -24.5t-28.5 -5.5q-10 0 -20 10t-10 30q0 14 11.5 22t27.5 8z" />
    <glyph glyph-name="dotlessi" unicode="&#x131;" horiz-adv-x="261" 
d="M122 433q31 0 43.5 -24t12.5 -57v-281q4 -28 21 -28q12 0 28 13t21 17q-24 -41 -48.5 -60t-55.5 -19q-26 0 -42 22t-16 52v295q0 19 -14 19q-19 0 -59 -34q5 19 41 52t68 33z" />
    <glyph glyph-name="OE" unicode="&#x152;" horiz-adv-x="1152" 
d="M690 651l16 15v-15h356q0 -39 33.5 -96.5t43.5 -92.5q-65 58 -129 116q-71 42 -153 42l-121 1q-32 0 -32 -35v-279q51 62 99 100t118 38q38 0 60 -22t22 -58q0 -34 -22 -71q3 26 3 43q0 41 -14.5 53.5t-40.5 12.5q-54 0 -139.5 -88.5t-85.5 -220.5q0 -82 27 -99t115 -17
q202 0 292 179q-5 -46 -30 -102t-46 -102h-460q-48 -22 -95.5 -34.5t-108.5 -12.5q-180 0 -274 92t-94 254q0 79 28.5 170.5t112.5 165t235 73.5q67 -3 145 -6.5t139 -3.5zM370 632q-100 0 -157.5 -63t-57.5 -212q0 -196 66.5 -308t220.5 -112q63 0 99.5 16t36.5 37v515
q0 48 -64.5 87.5t-143.5 39.5z" />
    <glyph glyph-name="oe" unicode="&#x153;" horiz-adv-x="712" 
d="M354 70q-31 -35 -72 -55.5t-83 -20.5q-79 0 -126 59.5t-47 149.5t66 160t152 70q48 0 84 -20.5t59 -58.5q66 78 167 78q39 0 64.5 -14t69.5 -58l-243 -243q20 -33 49.5 -42.5t66.5 -9.5t69.5 17t58.5 36q-79 -122 -199 -122q-50 0 -83 20t-53 54zM114 262
q0 -82 21.5 -151t96.5 -69q43 0 70 36t27 92q0 81 -27 148.5t-92 67.5q-44 0 -70 -35t-26 -89zM435 140l70 68q53 57 53 86q0 26 -12 50t-49 24q-36 0 -56 -41t-20 -99q0 -46 14 -88z" />
    <glyph glyph-name="Ydieresis" unicode="&#x178;" horiz-adv-x="335" 
d="M541 536q72 0 114.5 -53t42.5 -128q-28 67 -57.5 100t-106.5 33q-123 0 -179 -103.5t-56 -184.5v-154q0 -27 22 -54t65 -39h-234q37 15 55.5 33.5t18.5 53.5v174q0 27 -32 88.5t-96.5 121.5t-159.5 87h255q-19 -6 -34.5 -15.5t-15.5 -24.5q30 -35 76.5 -96t54.5 -105
q20 97 88.5 181.5t178.5 84.5zM222 621q13 0 21.5 -12.5t8.5 -27.5q0 -19 -11.5 -24.5t-28.5 -5.5q-13 0 -21.5 12.5t-8.5 27.5q0 30 40 30zM355 621q14 0 22.5 -12t8.5 -28q0 -19 -11.5 -24.5t-28.5 -5.5q-14 0 -22 13t-8 27t11.5 22t27.5 8z" />
    <glyph glyph-name="hungarumlaut" unicode="&#x2ba;" horiz-adv-x="359" 
d="M70 661q5 37 14 58.5t34 21.5q17 0 27.5 -14.5t10.5 -37.5q0 -14 -4.5 -26t-23.5 -38l-53 -71l-21 14zM206 661q5 37 14 58.5t34 21.5q17 0 27.5 -14.5t10.5 -37.5q0 -14 -4.5 -26t-23.5 -38l-53 -71l-21 14z" />
    <glyph glyph-name="caron" unicode="&#x2c7;" horiz-adv-x="408" 
d="M194 544q-42 27 -89 66.5t-75 108.5q44 -25 92.5 -49.5t74.5 -24.5q25 0 68 25t83 52q-16 -70 -62.5 -110.5t-91.5 -67.5z" />
    <glyph glyph-name="macron" unicode="&#x2c9;" horiz-adv-x="375" 
d="M306 577h-252v86h252v-86z" />
    <glyph glyph-name="breve" unicode="&#x2d8;" horiz-adv-x="408" 
d="M206 554q-55 0 -90.5 42t-72.5 133q33 -25 75.5 -50t87.5 -25q46 0 84 24.5t68 50.5q-22 -86 -59 -130.5t-93 -44.5z" />
    <glyph glyph-name="dotaccent" unicode="&#x2d9;" horiz-adv-x="326" 
d="M249 634q0 -38 -26 -63t-63 -25q-34 0 -58 25t-24 59q0 38 25 64t63 26q35 0 59 -25t24 -61z" />
    <glyph glyph-name="ring" unicode="&#x2da;" horiz-adv-x="347" 
d="M78 652q0 39 27 66t66 27q38 0 65.5 -26.5t27.5 -65.5t-28 -65t-67 -26q-35 0 -63 27t-28 63zM220 654q0 20 -15 33t-35 13q-19 0 -32.5 -13.5t-13.5 -32.5q0 -20 13.5 -32.5t34.5 -12.5t34.5 12.5t13.5 32.5z" />
    <glyph glyph-name="ogonek" unicode="&#x2db;" horiz-adv-x="261" 
d="M144 0q-26 -26 -26 -60q0 -24 8.5 -35.5t29.5 -11.5q17 0 41 7q-11 -29 -33 -46t-48 -17q-27 0 -44.5 20.5t-17.5 54.5q0 51 34 88h56z" />
    <glyph glyph-name="circumflex" unicode="&#x302;" horiz-adv-x="408" 
d="M342 502q-38 22 -80.5 43t-67.5 21t-70 -21t-87 -43q28 68 73.5 98.5t86.5 47.5q40 -16 84.5 -46t60.5 -100z" />
    <glyph glyph-name="tilde" unicode="&#x303;" horiz-adv-x="456" 
d="M171 600q25 0 65 -22t66 -22q39 0 56 15.5t36 38.5q-9 -47 -37.5 -79.5t-70.5 -32.5q-21 0 -65 22t-67 22q-33 0 -49 -12t-43 -42q8 46 38.5 79t70.5 33z" />
    <glyph glyph-name="summation" unicode="&#x3a3;" horiz-adv-x="713" 
d="M618 643l15 -129h-44q-32 105 -85 144t-169 39h-132l315 -431l-344 -394h187q122 0 172.5 31.5t82.5 116.5h45l-30 -130l-2 -7q-23 -99 -111 -99h-482l389 446l-375 514h460q65 0 82 -15q17 -13 26 -86z" />
    <glyph glyph-name="Omega" unicode="&#x3a9;" horiz-adv-x="768" 
d="M593 90q48 0 68 19t20 67h23v-176h-272v180q77 15 122.5 76.5t45.5 151.5q0 106 -59 168.5t-157 62.5t-157 -62.5t-59 -168.5q0 -90 44.5 -151t123.5 -77v-180h-272v176h23q0 -48 19 -67t69 -19h123v59q-118 21 -183 89t-65 170q0 121 92.5 194t241.5 73t241.5 -73.5
t92.5 -193.5q0 -100 -64 -168t-184 -91v-59h123z" />
    <glyph glyph-name="pi" unicode="&#x3c0;" horiz-adv-x="549" 
d="M404 373l-1 -24l-3 -150v-40q0 -84 8.5 -105t30.5 -21q28 0 41 29q17 31 17 89h25v-5q0 -80 -26 -118t-80 -38q-56 0 -79.5 40t-23.5 164l1 78l3 104l-50 1l-77 2q0 -234 -23 -311.5t-80 -77.5q-35 0 -52.5 29t-17.5 86v19h24q0 -27 9.5 -39.5t27.5 -12.5q42 0 54.5 47
t18 110.5t5.5 149.5h-22q-38 0 -59.5 -13.5t-27.5 -39.5h-23q0 34 10 57.5t36.5 44.5t112.5 21l102 -3l152 -3q34 0 49.5 7t16.5 21l23 1q0 -53 -23.5 -76.5t-74.5 -23.5h-14z" />
    <glyph glyph-name="endash" unicode="&#x2013;" horiz-adv-x="403" 
d="M41 177q34 76 69 96.5t89 20.5q12 0 22.5 -0.5t19.5 -0.5q34 0 59.5 5t58.5 21q-34 -78 -71 -97t-102 -19q-52 0 -79.5 -3.5t-65.5 -22.5z" />
    <glyph glyph-name="emdash" unicode="&#x2014;" horiz-adv-x="694" 
d="M416 201h-246q-34 0 -53.5 -5.5t-45.5 -19.5q13 40 67.5 78.5t108.5 38.5h278q33 0 54 6.5t49 18.5q-30 -63 -93.5 -90t-118.5 -27z" />
    <glyph glyph-name="quoteleft" unicode="&#x2018;" horiz-adv-x="141" 
d="M54 402q-27 24 -40 50.5t-13 51.5q0 35 21.5 65.5t60.5 52.5q-19 -27 -19 -54q0 -31 16 -48t50 -42q-8 -19 -23 -41t-53 -35z" />
    <glyph glyph-name="quoteright" unicode="&#x2019;" horiz-adv-x="125" 
d="M63 663q27 -24 40 -50.5t13 -51.5q0 -34 -22 -65t-60 -53q19 27 19 54q0 30 -13 44t-52 47q8 20 23 41.5t52 33.5z" />
    <glyph glyph-name="quotedblleft" unicode="&#x201c;" horiz-adv-x="298" 
d="M219 402q-27 24 -40 50.5t-13 51.5q0 35 21.5 65.5t60.5 52.5q-19 -27 -19 -54q0 -30 15 -46t50 -44q-9 -27 -25.5 -46t-49.5 -30zM54 402q-27 24 -40 50.5t-13 51.5q0 35 21.5 65.5t60.5 52.5q-19 -27 -19 -54q0 -31 16 -48t50 -42q-8 -19 -23 -41t-53 -35z" />
    <glyph glyph-name="quotedblright" unicode="&#x201d;" horiz-adv-x="298" 
d="M246 629q27 -24 40 -50.5t13 -51.5q0 -35 -21.5 -65t-60.5 -53q19 27 19 54q0 31 -15 46.5t-51 44.5q8 20 23 41.5t53 33.5zM80 629q27 -24 40 -50.5t13 -51.5q0 -35 -21.5 -65t-60.5 -53q19 27 19 54q0 30 -13 44t-52 47q8 20 23 41.5t52 33.5z" />
    <glyph glyph-name="dagger" unicode="&#x2020;" horiz-adv-x="404" 
d="M215 -188h-42q0 180 -3.5 277.5t-33.5 183.5q16 23 23.5 40t13.5 41q-29 -8 -59.5 -16t-40.5 -8q-21 0 -32.5 15t-11.5 37q0 21 12 37t34 16q9 0 39 -8.5t59 -17.5q-10 63 -20 127t-10 72q0 26 14 42t34 16q24 0 39 -16t15 -42q0 -8 -10 -72t-20 -127q28 9 58 17.5
t40 8.5q22 0 34.5 -15.5t12.5 -37.5t-11.5 -37t-33.5 -15q-9 0 -39.5 8t-60.5 16q5 -21 12 -37t25 -44q-24 -69 -30.5 -161t-6.5 -300z" />
    <glyph glyph-name="daggerdbl" unicode="&#x2021;" horiz-adv-x="349" 
d="M125 577q0 52 48 52q25 0 39 -12.5t14 -39.5q0 -6 -9 -64t-19 -116q26 8 53 16t36 8q20 0 30.5 -14t10.5 -34q0 -19 -11 -33t-30 -14q-9 0 -37 7t-56 16q5 -27 12 -47.5t24 -54.5q-14 -28 -22.5 -51t-13.5 -50q27 8 55.5 15t37.5 7q20 0 30.5 -14t10.5 -34q0 -19 -11 -33
t-30 -14q-8 0 -35 8l-54 16q10 -59 19 -118.5t9 -65.5q0 -25 -14 -39t-37 -14q-50 0 -50 53q0 8 8.5 66t18.5 118q-26 -8 -54 -16t-36 -8q-19 0 -30 14t-11 34t10 33.5t30 13.5q9 0 37.5 -7t55.5 -15q-3 25 -11.5 48.5t-24.5 52.5q13 25 23 52t13 50q-27 -8 -56.5 -15.5
t-36.5 -7.5q-19 0 -29.5 14.5t-10.5 33.5t11 33t30 14q7 0 35 -8t55 -16q-9 57 -18 117.5t-9 62.5z" />
    <glyph glyph-name="bullet" unicode="&#x2022;" horiz-adv-x="408" 
d="M205 428q71 0 114.5 -48.5t43.5 -118.5q0 -71 -47 -115t-120 -44q-52 0 -105.5 38t-53.5 129q0 70 47.5 114.5t120.5 44.5z" />
    <glyph glyph-name="ellipsis" unicode="&#x2026;" horiz-adv-x="762" 
d="M138 95q6 0 34 -26t57 -49l-83 -84q-2 2 -41 33t-51 38q6 12 35 50t49 38zM371 95q7 0 33 -25.5t58 -49.5l-83 -84q-34 27 -58 46t-34 25q10 17 36.5 52.5t47.5 35.5zM605 95q6 0 33.5 -25.5t57.5 -49.5l-83 -84q-17 11 -43.5 35t-48.5 36q6 12 35 50t49 38z" />
    <glyph glyph-name="guilsinglleft" unicode="&#x2039;" horiz-adv-x="180" 
d="M109 288l41 -156l-41 -31l-82 187l82 169l41 -28z" />
    <glyph glyph-name="guilsinglright" unicode="&#x203a;" horiz-adv-x="180" 
d="M69 457l81 -169l-81 -187l-42 31l42 156l-42 141z" />
    <glyph glyph-name="trademark" unicode="&#x2122;" horiz-adv-x="704" 
d="M648 631h-13q-16 0 -17.5 -7t-1.5 -22v-207q0 -27 4 -32.5t28 -7.5v-25h-119v25q22 0 27.5 6.5t5.5 32.5v210l-90 -274h-8l-94 274v-224q0 -16 8 -20.5t23 -4.5v-25h-88v25h9q4 0 10.5 0.5t9 7.5t3.5 18.5t1 16.5v204q0 20 -2 24.5t-16 4.5h-10v23h95l71 -206l68 206h96
v-23zM293 569h-23q0 32 -10.5 43.5t-37.5 11.5h-27q0 -110 0.5 -185t5.5 -80q7 -4 28 -4h6v-25h-135v25h6q20 0 28 4q5 4 6 45t1 220h-25q-26 0 -36.5 -11.5t-10.5 -43.5h-23v85h247v-85z" />
    <glyph glyph-name="partialdiff" unicode="&#x2202;" horiz-adv-x="494" 
d="M256 349q-52 0 -86 -60t-34 -161q0 -57 21.5 -88t62.5 -31q53 0 87 62t34 153q0 58 -21.5 91.5t-63.5 33.5zM358 287q4 14 6.5 28t2.5 31l3 89q0 85 -15.5 126t-47.5 41q-18 0 -50 -35t-56 -35q-16 0 -25.5 7.5t-11.5 24.5q0 29 30.5 50t71.5 21q77 0 111.5 -54
t46.5 -103t12 -111q0 -163 -64.5 -271.5t-157.5 -108.5q-68 0 -110 51t-42 137q0 82 53 143.5t125 61.5q44 0 72.5 -22t45.5 -71z" />
    <glyph glyph-name="Delta" unicode="&#x2206;" horiz-adv-x="278" 
d="M155 434q31 0 41 -27t10 -87v-303q0 -144 -79 -240.5t-193 -109.5q86 38 133 103.5t47 149.5v443q0 24 -19 24q-20 0 -55 -27q18 32 51.5 53t63.5 21zM145 651q24 0 41 -18t17 -49q0 -35 -29 -55t-55 -20q-20 0 -30.5 23t-10.5 52q0 38 18 52.5t49 14.5z" />
    <glyph glyph-name="product" unicode="&#x220f;" horiz-adv-x="823" 
d="M118 -176v880h-88v40h767v-40h-88v-880h88v-40h-264v40h84v880h-407v-880h84v-40h-264v40h88z" />
    <glyph glyph-name="fraction" unicode="&#x2215;" horiz-adv-x="98" 
d="M-87 0h-68l337 681h68z" />
    <glyph glyph-name="radical" unicode="&#x221a;" horiz-adv-x="549" 
d="M594 764h-57l-290 -784h-32l-156 431l-61 -22l-12 39l138 48l125 -346l252 681h93v-47z" />
    <glyph glyph-name="infinity" unicode="&#x221e;" horiz-adv-x="713" 
d="M383 271q23 -45 58 -70q35 -23 77 -23q52 0 84.5 35t32.5 90q0 56 -30 89.5t-80 33.5q-37 0 -71 -36t-71 -119zM330 327q-26 46 -59 69.5t-76 23.5q-51 0 -84 -35t-33 -90q0 -54 29.5 -88.5t76.5 -34.5q40 0 71.5 31.5t74.5 123.5zM366 238q-33 -62 -71.5 -93t-85.5 -31
q-66 0 -111 52.5t-45 131.5q0 83 41 134.5t105 51.5q47 0 82.5 -29.5t65.5 -94.5q31 62 69.5 93t87.5 31q63 0 109 -53t46 -131q0 -83 -40.5 -134.5t-104.5 -51.5q-46 0 -84 30q-36 31 -64 94z" />
    <glyph glyph-name="integral" unicode="&#x222b;" horiz-adv-x="274" 
d="M283 757q36 0 58.5 -18.5t22.5 -48.5q0 -20 -13 -34t-36 -14q-29 0 -44 32t-29 32q-57 0 -57 -310l-3 -98q0 -63 -4.5 -120t-14 -128t-31 -120t-60 -80t-81.5 -31q-35 0 -58 18.5t-23 48.5q0 22 12.5 34.5t36.5 12.5q29 0 44 -31t30 -32q57 0 57 324l2 84q0 60 4 116
t13.5 127.5t31.5 122.5t59.5 82t82.5 31z" />
    <glyph glyph-name="approxequal" unicode="&#x2248;" horiz-adv-x="490" 
d="M104 60l-66 66l136 136l-136 136l66 66l136 -136l136 136l66 -66l-136 -136l136 -136l-66 -66l-136 136z" />
    <glyph glyph-name="notequal" unicode="&#x2260;" horiz-adv-x="549" 
d="M413 336h91v-64h-149l-73 -72h222v-64h-281l-118 -118l-43 44l74 74h-91v64h150l73 72h-223v64h281l118 118l44 -44z" />
    <glyph glyph-name="lessequal" unicode="&#x2264;" horiz-adv-x="616" 
d="M328 430q-25 -53 -54 -92q-10 13 -32 22t-56 9q-37 0 -60.5 -40.5t-23.5 -94.5q0 -96 44.5 -135.5t101.5 -39.5q24 0 52 13.5t58 33.5q-40 -61 -79.5 -85.5t-109.5 -24.5q-97 0 -124 52t-27 128q0 115 67 185t172 70q-33 10 -60.5 37.5t-27.5 67.5q0 64 48.5 89.5
t112.5 25.5q72 0 116 -35.5t44 -121.5v-65h57q34 2 59 16q-16 -37 -36.5 -48t-79.5 -11v-303q0 -22 17 -22q14 0 35.5 13.5t51.5 41.5q-26 -52 -65 -87t-78 -35q-30 0 -41.5 24.5t-11.5 87.5v280h-58q1 12 42 36.5t41 86.5q0 57 -24 86.5t-77 29.5q-59 0 -93.5 -20
t-34.5 -70q0 -44 40 -68t94 -37z" />
    <glyph glyph-name="greaterequal" unicode="&#x2265;" horiz-adv-x="600" 
d="M305 431q-13 -20 -20.5 -38t-21.5 -62q-33 35 -57 47t-65 12t-56.5 -10.5t-15.5 -31.5q0 -30 80 -62t121 -59t41 -95q0 -81 -50 -107.5t-125 -26.5q-77 0 -97.5 27.5t-20.5 135.5q28 -74 71.5 -105.5t92.5 -31.5q71 0 71 74q0 42 -113.5 92.5t-113.5 132.5
q0 67 55.5 87.5t154.5 20.5q-25 10 -46 37.5t-21 67.5q0 56 42.5 85.5t102.5 29.5q72 0 116 -35.5t44 -121.5v-65h57q34 2 59 16q-16 -37 -36.5 -48t-79.5 -11v-303q0 -22 17 -22q14 0 35.5 13.5t51.5 41.5q-26 -52 -65 -87t-78 -35q-30 0 -41.5 24.5t-11.5 87.5v280h-58
q1 12 42 36.5t41 86.5q0 56 -25.5 86t-78.5 30q-57 0 -83.5 -22.5t-26.5 -68.5t36.5 -71t75.5 -32z" />
    <glyph glyph-name="lozenge" unicode="&#x25ca;" horiz-adv-x="364" 
d="M185 650l165 -325l-165 -334l-165 334zM185 566l-120 -241l120 -244l120 244z" />
    <glyph glyph-name="apple" unicode="&#xf000;" horiz-adv-x="596" 
d="M432 650q0 -68 -32.5 -107.5t-93.5 -46.5q0 54 29.5 97t96.5 57zM201 496q24 0 58 -13.5t51 -13.5q5 0 42.5 13.5t62.5 13.5q43 0 73 -14t63 -48q-21 -19 -41 -38q-34 -41 -34 -94q0 -36 18 -71t75 -67q-42 -84 -74 -128t-90 -44q-16 0 -49 13.5t-50 13.5
q-12 0 -46.5 -13.5t-52.5 -13.5q-67 0 -127 103t-60 207q0 70 41 132t140 62z" />
    <glyph glyph-name="fi" unicode="&#xf001;" horiz-adv-x="515" 
d="M249 667q75 0 130 -32.5t55 -64.5q0 -9 -18.5 -28.5t-45.5 -39.5q-38 63 -70.5 82t-84.5 19q-32 0 -48.5 -10t-16.5 -36v-128h229q24 0 39.5 -25.5t15.5 -89.5v-246q0 -20 14 -20q18 0 50 33q-5 -29 -36 -58.5t-62 -29.5q-58 0 -58 76v300h-192v-426q0 -145 -55 -211
t-126 -66h-107q11 38 32 50.5t53 12.5q8 0 24 -1t23 -1q31 0 47 15t16 62v566h-70l53 59h18v49q0 89 55 139t136 50z" />
    <glyph glyph-name="fl" unicode="&#xf002;" horiz-adv-x="550" 
d="M159 547v-118q114 0 124 21q-20 -46 -47.5 -63t-76.5 -17v-388q0 -153 -55.5 -234.5t-125.5 -81.5h-106q18 67 106 69t88 85v550h-69l53 59h17v49q0 80 53.5 134.5t133.5 54.5h310q-18 -31 -53.5 -47t-79.5 -16v-504q0 -39 22 -39q24 0 79 49q-15 -44 -58 -80.5
t-76 -36.5q-29 0 -44 27.5t-15 66.5v364v16q0 33 5 70t20 67h-157q-24 0 -36 -17.5t-12 -39.5z" />
  </font>
</defs>
</svg>
