<?xml version="1.0" standalone="no"?>
<!DOCTYPE svg PUBLIC "-//W3C//DTD SVG 1.1//EN" "http://www.w3.org/Graphics/SVG/1.1/DTD/svg11.dtd" >
<svg xmlns="http://www.w3.org/2000/svg" xmlns:xlink="http://www.w3.org/1999/xlink" version="1.1">
<metadata>
Created by FontForge 20170731 at Fri Jul 20 05:06:04 2012
 By Aleksey,,,
(c) 1999-2012 Typodermic Fonts Inc. See attached license agreement. If agreement is missing visit typodermicfonts.com for more info.
</metadata>
<defs>
<font id="DeftoneStylus-Regular" horiz-adv-x="585" >
  <font-face 
    font-family="Deftone Stylus"
    font-weight="400"
    font-stretch="normal"
    units-per-em="1000"
    panose-1="3 1 8 2 3 6 7 7 3 0"
    ascent="801"
    descent="-199"
    x-height="426"
    cap-height="747"
    bbox="-168 -199 1573 1001"
    underline-thickness="20"
    underline-position="-163"
    unicode-range="U+0017-E056"
  />
<missing-glyph horiz-adv-x="777" 
d="M150 -187q-93 0 -93 80v843q0 82 93 82h473q94 0 94 -82v-843q0 -80 -94 -80h-473zM298 152q11 38 20.5 62.5t25 42t40.5 32t66 32.5q37 16 71 39.5t59.5 51.5t40.5 60t15 65q0 38 -26.5 56t-77.5 18q-42 0 -69.5 -3.5t-47.5 -7.5t-35.5 -7.5t-31.5 -3.5q-36 0 -54 14
q-11 8 -19 8q-11 0 -18 -8t-7 -18q0 -29 26.5 -41.5t62.5 -12.5q19 0 36 3t32 7t29.5 7t29.5 3q36 0 36 -29q0 -41 -33 -74.5t-96 -67.5q-51 -28 -80.5 -47.5t-46.5 -38.5t-26.5 -42t-20.5 -58zM273 84q0 16 -16.5 25t-37.5 9q-18 0 -35.5 -5.5t-31.5 -14.5t-23 -21t-9 -25
q0 -17 16.5 -26.5t37.5 -9.5q14 0 31.5 5t32.5 14t25 21.5t10 27.5z" />
    <glyph glyph-name="a_z" unicode="az" horiz-adv-x="922" 
d="M1125 172q-14 -32 -56 -70.5t-106 -68.5q-32 -15 -65 -25.5t-75 -10.5q-38 0 -72.5 1.5t-67.5 1.5q-30 0 -55 -0.5t-33 -2.5l-8 34q35 39 77.5 78t85 77t81.5 73t66 65q-5 -1 -8.5 -1h-8.5q-23 0 -43 3.5t-39 3.5t-35.5 -7.5t-29.5 -31.5q-14 -25 -34 -56.5t-46 -64
t-56.5 -64t-65 -55.5t-72 -39t-77.5 -15q-18 0 -28.5 10.5t-13.5 27.5q-21 -18 -47.5 -28t-72.5 -10q-41 0 -67.5 20.5t-26.5 62.5q0 26 12 64.5t35 83.5q30 60 57.5 98.5t54 60.5t53.5 30.5t57 8.5q41 0 58.5 -11.5t28.5 -28.5l10 23h119l-105 -235q-11 -25 -15.5 -35.5
t-4.5 -18.5q0 -15 17 -15q14 0 40 25t54 60.5t52.5 75.5t36.5 70q18 48 42 77t59 29q16 0 39 -3.5t49.5 -8t56 -8t59.5 -3.5q21 0 43 2.5t45 4.5l15 -17q-37 -40 -81.5 -82t-88.5 -81t-82 -72.5t-62 -57.5q9 2 21.5 4t33.5 2q22 0 52 -2.5t65 -2.5q19 0 37.5 5.5t43.5 23.5
q22 16 37 31.5t24 33.5zM418 329q2 3 2 6.5v6.5q0 5 -3.5 9.5t-13.5 4.5q-16 0 -23.5 -8t-15.5 -25l-91 -205q-10 -20 -9 -34q0 -16 14 -16q25 0 44 44z" />
    <glyph glyph-name="a_z_z" unicode="azz" horiz-adv-x="1364" 
d="M1567 172q-9 -21 -37 -51t-68.5 -57.5t-91 -47t-105.5 -19.5q-38 0 -72.5 1.5t-67.5 1.5q-30 0 -55 -0.5t-33 -2.5l-8 34q35 39 77.5 78t85 77t81.5 73t66 65q-24 2 -44.5 4t-37.5 2q-29 0 -51.5 -10.5t-41.5 -45.5q-25 -45 -61.5 -94t-81 -89.5t-95 -67t-103.5 -26.5
q-38 0 -72.5 1.5t-67.5 1.5q-30 0 -55 -0.5t-33 -2.5l-8 34q35 38 77 77t84.5 76.5t81 73t67.5 66.5q-5 -1 -8.5 -1h-8.5q-23 0 -43 3.5t-39 3.5t-35.5 -7.5t-29.5 -31.5q-14 -25 -34 -56.5t-46 -64t-56.5 -64t-65 -55.5t-72 -39t-77.5 -15q-18 0 -28.5 10.5t-13.5 27.5
q-21 -18 -47.5 -28t-72.5 -10q-41 0 -67.5 20.5t-26.5 62.5q0 26 12 64.5t35 83.5q30 60 57.5 98.5t54 60.5t53.5 30.5t57 8.5q41 0 58.5 -11.5t28.5 -28.5l10 23h119l-105 -235q-11 -25 -15.5 -35.5t-4.5 -18.5q0 -15 17 -15q14 0 40 25t54 60.5t52.5 75.5t36.5 70
q18 48 42 77t59 29q16 0 39 -3.5t49.5 -8t56 -8t59.5 -3.5q21 0 43 2.5t45 4.5l15 -17q-37 -41 -82 -82.5t-89 -80.5t-82 -72.5t-61 -57.5q9 2 21.5 4t33.5 2q56 0 90.5 4t60.5 19t50 43.5t60 77.5q19 27 32.5 57.5t26.5 57t30 44t44 17.5q16 0 39 -3.5t49.5 -8t56 -8
t59.5 -3.5q21 0 43 2.5t45 4.5l15 -17q-37 -40 -81.5 -82t-88.5 -81t-82 -72.5t-62 -57.5q9 2 21.5 4t33.5 2q22 0 52 -2.5t65 -2.5q19 0 37.5 5.5t43.5 23.5q22 16 37 31.5t24 33.5zM418 329q2 3 2 6.5v6.5q0 5 -3.5 9.5t-13.5 4.5q-16 0 -23.5 -8t-15.5 -25l-91 -205
q-9 -17 -9 -31q0 -19 14 -19q25 0 44 44z" />
    <glyph glyph-name="c_z" unicode="cz" horiz-adv-x="870" 
d="M1073 172q-14 -32 -56 -70.5t-106 -68.5q-32 -15 -65 -25.5t-75 -10.5q-38 0 -72.5 1.5t-67.5 1.5q-30 0 -55 -0.5t-33 -2.5l-8 34q35 39 77.5 78t85 77t81.5 73t66 65q-14 1 -35 2t-41 1q-23 0 -39.5 -5t-29 -14t-22.5 -22.5t-20 -29.5q-29 -46 -69.5 -92.5t-87.5 -83.5
t-99.5 -60t-105.5 -23q-38 0 -68.5 3t-52 12t-33 25.5t-11.5 43.5q0 41 31 112l37 83q36 82 93.5 116t148.5 34q70 0 101.5 -12t31.5 -49q0 -11 -5 -28l-170 -61q11 14 19.5 33t8.5 34q0 13 -19 13q-24 0 -33 -21l-98 -217q-7 -17 -7 -33q0 -14 12 -17t24 -3q25 0 56.5 11
t65 32t69 52.5t68.5 72.5q22 27 40.5 63.5t37.5 68.5t41 54.5t51 22.5q16 0 39 -3.5t49.5 -8t56 -8t59.5 -3.5q21 0 43 2.5t45 4.5l15 -17q-37 -40 -81.5 -82t-88.5 -81t-82 -72.5t-62 -57.5q9 2 21.5 4t33.5 2q22 0 52 -2.5t65 -2.5q19 0 37.5 5.5t43.5 23.5q22 16 37 31.5
t24 33.5z" />
    <glyph glyph-name="d_z" unicode="dz" horiz-adv-x="926" 
d="M1129 172q-9 -21 -37 -51t-68.5 -57.5t-91 -47t-105.5 -19.5q-38 0 -72.5 1.5t-67.5 1.5q-30 0 -55 -0.5t-33 -2.5l-8 34q35 39 77.5 78t85 77t81.5 73t66 65q-17 1 -44 2.5t-50 1.5q-16 0 -27.5 -4t-21 -12.5t-18.5 -21t-20 -29.5q-26 -40 -62.5 -86.5t-77.5 -86
t-84 -65.5t-83 -26q-22 0 -35.5 2.5t-22 7t-13 10.5t-7.5 13q-11 -9 -22.5 -15t-25 -10t-30.5 -6t-39 -2q-35 0 -60.5 19.5t-25.5 61.5q0 17 7 47t23 65l17 37q49 107 106 153t114 46q22 0 35.5 -3.5t21.5 -8.5l148 330h166l-275 -604q-5 -11 -5 -21q0 -14 15 -14q8 0 24 13
t36 34t42 48t43 55q19 25 33 57.5t28.5 61.5t32.5 48.5t47 19.5q16 0 39 -3.5t49.5 -8t56 -8t59.5 -3.5q21 0 43 2.5t45 4.5l15 -17q-37 -40 -81.5 -82t-88.5 -81t-82 -72.5t-62 -57.5q9 2 21.5 4t33.5 2q22 0 52 -2.5t65 -2.5q19 0 37.5 5.5t43.5 23.5q22 16 37 31.5
t24 33.5zM428 350q-5 8 -17 8t-21.5 -6.5t-17.5 -24.5l-98 -223q-8 -16 -8 -25q0 -14 12 -14q22 0 36 31z" />
    <glyph glyph-name="e_z" unicode="ez" horiz-adv-x="866" 
d="M1069 172q-14 -32 -56 -70.5t-106 -68.5q-32 -15 -65 -25.5t-75 -10.5q-38 0 -72.5 1.5t-67.5 1.5q-30 0 -55 -0.5t-33 -2.5l-8 34q35 39 77.5 78t85 77t81.5 73t66 65q-12 1 -28.5 1.5t-33 1.5t-30.5 1.5t-21 0.5q-9 0 -17 -4t-17 -13t-19.5 -24t-24.5 -37
q-27 -42 -64.5 -87t-82.5 -82t-97 -61t-109 -24q-40 0 -70.5 2.5t-51.5 11.5t-32 25.5t-11 44.5q0 41 31 112l37 83q18 41 39 69.5t49.5 46.5t66 26t88.5 8q39 0 64.5 -4.5t39.5 -12.5t19.5 -20t5.5 -27q0 -25 -7.5 -57t-30.5 -62q-16 -21 -43.5 -34.5t-60.5 -21.5
t-66.5 -12t-61.5 -5q-12 -26 -18.5 -44.5t-6.5 -30.5q0 -27 37 -27q49 0 92 19t79.5 48.5t67 65.5t53.5 71q14 21 25 50.5t24 56t30.5 45t45.5 18.5q16 0 39 -3.5t49.5 -8t56 -8t59.5 -3.5q21 0 43 2.5t45 4.5l15 -17q-37 -40 -81.5 -82t-88.5 -81t-82 -72.5t-62 -57.5
q9 2 21.5 4t33.5 2q22 0 52 -2.5t65 -2.5q19 0 37.5 5.5t43.5 23.5q22 16 37 31.5t24 33.5zM323 223q22 2 41.5 12t33.5 26t22 37t8 45q0 13 -19 13q-13 0 -22 -8t-20 -31z" />
    <glyph glyph-name="e_z_z" unicode="ezz" horiz-adv-x="1308" 
d="M1511 172q-9 -21 -37 -51t-68.5 -57.5t-91 -47t-105.5 -19.5q-38 0 -72.5 1.5t-67.5 1.5q-30 0 -55 -0.5t-33 -2.5l-8 34q35 39 77.5 78t85 77t81.5 73t66 65q-24 2 -44.5 4t-37.5 2q-29 0 -51.5 -10.5t-41.5 -45.5q-25 -45 -61.5 -94t-81 -89.5t-95 -67t-103.5 -26.5
q-38 0 -72.5 1.5t-67.5 1.5q-30 0 -55 -0.5t-33 -2.5l-8 34q34 38 76.5 77.5t85 77t81.5 73t67 65.5q-12 1 -28.5 1.5t-33 1.5t-30.5 1.5t-21 0.5q-9 0 -17 -4t-17 -13t-19.5 -24t-24.5 -37q-27 -42 -64.5 -87t-82.5 -82t-97 -61t-109 -24q-40 0 -70.5 2.5t-51.5 11.5
t-32 25.5t-11 44.5q0 41 31 112l37 83q18 41 39 69.5t49 46.5t65.5 26t89.5 8q39 0 64.5 -4.5t39.5 -12.5t19.5 -20t5.5 -27q0 -25 -7.5 -57t-30.5 -62q-16 -21 -43.5 -34.5t-60.5 -21.5t-66.5 -12t-61.5 -5q-12 -26 -18.5 -44.5t-6.5 -30.5q0 -27 37 -27q49 0 92 19
t79.5 48.5t67 65.5t53.5 71q14 21 25 50.5t24 56t30.5 45t45.5 18.5q16 0 39 -3.5t49.5 -8t56 -8t59.5 -3.5q21 0 43 2.5t45 4.5l15 -17q-38 -41 -83.5 -83.5t-89 -81t-81.5 -72t-60 -56.5q9 2 21.5 4t33.5 2q56 0 90.5 4t60.5 19t50 43.5t60 77.5q19 27 32.5 57.5t26.5 57
t30 44t44 17.5q16 0 39 -3.5t49.5 -8t56 -8t59.5 -3.5q21 0 43 2.5t45 4.5l15 -17q-37 -40 -81.5 -82t-88.5 -81t-82 -72.5t-62 -57.5q9 2 21.5 4t33.5 2q22 0 52 -2.5t65 -2.5q19 0 37.5 5.5t43.5 23.5q22 16 37 31.5t24 33.5zM323 223q22 2 41.5 12t33.5 26t22 37t8 45
q0 13 -19 13q-13 0 -22 -8t-20 -31z" />
    <glyph glyph-name="f_j" unicode="fj" horiz-adv-x="755" 
d="M958 172q-21 -53 -89 -99q-36 -24 -77.5 -42t-79.5 -25l-30 -67q-12 -28 -32.5 -51.5t-47 -40t-57 -25.5t-62.5 -9q-62 0 -86.5 20t-24.5 57q0 45 22 79.5t55.5 60.5t73.5 44t76 30l34 76q-44 -38 -94 -65.5t-97 -27.5q-26 0 -42 2t-36 12q10 -12 14.5 -29.5t4.5 -22.5
q0 -14 -4.5 -33.5t-15.5 -43.5l-29 -64q-43 -95 -179 -95q-59 0 -85 20.5t-26 58.5q0 30 17 70l300 672q29 64 81 88.5t135 24.5q46 0 70 -16.5t24 -46.5q0 -22 -11 -47l-127 -283q-12 -27 -30 -54t-38 -50.5t-40.5 -40.5t-39.5 -25q5 -25 22.5 -30t43.5 -5q30 0 65.5 19
t70 46.5t64.5 59t49 56.5l52 116l126 -69l-122 -275q28 1 55.5 12.5t51 28t41 35t24.5 33.5zM981 588q0 -19 -12.5 -34.5t-31 -26t-40.5 -16.5t-41 -6q-29 0 -48.5 12.5t-19.5 30.5q0 16 11 31.5t29 27.5t40.5 19t45.5 7q25 0 46 -12t21 -33zM574 644q2 4 2 10q0 12 -17 12
q-16 0 -24 -16l-176 -394q19 7 42 31.5t43 66.5zM292 13q10 22 13.5 38t3.5 32q0 24 -15 29l-83 -185q-5 -11 -6 -16t-1 -7q0 -9 11 -9q23 0 33 21zM570 23q-20 -10 -39 -23.5t-34 -29.5t-24 -32t-9 -30q0 -13 17 -13q18 0 40 27.5t49 100.5z" />
    <glyph glyph-name="i_z" unicode="iz" horiz-adv-x="729" 
d="M932 172q-14 -32 -56 -70.5t-106 -68.5q-32 -15 -65 -25.5t-75 -10.5q-38 0 -72.5 1.5t-67.5 1.5q-30 0 -55 -0.5t-33 -2.5l-8 34q35 39 77.5 78t85 77t81.5 73t66 65q-24 2 -52.5 3.5t-48.5 1.5q-14 0 -23.5 -2.5t-18 -10.5t-18 -22t-22.5 -38q-21 -38 -53 -83.5
t-73.5 -84.5t-93 -65t-112.5 -26q-32 0 -52.5 17.5t-20.5 47.5q0 23 13 50l149 334l126 -69l-106 -239q-5 -12 -5 -18q0 -15 17 -15q16 0 34 12t37 31t37.5 43.5t35.5 50.5q19 29 32.5 64t27.5 65t32.5 50.5t47.5 20.5q16 0 39 -3.5t49.5 -8t56 -8t59.5 -3.5q21 0 43 2.5
t45 4.5l15 -17q-37 -40 -81.5 -82t-88.5 -81t-82 -72.5t-62 -57.5q9 2 21.5 4t33.5 2q22 0 52 -2.5t65 -2.5q19 0 37.5 5.5t43.5 23.5q22 16 37 31.5t24 33.5zM507 588q0 -19 -12.5 -34.5t-31 -26t-40.5 -16.5t-41 -6q-26 0 -46.5 11.5t-20.5 31.5q0 16 11 31.5t29 27.5
t40 19t45 7q26 0 46.5 -12t20.5 -33z" />
    <glyph glyph-name="i_z_z" unicode="izz" horiz-adv-x="1171" 
d="M1374 172q-9 -21 -37 -51t-68.5 -57.5t-91 -47t-105.5 -19.5q-38 0 -72.5 1.5t-67.5 1.5q-30 0 -55 -0.5t-33 -2.5l-8 34q35 39 77.5 78t85 77t81.5 73t66 65q-24 2 -44.5 4t-37.5 2q-29 0 -51.5 -10.5t-41.5 -45.5q-25 -45 -61.5 -94t-81 -89.5t-95 -67t-103.5 -26.5
q-38 0 -72.5 1.5t-67.5 1.5q-30 0 -55 -0.5t-33 -2.5l-8 34q35 38 77.5 77t85 77t81.5 73.5t66 65.5q-24 2 -52.5 3.5t-48.5 1.5q-14 0 -23.5 -2.5t-18 -10.5t-18 -22t-22.5 -38q-21 -38 -53 -83.5t-73.5 -84.5t-93 -65t-112.5 -26q-32 0 -52.5 17.5t-20.5 47.5q0 13 3 24
t10 26l149 334l126 -69l-106 -239q-5 -12 -5 -18q0 -15 17 -15q16 0 34 12t37 31t37.5 43.5t35.5 50.5q19 29 32.5 64t27.5 65t32.5 50.5t47.5 20.5q16 0 39 -3.5t49.5 -8t56 -8t59.5 -3.5q21 0 43 2.5t45 4.5l15 -17q-37 -41 -82 -82.5t-88.5 -80.5t-82 -72.5t-61.5 -57.5
q9 2 21.5 4t33.5 2q56 0 90.5 4t60.5 19t50 43.5t60 77.5q19 27 32.5 57.5t26.5 57t30 44t44 17.5q16 0 39 -3.5t49.5 -8t56 -8t59.5 -3.5q21 0 43 2.5t45 4.5l15 -17q-37 -40 -81.5 -82t-88.5 -81t-82 -72.5t-62 -57.5q9 2 21.5 4t33.5 2q22 0 52 -2.5t65 -2.5
q19 0 37.5 5.5t43.5 23.5q22 16 37 31.5t24 33.5zM507 588q0 -19 -12.5 -34.5t-31 -26t-40.5 -16.5t-41 -6q-26 0 -46.5 11.5t-20.5 31.5q0 16 11 31.5t29 27.5t40 19t45 7q26 0 46.5 -12t20.5 -33z" />
    <glyph glyph-name="n_z" unicode="nz" horiz-adv-x="944" 
d="M1147 172q-14 -32 -56 -70.5t-106 -68.5q-32 -15 -65 -25.5t-75 -10.5q-38 0 -72.5 1.5t-67.5 1.5q-30 0 -55 -0.5t-33 -2.5l-8 34q35 39 77.5 78t85 77t81.5 73t66 65q-12 1 -27 1.5t-30.5 1.5t-29.5 1.5t-24 0.5q-23 0 -36 -14t-29 -42q-23 -41 -58 -89t-79 -89.5
t-95.5 -69.5t-106.5 -28q-35 0 -54 17.5t-19 46.5q0 18 12.5 50t30 69.5t36.5 76t31 68.5q5 14 5 23q0 12 -14 12t-23.5 -7t-14.5 -18l-148 -335h-167l198 446l105 -55q25 24 61 29.5t70 5.5q38 0 58.5 -20t20.5 -55q0 -19 -8 -44.5t-20 -53.5t-25.5 -56.5t-23.5 -53.5
q-7 -14 -7 -23q0 -15 18 -15q16 0 37.5 17t44 43.5t45 58.5t41.5 62q15 24 24 51t20 50.5t27 39t44 15.5q16 0 39 -3.5t49.5 -8t56 -8t59.5 -3.5q21 0 43 2.5t45 4.5l15 -17q-37 -40 -81.5 -82t-88.5 -81t-82 -72.5t-62 -57.5q9 2 21.5 4t33.5 2q22 0 52 -2.5t65 -2.5
q19 0 37.5 5.5t43.5 23.5q22 16 37 31.5t24 33.5z" />
    <glyph glyph-name="o_r" unicode="or" horiz-adv-x="849" 
d="M1053 172q-13 -29 -46.5 -60t-77 -56.5t-91 -42t-87.5 -16.5q-36 0 -54 18t-18 50q0 13 5.5 31.5t14 39t19 42t20.5 40.5q21 39 27 55.5t6 21.5q0 4 -4.5 6.5t-14.5 8.5l-32 19q-19 -39 -47.5 -57t-73.5 -18q-12 0 -25 1t-28 4q-34 -87 -66 -139t-66.5 -79t-73.5 -35.5
t-85 -8.5q-73 0 -102 21.5t-29 58.5q0 19 6.5 41t18.5 48l46 100q21 45 43.5 76t47 49.5t51 26.5t55.5 8q17 0 26 -0.5t15 -2.5q36 33 89 33q34 0 50 -14t16 -40q0 -28 -18 -67q5 -1 9.5 -1.5t8.5 -0.5q16 0 30 9.5t26 24.5t21 33.5t17 36.5l204 -123q15 -9 21.5 -19.5
t6.5 -18.5q0 -12 -9 -31.5t-20.5 -42t-20.5 -45t-9 -38.5q0 -14 16 -14q17 0 39.5 10.5t45 26.5t40.5 34.5t26 34.5zM414 299q-10 6 -14.5 17.5t-4.5 24.5q0 9 1 14q-12 -5 -18.5 -14.5t-15.5 -31.5l-92 -210q-5 -11 -5 -20q0 -19 17 -19q10 0 21.5 7.5t17.5 21.5zM512 344
q3 5 5.5 13t2.5 16q0 10 -3.5 16.5t-12.5 6.5q-24 0 -24 -23q0 -29 32 -29z" />
    <glyph glyph-name="o_s" unicode="os" horiz-adv-x="845" 
d="M1048 172q-22 -39 -59 -71t-82.5 -55.5t-96.5 -36t-101 -12.5q-30 0 -55.5 9.5t-44 26t-29 39t-10.5 49.5l54 36q4 -20 15 -38.5t31 -18.5q17 0 32 9t25.5 23t16.5 31.5t6 34.5q0 29 -6 54t-20 47q-62 -40 -178 -40q-34 -87 -66 -139t-66.5 -79t-73.5 -35.5t-85 -8.5
q-73 0 -102 21.5t-29 58.5q0 19 6.5 41t18.5 48l46 100q21 45 43.5 76t47 49.5t51 26.5t55.5 8q17 0 26 -0.5t15 -2.5q36 33 89 33q34 0 50 -14t16 -40q0 -28 -18 -67l17.5 -3.5t14.5 -1.5q18 0 49 7.5t57 22.5q-3 15 -3 30q0 28 9.5 55t27 48t41 34t51.5 13q26 0 42 -10.5
t16 -39.5q0 -9 -2 -20t-9.5 -24.5t-21.5 -30.5t-37 -38q81 -102 81 -158q0 -51 -24.5 -88t-77.5 -57q26 4 56.5 15.5t60.5 29t56 41t43 51.5zM414 299q-10 6 -14.5 17.5t-4.5 24.5q0 9 1 14q-11 -5 -18 -14.5t-16 -31.5l-92 -210q-5 -11 -5 -20q0 -19 17 -19q10 0 21.5 7.5
t17.5 21.5zM512 344q3 5 5.5 13t2.5 16q0 10 -3.5 16.5t-12.5 6.5q-24 0 -24 -23q0 -29 32 -29zM795 429q21 14 26 24t5 18q0 10 -9 10q-24 0 -24 -30q0 -3 0.5 -10.5t1.5 -11.5z" />
    <glyph glyph-name="o_x" unicode="ox" horiz-adv-x="846" 
d="M1050 172q-13 -29 -46.5 -60t-76 -56.5t-90 -42t-87.5 -16.5q-36 0 -54 16t-18 38q0 17 9 44l-131 -101l-39 42l204 157q14 38 26 68t12 39q0 8 -1.5 19.5t-10.5 11.5q-18 0 -37.5 -13.5t-37.5 -23.5q-50 -27 -126 -35q-34 -87 -66 -139t-66.5 -79t-73.5 -35.5t-85 -8.5
q-73 0 -102 21.5t-29 58.5q0 19 6.5 41t18.5 48l46 100q21 45 43.5 76t47 49.5t51 26.5t55.5 8q17 0 26 -0.5t15 -2.5q36 33 89 33q34 0 50 -14t16 -40q0 -28 -18 -67l17.5 -3.5t14.5 -1.5q22 0 40.5 7.5t35 18.5t32.5 24t35 24q39 22 87 22q37 0 54 -14t17 -46
q0 -17 -4 -36l120 96l41 -37l-196 -156l-27.5 -71.5t-12.5 -41.5q0 -16 15 -16q39 0 63.5 10t45.5 24q23 16 41.5 35t29.5 38zM414 299q-10 6 -14.5 17.5t-4.5 24.5q0 9 1 14q-11 -5 -18 -14.5t-16 -31.5l-92 -210q-5 -11 -5 -20q0 -19 17 -19q10 0 21.5 7.5t17.5 21.5z
M512 344q3 5 5.5 13t2.5 16q0 10 -3.5 16.5t-12.5 6.5q-24 0 -24 -23q0 -29 32 -29z" />
    <glyph glyph-name="p_z" unicode="pz" horiz-adv-x="902" 
d="M1105 172q-14 -32 -56 -70.5t-106 -68.5q-32 -15 -65 -25.5t-75 -10.5q-38 0 -72.5 1.5t-67.5 1.5q-30 0 -55 -0.5t-33 -2.5l-8 34q35 39 77.5 78t85 77t81.5 73t66 65q-12 1 -27 1.5t-30.5 1.5t-29.5 1.5t-24 0.5q-23 0 -36.5 -13.5t-33.5 -54.5q-15 -30 -35 -64
t-44.5 -63t-53 -48t-58.5 -19q-16 0 -29 7t-20 17q-41 -53 -80 -73.5t-79 -20.5q-20 0 -33 5t-17 10l-87 -196h-164l264 593h118l-15 -35q22 24 49 38t75 14q40 0 61 -19.5t21 -52.5q0 -31 -12.5 -71.5t-38.5 -97.5q-3 -9 -3 -18q0 -19 25 -19q12 0 26.5 12.5t29.5 33t30 45
t28 48.5t22 51t20 50.5t27.5 38.5t43.5 15q16 0 39 -3.5t49.5 -8t56 -8t59.5 -3.5q21 0 43 2.5t45 4.5l15 -17q-37 -40 -81.5 -82t-88.5 -81t-82 -72.5t-62 -57.5q9 2 21.5 4t33.5 2q22 0 52 -2.5t65 -2.5q19 0 37.5 5.5t43.5 23.5q22 16 37 31.5t24 33.5zM440 322q4 8 4 18
q0 16 -17 16q-23 0 -32 -21l-106 -233q-3 -6 -4 -11t-1 -8q0 -18 16 -18q24 0 45 47z" />
    <glyph glyph-name="r_z" unicode="rz" horiz-adv-x="873" 
d="M1076 172q-14 -32 -56 -70.5t-106 -68.5q-32 -15 -65 -25.5t-75 -10.5q-38 0 -72.5 1.5t-67.5 1.5q-30 0 -55 -0.5t-33 -2.5l-8 34q35 39 77.5 78t85 77t81.5 73t66 65q-12 1 -27 1.5t-30.5 1.5t-29.5 1.5t-24 0.5q-12 0 -20 -2t-15.5 -8t-15.5 -18t-19 -32
q-22 -38 -54.5 -85.5t-74.5 -89t-93.5 -69.5t-111.5 -28q-36 0 -54 18t-18 50q0 13 5.5 31.5t14 39t19 42t20.5 40.5q21 39 27 55.5t6 21.5q0 7 -19 15l-21 9q-13 -35 -32.5 -67.5t-45.5 -61.5q-29 -33 -51.5 -55t-40.5 -35t-32.5 -18.5t-26.5 -5.5l-14 35q11 9 21 25
q42 73 73.5 154t59.5 162l244 -138q15 -9 21.5 -19.5t6.5 -18.5q0 -12 -9 -31.5t-20.5 -42t-20.5 -45t-9 -38.5q0 -14 16 -14q20 0 42.5 17.5t45 44t43.5 58.5t39 61q12 19 21 46t20.5 51.5t28.5 41.5t45 17q16 0 39 -3.5t49.5 -8t56 -8t59.5 -3.5q21 0 43 2.5t45 4.5
l15 -17q-37 -40 -81.5 -82t-88.5 -81t-82 -72.5t-62 -57.5q9 2 21.5 4t33.5 2q22 0 52 -2.5t65 -2.5q19 0 37.5 5.5t43.5 23.5q22 16 37 31.5t24 33.5z" />
    <glyph glyph-name="s_z" unicode="sz" horiz-adv-x="884" 
d="M1087 172q-14 -32 -56 -70.5t-106 -68.5q-32 -15 -65 -25.5t-75 -10.5q-38 0 -72.5 1.5t-67.5 1.5q-30 0 -55 -0.5t-33 -2.5l-8 34q35 39 77.5 78t85 77t81.5 73t66 65q-12 1 -27 1.5t-30.5 1.5t-29.5 1.5t-24 0.5q-17 0 -30.5 -12.5t-35.5 -49.5q-26 -43 -61 -90.5
t-81 -87.5t-104 -66t-130 -26q-30 0 -55.5 9t-44 25t-29 36t-10.5 43v11q-7 -8 -21 -17t-23 -15q-5 17 -5 26q0 19 18.5 43t36.5 53q17 27 32 46.5t30.5 36.5t32.5 32.5t37 33.5q-1 7 -1.5 11.5t-0.5 13.5q0 31 9.5 59.5t26.5 49.5t40.5 33.5t51.5 12.5q26 0 42 -10.5
t16 -39.5q0 -9 -2 -20t-9.5 -24.5t-21.5 -30.5t-37 -38q81 -102 81 -158q0 -51 -24.5 -88t-77.5 -57q28 0 57.5 17t58 44t55.5 60.5t50 67.5q17 26 29 57t25 58t30.5 45.5t45.5 18.5q16 0 39 -3.5t49.5 -8t56 -8t59.5 -3.5q21 0 43 2.5t45 4.5l15 -17q-37 -40 -81.5 -82
t-88.5 -81t-82 -72.5t-62 -57.5q9 2 21.5 4t33.5 2q22 0 52 -2.5t65 -2.5q19 0 37.5 5.5t43.5 23.5q22 16 37 31.5t24 33.5zM329 289q-16 -11 -35.5 -28.5t-36.5 -44.5q-17 -26 -22.5 -46t-5.5 -38q0 -17 8.5 -24.5t29.5 -7.5q17 0 32 9t25.5 23t16.5 31.5t6 34.5
q0 29 -5 53t-13 38zM392 429q21 14 26 24t5 18q0 10 -9 10q-24 0 -24 -30q0 -3 0.5 -10.5t1.5 -11.5z" />
    <glyph glyph-name="t_r" unicode="tr" horiz-adv-x="780" 
d="M984 172q-13 -29 -46.5 -60t-77 -56.5t-91 -42t-87.5 -16.5q-36 0 -54 18t-18 50q0 13 5.5 31.5t14 39t19 42t20.5 40.5q21 39 27 55.5t6 21.5q0 7 -19 15l-21 9q-13 -35 -32.5 -67.5t-45.5 -61.5q-81 -94 -178 -143.5t-203 -49.5q-45 0 -64.5 22t-19.5 52q0 19 11 43
l108 243h-43l25 56h42l139 309l170 11l-142 -320h45l-25 -56h-45l-96 -213q-7 -17 -7 -27t6.5 -13t17.5 -3q43 0 74.5 21t55 53t39.5 70t30 72q13 34 25.5 67.5t23.5 67.5l244 -138q15 -9 21.5 -20t6.5 -18q0 -12 -9 -31.5t-20.5 -42t-20.5 -45t-9 -38.5q0 -14 16 -14
q17 0 39.5 10.5t45 26.5t40.5 34.5t26 34.5z" />
    <glyph glyph-name="w_r" unicode="wr" horiz-adv-x="1058" 
d="M1262 172q-13 -29 -46.5 -60t-77 -56.5t-91 -42t-87.5 -16.5q-36 0 -54 18t-18 50q0 13 5.5 31.5t14 39t19 42t20.5 40.5q21 39 27 55.5t6 21.5q0 4 -4.5 6.5t-14.5 8.5l-32 19q-19 -39 -47.5 -59t-73.5 -20q-12 0 -30.5 2.5t-41.5 7.5q-6 -36 -23 -82t-48.5 -86
t-78 -67.5t-111.5 -27.5q-53 0 -79 11t-33 28q-20 -16 -54.5 -27.5t-69.5 -11.5q-54 0 -80 23.5t-26 63.5q0 23 8 50.5t22 58.5l113 253l119 -69l-117 -259q-4 -9 -6.5 -18t-2.5 -16q0 -16 15 -16q23 0 43 44l109 242l116 -70l-74 -166q-8 -16 -8 -34q0 -16 14 -16
q17 0 39 25t42.5 61t35 75.5t16.5 69.5q-12 9 -15.5 20t-3.5 28q0 22 9 42t25 35t38 24t48 9q35 0 56.5 -16t21.5 -49q0 -19 -22 -57q4 -1 9 -1.5t13 -0.5q13 0 22.5 4.5t17.5 11.5q18 15 31 39.5t24 48.5l204 -123q15 -9 21.5 -19.5t6.5 -18.5q0 -12 -9 -31.5t-20.5 -42
t-20.5 -45t-9 -38.5q0 -14 16 -14q17 0 39.5 10.5t45 26.5t40.5 34.5t26 34.5zM717 346q6 15 6 28q0 22 -15 22q-24 0 -24 -23q0 -12 7 -19t26 -8z" />
    <glyph glyph-name="w_s" unicode="ws" horiz-adv-x="1050" 
d="M1253 172q-22 -39 -59 -71t-82.5 -55.5t-96.5 -36t-101 -12.5q-30 0 -55.5 9.5t-44 26t-29 39t-10.5 49.5l54 36q4 -20 15 -38.5t31 -18.5q17 0 32 9t25.5 23t16.5 31.5t6 34.5q0 29 -6 54t-20 47q-62 -40 -178 -40h-8t-7 1q-6 -36 -23 -82t-48.5 -86t-78 -67.5
t-111.5 -27.5q-53 0 -79 11t-33 28q-20 -16 -54.5 -27.5t-69.5 -11.5q-54 0 -80 23.5t-26 63.5q0 23 8 50.5t22 58.5l113 253l119 -69l-117 -259q-4 -9 -6.5 -18t-2.5 -16q0 -16 15 -16q23 0 43 44l109 242l116 -70l-74 -166q-8 -16 -8 -34q0 -16 14 -16q17 0 39 25t42.5 61
t35 75.5t16.5 69.5q-12 9 -15.5 20t-3.5 28q0 22 9 42t25 35t38 24t48 9q35 0 56.5 -16t21.5 -49q0 -19 -22 -57l1 -1v1l17.5 -3.5t14.5 -1.5q18 0 49 7.5t57 22.5q-3 15 -3 30q0 28 9.5 55t27 48t41 34t51.5 13q26 0 42 -10.5t16 -39.5q0 -9 -2 -20t-9.5 -24.5t-21.5 -30.5
t-37 -38q81 -102 81 -158q0 -51 -24.5 -88t-77.5 -57q26 4 56.5 15.5t60.5 29t56 41t43 51.5zM717 346q6 15 6 28q0 22 -15 22q-24 0 -24 -23q0 -12 7 -19t26 -8zM1000 429q21 14 26 24t5 18q0 10 -9 10q-24 0 -24 -30q0 -3 0.5 -10.5t1.5 -11.5z" />
    <glyph glyph-name="u_z" unicode="uz" horiz-adv-x="928" 
d="M1131 172q-14 -32 -56 -70.5t-106 -68.5q-32 -15 -65 -25.5t-75 -10.5q-38 0 -72.5 1.5t-67.5 1.5q-30 0 -55 -0.5t-33 -2.5l-8 34q35 39 77.5 78t85 77t81.5 73t66 65q-12 1 -27 1.5t-30.5 1.5t-29.5 1.5t-24 0.5t-18 -2t-15.5 -8.5t-16 -18.5t-18.5 -32
q-20 -39 -52.5 -86t-73.5 -88t-88.5 -69t-98.5 -28q-29 0 -44 12t-20 26q-17 -14 -50.5 -26t-79.5 -12t-67.5 20t-21.5 56q0 41 25 97l106 239h150l-130 -291q-8 -19 -8 -34q0 -16 14 -16q22 0 42 44l148 334l127 -69l-106 -239q-4 -8 -4 -18q0 -15 18 -15q16 0 36 16
t42 40.5t43.5 54.5t39.5 58q12 19 22 47.5t23 55.5t31 46t46 19q16 0 39 -3.5t49.5 -8t56 -8t59.5 -3.5q21 0 43 2.5t45 4.5l15 -17q-37 -40 -81.5 -82t-88.5 -81t-82 -72.5t-62 -57.5q9 2 21.5 4t33.5 2q22 0 52 -2.5t65 -2.5q19 0 37.5 5.5t43.5 23.5q22 16 37 31.5
t24 33.5z" />
    <glyph glyph-name="u_z_z" unicode="uzz" horiz-adv-x="1370" 
d="M1573 172q-9 -21 -37 -51t-68.5 -57.5t-91 -47t-105.5 -19.5q-38 0 -72.5 1.5t-67.5 1.5q-30 0 -55 -0.5t-33 -2.5l-8 34q35 39 77.5 78t85 77t81.5 73t66 65q-24 2 -44.5 4t-37.5 2q-29 0 -51.5 -10.5t-41.5 -45.5q-25 -45 -61.5 -94t-81 -89.5t-95 -67t-103.5 -26.5
q-38 0 -72.5 1.5t-67.5 1.5q-30 0 -55 -0.5t-33 -2.5l-8 34q35 38 77.5 77t85 77t81.5 73t66 66q-12 1 -27 1.5t-30.5 1.5t-29.5 1.5t-24 0.5t-18 -2t-15.5 -8.5t-16 -18.5t-18.5 -32q-20 -39 -52.5 -86t-73.5 -88t-88.5 -69t-98.5 -28q-29 0 -44 12t-20 26
q-17 -14 -50.5 -26t-79.5 -12t-67.5 20t-21.5 56q0 41 25 97l106 239h150l-130 -291q-8 -19 -8 -34q0 -16 14 -16q22 0 42 44l148 334l127 -69l-106 -239q-4 -8 -4 -18q0 -15 18 -15q16 0 36 16t42 40.5t43.5 54.5t39.5 58q12 19 22 47.5t23 55.5t31 46t46 19q16 0 39 -3.5
t49.5 -8t56 -8t59.5 -3.5q21 0 43 2.5t45 4.5l15 -17q-38 -41 -83 -83t-88.5 -81t-81 -72t-61.5 -57q9 2 21.5 4t33.5 2q56 0 90.5 4t60.5 19t50 43.5t60 77.5q19 27 32.5 57.5t26.5 57t30 44t44 17.5q16 0 39 -3.5t49.5 -8t56 -8t59.5 -3.5q21 0 43 2.5t45 4.5l15 -17
q-37 -40 -81.5 -82t-88.5 -81t-82 -72.5t-62 -57.5q9 2 21.5 4t33.5 2q22 0 52 -2.5t65 -2.5q19 0 37.5 5.5t43.5 23.5q22 16 37 31.5t24 33.5z" />
    <glyph glyph-name="y_z" unicode="yz" horiz-adv-x="928" 
d="M1131 172q-14 -32 -56 -70.5t-106 -68.5q-32 -15 -65 -25.5t-75 -10.5q-38 0 -72.5 1.5t-67.5 1.5q-30 0 -55 -0.5t-33 -2.5l-8 34q35 39 77.5 78t85 77t81.5 73t66 65q-12 1 -27 1.5t-30.5 1.5t-29.5 1.5t-24 0.5q-20 0 -33 -11t-29 -39q-20 -36 -47 -80t-59 -82.5
t-68.5 -64.5t-76.5 -26q-16 0 -30 8l-41 -95q-55 -126 -216 -126q-113 0 -113 73q0 27 12 51t32.5 43.5t47.5 34t57 21.5q-74 14 -74 92q0 20 6.5 46.5t18.5 53.5l97 218l118 -69l-95 -214q-8 -18 -8 -30q0 -14 12 -14q26 0 40 30l141 316l118 -88l-99 -221
q-5 -12 -8.5 -20.5t-2.5 -15.5q0 -15 17 -15q16 0 37 16.5t43 42.5t44 58t41 62q14 24 24.5 51.5t22.5 51t28.5 39.5t43.5 16q16 0 39 -3.5t49.5 -8t56 -8t59.5 -3.5q21 0 43 2.5t45 4.5l15 -17q-37 -40 -81.5 -82t-88.5 -81t-82 -72.5t-62 -57.5q9 2 21.5 4t33.5 2
q22 0 52 -2.5t65 -2.5q19 0 37.5 5.5t43.5 23.5q22 16 37 31.5t24 33.5zM282 28q-26 -17 -42 -30.5t-27 -33.5q-14 -25 -19 -37t-5 -19q0 -13 17 -13q16 0 25 17q11 19 23 47t28 69z" />
    <glyph glyph-name="z_z" unicode="zz" horiz-adv-x="884" 
d="M1087 172q-9 -21 -37 -51t-68.5 -57.5t-91 -47t-105.5 -19.5q-38 0 -72.5 1.5t-67.5 1.5q-30 0 -55 -0.5t-33 -2.5l-8 34q35 39 77.5 78t85 77t81.5 73t66 65q-24 2 -44.5 4t-37.5 2q-29 0 -51.5 -10.5t-41.5 -45.5q-25 -45 -61.5 -94t-81 -89.5t-95 -67t-103.5 -26.5
q-38 0 -72.5 1.5t-67.5 1.5q-30 0 -55 -0.5t-33 -2.5l-8 34q35 39 77.5 78t85 77t81.5 73t66 65q-12 1 -29 1.5t-34 1.5t-32.5 1.5t-25.5 0.5q-17 0 -34.5 -5.5t-34.5 -14.5l-8 17q8 53 30.5 84.5t57.5 31.5q16 0 39 -3.5t49.5 -8t56 -8t59.5 -3.5q21 0 43 2.5t45 4.5
l15 -17q-37 -40 -81.5 -82t-88.5 -81t-82 -72.5t-62 -57.5q9 2 21.5 4t33.5 2q56 0 90.5 4t60.5 19t50 43.5t60 77.5q19 27 32.5 57.5t26.5 57t30 44t44 17.5q16 0 39 -3.5t49.5 -8t56 -8t59.5 -3.5q21 0 43 2.5t45 4.5l15 -17q-37 -40 -81.5 -82t-88.5 -81t-82 -72.5
t-62 -57.5q9 2 21.5 4t33.5 2q22 0 52 -2.5t65 -2.5q19 0 37.5 5.5t43.5 23.5q22 16 37 31.5t24 33.5z" />
    <glyph glyph-name=".notdef" horiz-adv-x="777" 
d="M150 -187q-93 0 -93 80v843q0 82 93 82h473q94 0 94 -82v-843q0 -80 -94 -80h-473zM298 152q11 38 20.5 62.5t25 42t40.5 32t66 32.5q37 16 71 39.5t59.5 51.5t40.5 60t15 65q0 38 -26.5 56t-77.5 18q-42 0 -69.5 -3.5t-47.5 -7.5t-35.5 -7.5t-31.5 -3.5q-36 0 -54 14
q-11 8 -19 8q-11 0 -18 -8t-7 -18q0 -29 26.5 -41.5t62.5 -12.5q19 0 36 3t32 7t29.5 7t29.5 3q36 0 36 -29q0 -41 -33 -74.5t-96 -67.5q-51 -28 -80.5 -47.5t-46.5 -38.5t-26.5 -42t-20.5 -58zM273 84q0 16 -16.5 25t-37.5 9q-18 0 -35.5 -5.5t-31.5 -14.5t-23 -21t-9 -25
q0 -17 16.5 -26.5t37.5 -9.5q14 0 31.5 5t32.5 14t25 21.5t10 27.5z" />
    <glyph glyph-name=".null" horiz-adv-x="0" 
 />
    <glyph glyph-name="nonmarkingreturn" horiz-adv-x="235" 
 />
    <glyph glyph-name="uni0017" horiz-adv-x="230" 
 />
    <glyph glyph-name="space" unicode=" " horiz-adv-x="235" 
 />
    <glyph glyph-name="exclam" unicode="!" horiz-adv-x="331" 
d="M343 84q0 -19 -12.5 -34.5t-31.5 -26.5t-41 -17t-40 -6q-29 0 -48.5 12.5t-19.5 31.5q0 17 11 32t29 26.5t40.5 18.5t45.5 7q25 0 46 -12t21 -32zM242 232l219 512h174l-260 -581z" />
    <glyph glyph-name="quotedbl" unicode="&#x22;" horiz-adv-x="361" 
d="M277 522zM298 522q-21 0 -21 17q0 16 8 35t10 51q4 70 32 101.5t67 31.5q22 0 34.5 -11t12.5 -29q0 -13 -5 -25.5t-13 -24.5t-17.5 -23.5t-18.5 -22.5q-24 -31 -36 -50.5t-19.5 -30.5t-14 -15t-19.5 -4zM478 522q-21 0 -21 17q0 16 8 35t10 51q4 70 32 101.5t67 31.5
q22 0 34.5 -11t12.5 -29q0 -13 -5 -25.5t-13 -24.5t-17.5 -23.5t-18.5 -22.5q-24 -31 -36 -50.5t-19.5 -30.5t-14 -15t-19.5 -4z" />
    <glyph glyph-name="numbersign" unicode="#" horiz-adv-x="434" 
d="M492 531h-50l-36 -80h51zM495 372l-35 -78h-72l33 78h-50l-36 -78h-67l35 78h-69l36 79h67l35 80h-67l36 79h67l34 74h67l-33 -74h52l34 74h72l-33 -74h80l-35 -79h-81l-35 -80h81l-36 -79h-80z" />
    <glyph glyph-name="dollar" unicode="$" horiz-adv-x="458" 
d="M314 157l30 68q-33 1 -61.5 12.5t-48.5 30t-31.5 43t-11.5 50.5q0 6 2 16l68 42q-2 -7 -3 -13t-1 -11q0 -47 28.5 -74.5t86.5 -27.5q19 0 36.5 5t30.5 14.5t21 24t8 32.5t-11.5 33t-45.5 29q-37 15 -55 40t-18 54q0 20 8.5 39.5t25.5 37.5q29 29 72.5 37.5t87.5 8.5
l30 66h80l-28 -66q32 0 63 -3.5t57 -8.5l-74 -59q-23 5 -41.5 7.5t-46.5 2.5q-30 0 -54 -15.5t-24 -38.5q0 -9 1.5 -16.5t7.5 -14t18 -14.5t33 -18q13 -7 25.5 -13.5t22 -15.5t15 -20.5t5.5 -28.5q0 -21 -8 -44q-9 -28 -27.5 -49.5t-43.5 -36.5t-55 -23.5t-63 -11.5l-29 -70
h-82z" />
    <glyph glyph-name="percent" unicode="%" horiz-adv-x="678" 
d="M96 0zM462 599q2 6 2 8q0 6 -9 6q-24 0 -28 -14l-66 -147q-3 -8 -3 -11q0 -6 7 -6q12 0 19 5t12 14zM519 495q-15 -32 -29.5 -53.5t-33 -35t-43.5 -19t-60 -5.5q-49 0 -71.5 9t-22.5 43q0 14 6 30.5t14 34.5l37 83q12 27 26.5 44.5t32.5 27.5t41 13.5t52 3.5
q13 0 29.5 -1t30.5 -6.5t24 -16.5t10 -32t-14 -55zM96 -3l661 670h94l-665 -670h-90zM615 215q2 6 2 8q0 6 -9 6q-24 0 -28 -14l-66 -147q-3 -8 -3 -11q0 -6 7 -6q12 0 19 5t12 14zM672 111q-15 -32 -29.5 -53.5t-33 -35t-43.5 -19t-60 -5.5q-49 0 -71.5 9t-22.5 43
q0 14 6 30.5t14 34.5l37 83q12 27 26.5 44.5t32.5 27.5t41 13.5t52 3.5q13 0 29.5 -1t30.5 -6.5t24 -16.5t10 -32t-14 -55z" />
    <glyph glyph-name="ampersand" unicode="&#x26;" horiz-adv-x="529" 
d="M732 172q-13 -30 -46 -61t-75.5 -56.5t-89 -41.5t-85.5 -16q-23 0 -41 8t-23 15q-8 -5 -17.5 -9t-23 -7t-31.5 -5t-44 -2q-30 0 -56.5 3.5t-47 16.5t-32 38t-11.5 68q0 36 20 79.5t55 84.5t83.5 73t105.5 44q-45 15 -63 44t-18 64q0 57 24 100.5t65 73.5t95.5 45.5
t116.5 15.5q79 0 109 -14t30 -51q0 -7 -0.5 -15t-2.5 -16l-170 -62q5 7 10 16.5t9 19t6.5 18t2.5 13.5q0 15 -33 15q-15 0 -33.5 -14t-34.5 -37t-26.5 -51.5t-10.5 -57.5q0 -41 11 -62t41 -36l37 79h165l-35 -79h45l-25 -56h-45l-106 -238q-3 -6 -3 -10q0 -8 10 -8
q18 0 41.5 11t47 27.5t42.5 35.5t27 36zM477 357q-53 -18 -91.5 -48.5t-64 -65t-37.5 -69t-12 -62.5q0 -21 12.5 -33t39.5 -12q8 0 17 0.5t17 1.5q0 9 2.5 21t8.5 24z" />
    <glyph glyph-name="quotesingle" unicode="'" horiz-adv-x="180" 
d="M298 522q-21 0 -21 17q0 16 8 35t10 51q4 70 32 101.5t67 31.5q22 0 34.5 -11t12.5 -29q0 -13 -5 -25.5t-13 -24.5t-17.5 -23.5t-18.5 -22.5q-24 -31 -36 -50.5t-19.5 -30.5t-14 -15t-19.5 -4z" />
    <glyph glyph-name="parenleft" unicode="(" horiz-adv-x="338" 
d="M226 -173q0 -14 -16 -14q-7 0 -16 7q-40 36 -57.5 87t-17.5 109q0 77 19 158.5t53 161t82 156t106 144.5t124 125t137 99q13 8 18 8q2 0 4 -1.5t2 -5.5q0 -6 -2.5 -8.5t-5.5 -6.5q-58 -51 -114 -119.5t-106 -147t-92 -162.5t-73 -167t-48 -160t-17 -141q0 -32 4 -60
t14 -54q0 -1 1 -2.5t1 -5.5z" />
    <glyph glyph-name="parenright" unicode=")" horiz-adv-x="338" 
d="M-33 -180q-12 -7 -17 -7q-2 0 -4.5 1.5t-2.5 5.5q0 5 2.5 8t6.5 7q58 51 113.5 119t105.5 146.5t92 163t73 167t48 160t17 141.5t-17 114q0 1 -1 2.5t-1 4.5q0 7 4.5 11t10.5 4q9 0 17 -8q40 -35 57.5 -86t17.5 -110q0 -116 -41.5 -239t-112.5 -236.5t-166 -209.5
t-202 -159z" />
    <glyph glyph-name="asterisk" unicode="*" horiz-adv-x="597" 
d="M516 260q0 -36 -10 -64.5t-26 -48t-35.5 -29.5t-37.5 -10q-36 0 -36 36q0 23 16 51.5t37 55.5t40.5 50.5t27.5 36.5q-13 -8 -31.5 -24t-41.5 -39q-44 -43 -80.5 -63t-62.5 -20q-36 0 -36 35q0 43 71 82q21 12 48 20.5t53 15t48 12.5t33 12q-12 15 -62 27
q-44 11 -65.5 31.5t-21.5 43.5q0 15 8.5 29t21 25.5t28 18.5t29.5 7q28 0 41 -18.5t19.5 -43t11 -50.5t15.5 -41q5 14 8 30t3 36v16q0 37 10 66.5t26 49.5t35.5 30.5t39.5 10.5q37 0 37 -35q0 -22 -16.5 -50t-38 -56.5t-42 -53.5t-28.5 -41q12 9 31.5 25t44.5 41
q45 44 81 64t64 20q35 0 35 -35q0 -43 -72 -83q-19 -11 -46.5 -19.5t-56 -16t-52.5 -14.5t-35 -14q17 -14 62 -24q41 -11 62.5 -30t21.5 -44q0 -15 -8 -29t-20.5 -25t-27.5 -18t-29 -7q-28 0 -45.5 20t-22.5 61q-4 23 -7.5 39t-8.5 24q-7 -21 -7 -52v-24z" />
    <glyph glyph-name="plus" unicode="+" horiz-adv-x="478" 
d="M325 37l18 208h-170l7 72h169l20 215h61l-19 -215h169l-7 -72h-169l-17 -208h-62z" />
    <glyph glyph-name="comma" unicode="," horiz-adv-x="310" 
d="M184 -44q23 6 41.5 16.5t26.5 27.5q-5 -1 -10 -1.5t-10 -0.5q-26 0 -42 11t-16 33q0 18 11.5 33t30 26t41 17.5t43.5 6.5q26 0 46.5 -11t20.5 -37q0 -27 -14.5 -47t-39.5 -40q-49 -38 -122 -56z" />
    <glyph glyph-name="hyphen" unicode="-" horiz-adv-x="262" 
d="M185 357l25 56h215l-24 -56h-216z" />
    <glyph glyph-name="period" unicode="." horiz-adv-x="309" 
d="M366 82q0 -19 -12.5 -34.5t-31.5 -27t-41 -17.5t-40 -6q-26 0 -46.5 11.5t-20.5 32.5q0 18 11.5 33t30 26.5t40.5 18t43 6.5q26 0 46.5 -11.5t20.5 -31.5z" />
    <glyph glyph-name="slash" unicode="/" horiz-adv-x="419" 
d="M56 -132l579 945h97l-578 -945h-98z" />
    <glyph glyph-name="zero" unicode="0" horiz-adv-x="543" 
d="M513 394q2 4 2.5 7.5t0.5 6.5q0 11 -8.5 16t-20.5 5q-26 0 -41 -9t-23 -26l-123 -277q-5 -11 -5 -21q0 -22 25 -22t42 11.5t26 31.5zM596 201q-25 -58 -51 -97t-60 -63t-79.5 -34t-110.5 -10q-42 0 -73 3t-51 12t-29.5 26t-9.5 45q0 26 10 56t24 62l70 155
q22 49 48.5 80.5t59.5 48.5t74 23.5t94 6.5q23 0 51.5 -1.5t53.5 -10.5t42 -28t17 -53q0 -39 -27 -100z" />
    <glyph glyph-name="one" unicode="1" horiz-adv-x="376" 
d="M146 0l170 384q5 13 5 21q0 13 -9.5 21t-27.5 8h-20q-34 0 -34 38q0 15 5 23.5t18 13t34 5.5t53 1q45 0 75.5 -3.5t49.5 -11.5t27.5 -22.5t8.5 -35.5q0 -17 -5.5 -36.5t-16.5 -44.5l-160 -361h-173z" />
    <glyph glyph-name="two" unicode="2" horiz-adv-x="516" 
d="M71 0l53 119q34 76 63.5 116t69.5 55q57 22 100 35t72 24.5t43.5 24t14.5 33.5q0 18 -19 26t-68 8q-22 0 -36 -3t-36 -3q-21 0 -31.5 11t-10.5 25q0 16 8.5 25t26.5 13t46.5 5t67.5 1q116 0 164.5 -22.5t48.5 -72.5q0 -27 -7 -52t-27.5 -48t-57 -44t-95.5 -42
q-59 -20 -93 -33.5t-54 -26t-30.5 -27t-20.5 -38.5l-11 -26h260l-36 -83h-405z" />
    <glyph glyph-name="three" unicode="3" horiz-adv-x="522" 
d="M162 75q11 -2 22 -2h22q94 0 143.5 21.5t49.5 69.5q0 27 -16.5 39.5t-60.5 20.5q-17 3 -27 11.5t-10 28.5q0 28 18.5 37.5t45.5 12.5q63 8 97 25.5t34 52.5q0 26 -22.5 37.5t-72.5 11.5q-23 0 -36.5 -3t-35.5 -3q-21 0 -31.5 11t-10.5 25q0 16 8.5 25t26.5 13t46.5 5
t67.5 1q67 0 109.5 -7.5t66.5 -21t32.5 -32t8.5 -41.5q0 -45 -41.5 -82t-120.5 -53q40 -11 60 -36t20 -61q0 -56 -27 -92t-74 -56.5t-110 -28t-135 -7.5h-39.5t-42 0.5t-37 1t-23.5 1.5z" />
    <glyph glyph-name="four" unicode="4" horiz-adv-x="562" 
d="M310 0l87 201h-263l139 311q55 -6 87.5 -31.5t32.5 -60.5q0 -17 -8 -36l-52 -116h96l13 26q16 35 33 59.5t41 39.5t59 22t87 7h2l-67 -154h73l-30 -67h-74l-89 -201h-167z" />
    <glyph glyph-name="five" unicode="5" horiz-adv-x="551" 
d="M631 437h-158l-76 -120q21 2 44.5 3.5t39.5 1.5q21 0 42.5 -6t38.5 -19.5t27.5 -36t10.5 -56.5q0 -46 -17 -79t-46.5 -56t-69 -37.5t-83.5 -22t-90 -10t-90 -2.5q-60 0 -120 3l37 83q24 -1 48 -1.5t48 -0.5q48 0 85 3.5t62.5 14.5t38.5 32t13 57q0 55 -113 55
q-29 0 -58.5 -3.5t-58.5 -11.5l162 284h378z" />
    <glyph glyph-name="six" unicode="6" horiz-adv-x="540" 
d="M301 156q-11 -27 -11 -43q0 -30 35 -30q29 0 51.5 12t37.5 30t22.5 39t7.5 40q0 39 -59 39q-22 0 -46 -3zM588 437q-5 2 -21 3t-30 1q-108 0 -143 -80l-18 -39q24 9 47 13t46 4q60 0 95 -27.5t35 -77.5q0 -68 -26.5 -113.5t-69 -73t-96 -39t-108.5 -11.5q-88 0 -126 21
t-38 72q0 43 24 97l80 179q21 47 50 76t67 45.5t84 22t102 5.5q36 0 72 -2t70 -6z" />
    <glyph glyph-name="seven" unicode="7" horiz-adv-x="511" 
d="M77 0q97 101 194.5 196.5t199.5 187.5q15 14 15 29q0 21 -36 21h-143q-32 0 -32 38q0 40 36 40h312q40 0 57 -13.5t17 -39.5q0 -38 -40 -75q-100 -89 -193 -183t-188 -201h-199z" />
    <glyph glyph-name="eight" unicode="8" horiz-adv-x="551" 
d="M347 83q25 0 45 10.5t34 27t21.5 37.5t7.5 43q0 39 -50 39q-20 0 -38.5 -7.5t-33.5 -22.5t-24 -36t-9 -48q0 -23 10.5 -33t36.5 -10zM527 397q0 34 -37 34q-33 0 -56 -20t-23 -46q0 -30 36 -30q14 0 28.5 4t26 12t18.5 19.5t7 26.5zM559 300q30 -13 43 -39.5t13 -53.5
q0 -52 -23 -91t-62 -65.5t-91 -40t-110 -13.5q-90 0 -138 28.5t-48 100.5q0 54 44 103.5t137 75.5q-23 14 -29 31.5t-6 34.5q0 35 17 62t47 45t69.5 27.5t84.5 9.5q78 0 115.5 -27.5t37.5 -78.5q0 -16 -7 -32.5t-20.5 -31.5t-32 -27t-41.5 -18z" />
    <glyph glyph-name="nine" unicode="9" horiz-adv-x="524" 
d="M484 340q8 21 13 35.5t5 25.5q0 29 -34 29q-23 0 -44.5 -8.5t-38.5 -23.5t-27.5 -36t-10.5 -45q0 -14 14 -21t58 -7q9 0 20 1t25 3zM553 145q-23 -50 -55 -79.5t-72 -44.5t-87 -19.5t-99 -4.5q-60 0 -120 6l96 91q25 -3 48 -3q60 0 100 25.5t64 94.5q-22 -8 -47.5 -12.5
t-72.5 -4.5q-20 0 -40.5 3t-36.5 11.5t-26 24t-10 40.5q0 56 24.5 101t67 76.5t100 48t123.5 16.5q72 0 114.5 -19.5t42.5 -68.5q0 -28 -18 -70z" />
    <glyph glyph-name="colon" unicode=":" horiz-adv-x="309" 
d="M366 82q0 -19 -12.5 -34.5t-31.5 -27t-41 -17.5t-40 -6q-26 0 -46.5 11.5t-20.5 32.5q0 18 11.5 33t30 26.5t40.5 18t43 6.5q26 0 46.5 -11.5t20.5 -31.5zM506 383q0 -19 -12.5 -34.5t-31.5 -26.5t-41 -17t-40 -6q-26 0 -46.5 11.5t-20.5 32.5q0 18 11.5 33t30 26
t40.5 17.5t43 6.5q26 0 46.5 -11.5t20.5 -31.5z" />
    <glyph glyph-name="semicolon" unicode=";" horiz-adv-x="310" 
d="M184 -44q23 6 41.5 16.5t26.5 27.5q-5 -1 -10 -1.5t-10 -0.5q-26 0 -42 11t-16 33q0 18 11.5 33t30 26t41 17.5t43.5 6.5q26 0 46.5 -11t20.5 -37q0 -27 -14.5 -47t-39.5 -40q-49 -38 -122 -56zM506 383q0 -19 -12.5 -34.5t-31.5 -26.5t-41 -17t-40 -6q-26 0 -46.5 11.5
t-20.5 32.5q0 18 11.5 33t30 26t40.5 17.5t43 6.5q26 0 46.5 -11.5t20.5 -31.5z" />
    <glyph glyph-name="less" unicode="&#x3c;" horiz-adv-x="394" 
d="M173 259l2 38l320 178l-5 -76l-229 -121l206 -121l-6 -76z" />
    <glyph glyph-name="equal" unicode="=" horiz-adv-x="465" 
d="M189 333l8 68h369l-7 -68h-370zM173 164l9 69h370l-10 -69h-369z" />
    <glyph glyph-name="greater" unicode="&#x3e;" horiz-adv-x="394" 
d="M173 81l6 75l228 121l-205 121l5 77l288 -178l-2 -38z" />
    <glyph glyph-name="question" unicode="?" horiz-adv-x="553" 
d="M283 223q15 45 27 73.5t33.5 52.5t58 48.5t101.5 59.5q42 23 78 47.5t53 50.5q11 18 20.5 38.5t9.5 42.5q0 36 -45 36q-19 0 -37 -4t-37 -8.5t-40 -8.5t-45 -4q-46 0 -79 16t-33 51q0 14 8 23.5t22 9.5t25 -10q13 -8 28.5 -12t38.5 -4q21 0 40.5 4t45 9t60 9t86.5 4
q63 0 97.5 -22t34.5 -71q0 -23 -10 -46t-21 -43q-14 -24 -31.5 -49t-41.5 -48t-56.5 -45t-74.5 -40q-52 -22 -83 -40t-50.5 -40t-31.5 -53t-26 -80zM376 84q0 -19 -12.5 -34.5t-31.5 -26.5t-40.5 -17t-39.5 -6q-26 0 -47 11.5t-21 32.5q0 16 11 31.5t29 27t40.5 18.5t44.5 7
q26 0 46.5 -12t20.5 -32z" />
    <glyph glyph-name="at" unicode="@" horiz-adv-x="684" 
d="M575 297q1 2 1 4q0 12 -16 12q-10 0 -18.5 -8t-22.5 -37l-49 -110q-18 -40 -22.5 -56t-4.5 -21q0 -14 9 -14q17 0 37 36zM427 -175q-33 -11 -81 -17.5t-99 -6.5q-41 0 -76.5 4t-62 15t-42 30.5t-15.5 50.5q0 49 32 116l149 331q19 41 42.5 72t54.5 52t71 31.5t92 10.5
h236q60 0 89.5 -26.5t29.5 -71.5q0 -38 -22 -90l-77 -172q-32 -73 -79 -109.5t-97 -36.5q-33 0 -48 12t-16 27q-17 -15 -41.5 -27.5t-54.5 -12.5q-37 0 -59 16.5t-22 48.5q0 18 9.5 52.5t31.5 79.5q27 53 50 86t46 51t47 24.5t52 6.5q23 0 39 -8.5t28 -24.5l8 20h86
l-104 -233q-2 -5 -4 -9t-2 -7q0 -13 15 -13q20 0 37.5 22.5t38.5 70.5l63 137q16 38 16 65q0 29 -19 46t-61 17h-233q-21 0 -35 -4t-26.5 -17t-25.5 -37.5t-31 -65.5l-137 -302q-12 -26 -16.5 -46.5t-4.5 -34.5q0 -20 7.5 -33.5t21 -21.5t31.5 -11.5t38 -3.5q31 0 63 5.5
t57 11.5z" />
    <glyph glyph-name="A" unicode="A" horiz-adv-x="579" 
d="M617 552q8 17 12 34.5t4 33.5q0 26 -11.5 44t-34.5 18q-10 0 -18 -3t-15.5 -10.5t-15.5 -21t-18 -35.5l-172 -383q-24 -55 -34 -81.5t-10 -36.5q0 -24 20 -24q18 0 39.5 13t41.5 32t36 40.5t24 38.5zM784 170q-13 -29 -46.5 -59.5t-76.5 -56t-90 -41.5t-87 -16
q-66 0 -66 70q0 5 0.5 11t1.5 11q-45 -45 -101 -68.5t-123 -23.5q-77 0 -77 73q0 8 2 18t8 28t18.5 48t33.5 78l159 357q34 77 87.5 112.5t140.5 35.5q54 0 84 -21t39 -45l27 60h149l-280 -627q-1 -3 -1 -6q0 -7 11 -7q18 0 41.5 10.5t46.5 27t42 36t27 36.5z" />
    <glyph glyph-name="B" unicode="B" horiz-adv-x="558" 
d="M363 636q5 12 5 19q0 21 -41 21h-10q-31 0 -31 27q0 21 18 32.5t74 11.5q61 0 102 -8.5t56 -31.5q29 20 63 30t79 10q152 0 152 -100q0 -33 -20 -67.5t-54.5 -67t-80 -60.5t-96.5 -48q36 -11 59.5 -39t23.5 -66q0 -72 -34 -128.5t-92.5 -95t-137.5 -58.5t-168 -20h-50.5
t-45.5 0.5t-35.5 1t-19.5 1.5zM289 84q6 -4 18 -4q29 0 62 19.5t61.5 50t47.5 68t19 72.5q0 53 -77 88zM439 420q105 30 145 77q35 44 53.5 76t18.5 66q0 39 -46 39q-29 0 -48.5 -15t-33.5 -46z" />
    <glyph glyph-name="C" unicode="C" horiz-adv-x="512" 
d="M653 172q-13 -28 -40 -54t-62 -49q-53 -34 -111 -53t-123 -19q-24 0 -55 1.5t-59 10.5t-47.5 27.5t-19.5 53.5q0 10 2 23t7.5 31t15.5 44t27 64l143 319q22 48 49 81.5t61.5 54.5t77 30.5t95.5 9.5q76 0 111 -14t35 -51q0 -16 -4 -31l-169 -62q5 7 10 16.5t8.5 19t6 18
t2.5 13.5q0 15 -32 15q-19 0 -32 -8t-25 -35l-198 -444q-23 -51 -31 -72.5t-8 -26.5q0 -17 36 -17q45 0 92.5 11.5t88.5 31t72.5 45.5t44.5 55z" />
    <glyph glyph-name="D" unicode="D" horiz-adv-x="562" 
d="M651 246q-29 -65 -66 -112t-84.5 -77.5t-108 -45t-136.5 -14.5q-79 0 -122 0.5t-55 2.5l284 636q5 12 5 19q0 21 -41 21h-10q-31 0 -31 27q0 21 18 32.5t74 11.5q61 0 102 -8.5t56 -31.5q32 20 66 30t76 10q32 0 60 -6t48.5 -17.5t32 -27t11.5 -33.5q0 -11 -5 -28
t-22 -54zM630 566q10 22 15 35t7.5 21t3 11.5t0.5 5.5q0 39 -46 39q-31 0 -50 -15t-32 -46l-239 -535q2 -1 6 -1.5t12 -0.5q20 0 42.5 9.5t48 33.5t53 66t56.5 107z" />
    <glyph glyph-name="E" unicode="E" horiz-adv-x="533" 
d="M659 172q-11 -25 -33.5 -48t-51.5 -44q-55 -38 -117.5 -60.5t-132.5 -22.5q-23 0 -54.5 1.5t-59.5 10.5t-47.5 27.5t-19.5 53.5q0 48 19.5 98.5t55 94.5t84 76.5t105.5 44.5q-45 15 -63.5 44t-18.5 64q0 57 24 100.5t65.5 73.5t96 45.5t116.5 15.5q39 0 66 -3t43 -10.5
t23 -20t7 -31.5q0 -7 -1 -15t-3 -16l-170 -62q5 7 10 16.5t9 19t6.5 18t2.5 13.5q0 15 -32 15q-16 0 -34.5 -14t-34 -37t-26 -51.5t-10.5 -57.5q0 -12 3 -24.5t11.5 -24t24 -22.5t39.5 -20l-19 -42q-33 -11 -59.5 -24t-47.5 -28t-38.5 -32.5t-33.5 -36.5
q-15 -18 -26.5 -37.5t-20 -39t-13 -37t-4.5 -31.5q0 -21 14 -33t45 -12q35 0 76.5 11.5t80 31t69 45.5t44.5 56z" />
    <glyph glyph-name="F" unicode="F" horiz-adv-x="651" 
d="M371 325q-37 -13 -68.5 -54t-62.5 -110q-14 -32 -19 -47.5t-5 -21.5q0 -11 12 -11q19 0 32 19q20 29 49.5 88t61.5 137zM552 357l-87 -188q-23 -48 -46 -81t-49.5 -53.5t-57.5 -29t-69 -8.5q-65 0 -91 21t-26 50q0 19 6 42.5t24 66.5q18 42 41.5 79t53.5 67.5t68.5 53
t87.5 36.5l85 210q8 21 8 31q0 25 -37 25h-41q-26 0 -26 32q0 33 30 33h527q-28 -30 -44 -48.5t-25.5 -32t-15 -25t-11.5 -27.5h-72q8 20 17 38t22 30h-157q0 -2 0.5 -5t0.5 -7q0 -14 -6 -42t-26 -76l-58 -136h164l-25 -56h-165z" />
    <glyph glyph-name="G" unicode="G" horiz-adv-x="543" 
d="M747 172q-12 -26 -39 -53t-62.5 -49.5t-75 -39.5t-75.5 -24q-22 -55 -48.5 -92t-56 -59.5t-61.5 -32t-63 -9.5q-50 0 -81.5 22.5t-31.5 65.5q0 35 16.5 65t46.5 54t71 42t90 30q6 10 13.5 26t12.5 26q-17 -10 -45 -18t-61 -8q-61 0 -94 23.5t-33 68.5q0 41 27 103
l119 270q20 46 47 77.5t61.5 50.5t77 27.5t93.5 8.5q76 0 111 -14t35 -51q0 -16 -4 -31l-170 -62q5 7 10 16.5t9 19t6.5 18t2.5 13.5q0 15 -32 15q-19 0 -32 -8t-25 -35l-60 -133l214 -118q-28 -72 -61 -142.5t-65 -135.5q40 5 63 13.5t43 22.5q26 17 47 38t29 38zM423 444
l-99 -212q-3 -8 -5 -14.5t-2 -12.5q0 -21 27 -21q25 0 46.5 7.5t41.5 21.5q20 41 41 88t39 95zM339 8q-21 -6 -39.5 -16.5t-31.5 -23.5t-20.5 -27.5t-7.5 -29.5q0 -9 7 -12.5t15 -3.5q9 0 15.5 4t11.5 11q16 21 27.5 43t22.5 55z" />
    <glyph glyph-name="H" unicode="H" horiz-adv-x="586" 
d="M789 170q-13 -29 -46.5 -59.5t-76.5 -56t-90 -41.5t-87 -16q-32 0 -55 20.5t-23 49.5q0 14 8 30l116 260h-123l-159 -357h-173l282 636q5 12 5 19q0 21 -41 21h-10q-31 0 -31 27q0 21 18 32.5t74 11.5q77 0 121.5 -14.5t44.5 -55.5q0 -11 -2.5 -23.5t-9.5 -27.5l-95 -213
h124l148 331h166l-283 -630q-1 -3 -1 -6q0 -7 12 -7q18 0 41.5 10.5t46.5 27t41.5 36t26.5 36.5z" />
    <glyph glyph-name="I" unicode="I" horiz-adv-x="276" 
d="M80 0l282 636q5 12 5 19q0 21 -41 21h-10q-31 0 -31 27q0 21 18 32.5t74 11.5q77 0 121.5 -14.5t44.5 -55.5q0 -11 -2.5 -23.5t-9.5 -27.5l-278 -626h-173z" />
    <glyph glyph-name="J" unicode="J" horiz-adv-x="367" 
d="M452 636q5 12 5 19q0 21 -40 21h-84q-33 0 -33 29q0 11 5.5 19.5t20.5 13.5q8 2 18 4t25 3t36.5 1.5t52.5 0.5q84 0 130 -14.5t46 -55.5q0 -24 -13 -51l-273 -612q-27 -60 -53 -98.5t-54.5 -61.5t-60 -32t-69.5 -9q-64 0 -93 20.5t-29 50.5q0 19 10 52.5t29 74t46.5 83.5
t61.5 81t75 67t87 42zM261 197q-18 -6 -38.5 -28.5t-41 -53.5t-39.5 -67.5t-34 -70.5q-15 -32 -19.5 -47.5t-4.5 -21.5q0 -12 13 -12q19 0 32 20q10 15 26 46t34.5 70t37.5 82.5t34 82.5z" />
    <glyph glyph-name="K" unicode="K" horiz-adv-x="626" 
d="M768 170q-14 -31 -48 -62t-77.5 -55.5t-90 -40t-84.5 -15.5q-32 0 -52 21t-20 47q0 27 15.5 64t36.5 76q15 28 24.5 47t15 32t7 22t1.5 17q0 33 -46 33q-11 0 -25 -1t-16 -2l-157 -353h-173l282 636q5 12 5 19q0 21 -41 21h-10q-31 0 -31 27q0 21 18 32.5t74 11.5
q77 0 121.5 -14.5t44.5 -55.5q0 -11 -2.5 -23.5t-9.5 -27.5l-86 -193q3 -1 13.5 -2.5t25.5 -1.5q24 0 42.5 20.5t33.5 51.5t29 67t29 68q15 31 33 52t40 34t49.5 19t63.5 6q18 0 29 -3t16.5 -8.5t7 -12.5t1.5 -14q0 -19 -9 -26t-25 -7q-14 0 -25 -7.5t-25 -33.5
q-23 -43 -36.5 -83t-31 -72.5t-44 -54t-74.5 -28.5q32 -12 46 -32t14 -46q0 -20 -8 -44t-22 -50q-14 -27 -22.5 -45t-13 -29t-6 -18t-1.5 -11q0 -17 18 -17q17 0 39 11t43.5 27t39 34.5t24.5 33.5l31 -39z" />
    <glyph glyph-name="L" unicode="L" horiz-adv-x="765" 
d="M948 133q-44 -43 -75.5 -69.5t-60.5 -41.5t-59.5 -20t-71.5 -5q-74 0 -136.5 28.5t-131.5 72.5q-30 -32 -61 -51.5t-60 -30.5t-56 -15t-51 -4q-38 0 -66 19.5t-28 66.5q0 29 10 55.5t32 46.5t55.5 32t81.5 12h28.5t27.5 -1q31 53 56 108t57 112q18 34 34 59.5t31 47
t30 41t32 40.5q-28 30 -58.5 42.5t-75.5 12.5q-21 0 -36.5 -4.5t-27 -9.5t-20 -9.5t-14.5 -4.5q-9 0 -15.5 6.5t-6.5 14.5q0 16 13.5 28t33.5 20t44.5 11.5t47.5 3.5q65 0 104 -16t64 -38q31 29 68 45t84 16q51 0 76.5 -26.5t25.5 -66.5q0 -53 -31.5 -87t-85.5 -34
q-53 0 -91 16q-17 -34 -35 -73.5t-39.5 -85t-47.5 -96.5t-59 -107q33 -14 63 -36.5t61.5 -43.5t68.5 -36.5t85 -15.5q64 0 142 83zM282 157q-14 3 -28 3q-17 0 -33.5 -4.5t-29.5 -13.5t-20.5 -22t-7.5 -30q0 -18 24 -18q18 0 42.5 22t52.5 63zM702 616q18 -13 46 -13
q23 0 37 13t14 30q0 11 -6.5 18.5t-15.5 7.5q-23 0 -41 -14.5t-34 -41.5z" />
    <glyph glyph-name="M" unicode="M" horiz-adv-x="872" 
d="M1076 170q-13 -30 -46.5 -60.5t-77 -55.5t-90.5 -41t-86 -16q-37 0 -57 18t-20 46q0 19 10 45l236 530q5 13 5 24q0 12 -15 12q-16 0 -37 -11t-42 -27.5t-40 -37t-29 -38.5l-247 -558h-166l283 636q5 13 5 24q0 12 -15 12q-16 0 -37 -11t-42 -28t-40 -37.5t-29 -39.5
l-247 -556h-173l282 636q5 12 5 19q0 21 -41 21h-10q-31 0 -31 27q0 21 18 32.5t74 11.5q74 0 118 -13.5t47 -49.5q29 29 66 46t94 17q60 0 88.5 -19.5t31.5 -54.5q35 37 73.5 55.5t94.5 18.5q62 0 91 -21t29 -60q0 -34 -22 -83l-207 -465q-2 -3 -2 -8q0 -9 14 -9
q16 0 39.5 10.5t46 27t41 36t26.5 36.5z" />
    <glyph glyph-name="N" unicode="N" horiz-adv-x="584" 
d="M788 170q-13 -30 -46.5 -60.5t-77 -55.5t-90.5 -41t-86 -16q-37 0 -57 18t-20 46q0 19 10 45l236 530q5 13 5 24q0 12 -15 12q-16 0 -37 -11t-42 -28t-40 -37.5t-29 -39.5l-247 -556h-173l282 636q5 12 5 19q0 21 -41 21h-10q-31 0 -31 27q0 21 18 32.5t74 11.5
q74 0 118 -13.5t47 -49.5q29 29 66 46t94 17q62 0 91 -21t29 -60q0 -34 -22 -83l-207 -465q-2 -3 -2 -8q0 -9 14 -9q16 0 39.5 10.5t46 27t41 36t26.5 36.5z" />
    <glyph glyph-name="O" unicode="O" horiz-adv-x="589" 
d="M624 565q7 15 9.5 27t2.5 23q0 26 -17 40.5t-37 14.5q-15 0 -30 -11t-26 -35l-205 -462q-7 -14 -7 -27q0 -32 51 -32q53 0 79 59zM754 643q7 17 7 32q0 22 -14 22q-24 0 -24 -23q0 -11 7 -20t24 -11zM917 607q-8 -10 -21 -19t-29 -15.5t-33 -10.5t-33 -4q-5 0 -10 0.5
t-10 1.5q-1 -10 -4 -21.5t-14 -34.5l-161 -361q-32 -72 -107 -109t-184 -37q-94 0 -140 24t-46 69q0 12 3.5 25t9.5 28l203 456q37 83 102 115.5t148 32.5q27 0 53 -5.5t43 -16.5q14 17 34.5 24t43.5 7q30 0 49 -14t19 -43q0 -37 -21 -67q5 -1 9.5 -1.5t8.5 -0.5
q26 0 49.5 9t46.5 23q1 1 4 1q6 0 6 -5q0 -2 -1 -5t-2 -5z" />
    <glyph glyph-name="P" unicode="P" horiz-adv-x="544" 
d="M79 0l282 636q5 12 5 19q0 21 -41 21h-10q-31 0 -31 27q0 21 18 32.5t74 11.5q61 0 102 -9t56 -32q26 20 60.5 30.5t81.5 10.5q77 0 111 -22t34 -64q0 -33 -20 -76l-112 -248q-40 -88 -114.5 -136t-197.5 -48q-27 0 -55 3l-70 -156h-173zM629 570q14 33 18.5 48t4.5 24
q0 16 -10.5 26t-33.5 10q-55 0 -78 -52l-178 -401q8 -1 15 -1.5t13 -0.5q50 0 83 25t61 88z" />
    <glyph glyph-name="Q" unicode="Q" horiz-adv-x="647" 
d="M863 172q-30 -52 -64.5 -99.5t-75 -84t-89 -58.5t-107.5 -22q-23 0 -44.5 2t-47.5 6q-29 -36 -60 -56.5t-62 -31t-60 -13t-52 -2.5q-19 0 -37 3t-31.5 11.5t-21.5 23t-8 38.5q0 29 10 55.5t31.5 47t55.5 32.5t81 12q14 0 29.5 -1t27.5 -3q34 58 65.5 117.5t62.5 123
t62 133t65 149.5q12 26 17 47t5 36q0 46 -49 46q-11 0 -20 -2.5t-17 -10t-16 -21t-18 -35.5l-135 -304q-24 -54 -33 -91.5t-9 -62.5q0 -15 3 -25t6 -16.5t6 -11.5t3 -11q0 -13 -9 -24t-26 -11q-3 0 -11 2q-64 18 -91.5 56.5t-27.5 92.5q0 66 36 147l108 246q17 38 39 66
t52 46t69 27t91 9q45 0 83 -4.5t65.5 -17t42.5 -34.5t15 -56q0 -42 -23 -101q-38 -98 -70.5 -174t-63 -139t-60 -116.5t-60.5 -107.5q17 -4 39 -4q45 0 87 19t79.5 50t70.5 69t60 77zM294 -36q-8 1 -14 1.5t-14 0.5q-17 0 -33.5 -4.5t-29.5 -13.5t-20.5 -22t-7.5 -30
q0 -18 24 -18q18 0 42 22t53 64z" />
    <glyph glyph-name="R" unicode="R" horiz-adv-x="563" 
d="M786 172q-14 -32 -48.5 -63.5t-77 -56.5t-87 -40t-80.5 -15q-37 0 -58.5 18t-21.5 45q0 28 10.5 56t35.5 73q15 27 24 47t14.5 36.5t7.5 29.5t2 27q0 23 -21.5 34t-65.5 15l-168 -378h-173l282 636q5 12 5 19q0 21 -41 21h-10q-31 0 -31 27q0 21 18 32.5t74 11.5
q62 0 103 -9t56 -32q25 19 58.5 30t95.5 11t92 -21.5t30 -68.5q0 -39 -20.5 -80.5t-54 -77.5t-75 -62t-83.5 -33q42 -6 68.5 -21t26.5 -50q0 -21 -11 -50.5t-33 -71.5q-24 -44 -31 -62.5t-7 -29.5q0 -14 19 -14q17 0 39 11t43.5 27t38.5 34.5t25 33.5zM439 420
q43 10 80 29.5t64.5 46.5t43 61.5t15.5 75.5q0 23 -11.5 34t-29.5 11q-19 0 -39.5 -14t-34.5 -47z" />
    <glyph glyph-name="S" unicode="S" horiz-adv-x="577" 
d="M708 362q-5 -5 -14.5 -7.5t-33.5 -4.5q2 -13 4 -26.5t2 -27.5q0 -53 -25.5 -106.5t-70.5 -96t-106.5 -69.5t-134.5 -27q-39 0 -71.5 8t-56 23t-36.5 38t-13 53q0 52 24.5 99t65.5 85t93.5 65t108.5 40q-2 15 -3 32t-1 40q0 44 19 85t51 76q-34 31 -63.5 41t-47.5 10
q-14 0 -25.5 -2.5t-25.5 -9.5q-14 -8 -23 -12.5t-16 -4.5t-14 5.5t-7 16.5q0 15 10.5 27t28 19.5t40 11.5t46.5 4q45 0 80.5 -14t70.5 -43q41 29 87.5 43t94.5 14q46 0 74.5 -19t28.5 -56q0 -31 -12.5 -55.5t-33 -41.5t-46 -26t-50.5 -9q-49 0 -86 18q-5 -14 -7 -29.5
t-2 -31.5q0 -17 8 -37.5t19 -45.5q14 -1 29 -1h32q19 0 34 6zM466 327q-35 -12 -68 -30t-58.5 -42t-40.5 -54.5t-15 -67.5q0 -26 15 -45.5t41 -19.5q37 0 64.5 16.5t45.5 40.5t27 51t9 48q0 10 -0.5 20t-3 22t-6.5 26.5t-10 34.5zM654 620q14 -8 28.5 -12.5t30.5 -4.5
q10 0 20 4t18 10t13.5 13.5t5.5 14.5q0 11 -7.5 19t-21.5 8q-23 0 -46 -14t-41 -38z" />
    <glyph glyph-name="T" unicode="T" horiz-adv-x="586" 
d="M175 0l272 623q8 21 8 31q0 25 -37 25h-101q-27 0 -27 32q0 33 31 33h567q-28 -30 -44 -48.5t-25.5 -32t-15 -25t-11.5 -27.5h-72q8 20 17 38t21 30h-136q0 -2 0.5 -5t0.5 -7q-1 -14 -6.5 -42t-26.5 -76l-235 -549h-180z" />
    <glyph glyph-name="U" unicode="U" 
d="M789 170q-13 -29 -46 -59.5t-74.5 -56t-85.5 -41.5t-78 -16q-46 0 -65.5 21.5t-19.5 53.5v12q-45 -42 -99.5 -64.5t-119.5 -22.5q-77 0 -77 73q0 31 18 73l220 493q5 12 5 19q0 21 -41 21h-10q-31 0 -31 27q0 21 18 32.5t74 11.5q77 0 121.5 -14.5t44.5 -55.5
q0 -11 -2.5 -23.5t-9.5 -27.5l-232 -523q-4 -7 -4 -13q0 -10 12 -10q11 0 38 11q41 20 70 46t47 58l245 549h166l-281 -628q-2 -5 -2 -8q0 -7 12 -7q18 0 41.5 10.5t46.5 27t41.5 36t26.5 36.5z" />
    <glyph glyph-name="V" unicode="V" 
d="M362 636q5 12 5 19q0 21 -41 21h-10q-31 0 -31 27q0 21 18 32.5t74 11.5q77 0 121.5 -14.5t44.5 -55.5q0 -11 -2.5 -24t-9.5 -27l-227 -507q-6 -17 -6 -24q0 -14 14 -14t35 11q32 17 62 49.5t58 74.5q76 115 131.5 245t108.5 283h166q-31 -81 -63.5 -161t-73 -155
t-93 -145t-122.5 -131q-88 -77 -165.5 -116t-142.5 -39q-48 0 -70 21t-22 52q0 13 3.5 27.5t9.5 29.5z" />
    <glyph glyph-name="W" unicode="W" horiz-adv-x="883" 
d="M424 76q-116 -79 -210 -79q-48 0 -70 21t-22 52q0 13 3.5 27.5t9.5 29.5l228 509q5 12 5 19q0 21 -41 21h-10q-31 0 -31 27q0 21 18 32.5t74 11.5q77 0 121.5 -14.5t44.5 -55.5q0 -23 -12 -51l-227 -507q-4 -8 -5 -13.5t-1 -10.5q0 -14 14 -14t35 11q32 17 62 49.5
t58 74.5q76 115 131.5 245t108.5 283h165q-30 -80 -61 -157.5t-64 -154t-69 -154.5t-76 -159q-7 -15 -7 -24q0 -14 15 -14q6 0 14.5 2.5t19.5 8.5q32 17 62.5 49.5t57.5 74.5q39 58 71.5 119t61 126.5t55 135.5t52.5 147h166q-30 -81 -62.5 -161t-73 -155t-93 -145
t-122.5 -131q-88 -77 -166 -116t-142 -39q-49 0 -68.5 21t-19.5 52v6z" />
    <glyph glyph-name="X" unicode="X" horiz-adv-x="610" 
d="M813 170q-13 -29 -44.5 -59.5t-69.5 -56t-76 -41.5t-63 -16q-48 0 -72 18.5t-32 67.5q-3 19 -6.5 46.5t-7 60.5t-6.5 70t-6 75q-71 -66 -120 -152t-67 -182h-166q15 70 46 131t75.5 113t101.5 95t123 78q-4 52 -7 87.5t-5.5 60.5t-5 41t-5.5 28q-8 41 -70 41
q-30 0 -30 27q0 21 18 32.5t74 11.5q54 0 87.5 -9t53 -34.5t27.5 -71t11 -118.5q24 20 42 42.5t32.5 50t27.5 61.5t27 76h166q-20 -53 -50 -99t-67.5 -84.5t-80.5 -70.5t-89 -57q3 -51 7.5 -98.5t9 -88t8.5 -71t7 -47.5q2 -15 8 -19t15 -4q16 0 38.5 11t45 27t40.5 34.5
t25 33.5l31 -39z" />
    <glyph glyph-name="Y" unicode="Y" 
d="M784 172q-12 -26 -39 -53t-62 -49.5t-74.5 -39.5t-75.5 -24q-22 -55 -49 -92t-56.5 -59.5t-61 -32t-63.5 -9.5q-50 0 -81.5 22.5t-31.5 65.5q0 35 16.5 65t46.5 54t71 42t91 30l39 91q-87 -75 -209 -75q-77 0 -77 71q0 31 18 73l171 384q5 12 5 19q0 21 -40 21h-11
q-31 0 -31 27q0 10 4 18.5t14.5 14t28 8.5t45.5 3q77 0 122 -14.5t45 -55.5q0 -22 -13 -51l-183 -415q-4 -7 -4 -12q0 -11 12 -11t38 12q80 38 117 103l196 441h166l-297 -645q40 5 63.5 13.5t43.5 22.5q25 17 46.5 38t29.5 38zM376 8q-21 -6 -39 -16.5t-31.5 -23.5
t-21 -27.5t-7.5 -29.5q0 -9 7 -12.5t16 -3.5q16 0 26 15q17 21 28.5 43t21.5 55z" />
    <glyph glyph-name="Z" unicode="Z" horiz-adv-x="685" 
d="M875 133q-45 -44 -78 -70.5t-61.5 -41t-55 -19.5t-58.5 -5q-24 0 -45.5 7t-44 20t-49 31t-59.5 39q-21 -31 -46.5 -50t-52 -29.5t-52 -14t-45.5 -3.5q-19 0 -39.5 5t-37 17.5t-27.5 33t-11 51.5q0 23 7 45.5t24 40t44.5 28.5t69.5 11q28 0 49.5 -2.5t33.5 -5.5
q22 31 48 69t58 89t71 117.5t89 153.5q2 3 3.5 7.5t1.5 9.5t-3 8.5t-11 3.5h-235q-13 0 -20 10t-7 22q0 13 7.5 23t22.5 10h436q9 0 16.5 -7t7.5 -16q0 -3 -1.5 -8t-3.5 -7q-81 -133 -137 -222.5t-95 -149.5t-64 -95.5t-43 -60.5q30 -17 57 -37.5t52 -38t48.5 -29
t46.5 -11.5q36 0 71 22t73 61zM297 155q-23 5 -44 5q-38 0 -57 -14.5t-19 -37.5q0 -22 8.5 -29t22.5 -7q16 0 37 16.5t52 66.5z" />
    <glyph glyph-name="bracketleft" unicode="[" horiz-adv-x="245" 
d="M17 -82l403 948h122l-21 -50h-55l-361 -847h55l-22 -51h-121z" />
    <glyph glyph-name="backslash" unicode="\" horiz-adv-x="445" 
d="M436 -132l-290 945h98l290 -945h-98z" />
    <glyph glyph-name="bracketright" unicode="]" horiz-adv-x="245" 
d="M14 -82l22 50h57l361 847h-55l21 51h120l-403 -948h-123z" />
    <glyph glyph-name="asciicircum" unicode="^" horiz-adv-x="363" 
d="M413 355l24 241l-184 -241h-90l306 380h41l-20 -380h-77z" />
    <glyph glyph-name="underscore" unicode="_" horiz-adv-x="425" 
d="M-2 -185l38 84h426l-37 -84h-427z" />
    <glyph glyph-name="grave" unicode="`" horiz-adv-x="198" 
d="M334 440l-158 172l95 68l113 -208z" />
    <glyph glyph-name="a" unicode="a" horiz-adv-x="480" 
d="M418 329q2 3 2 6.5v6.5q0 5 -3.5 9.5t-13.5 4.5q-15 0 -23.5 -8t-15.5 -25l-91 -205q-9 -18 -9 -34t14 -16q23 0 44 44zM684 172q-15 -31 -49 -62.5t-77 -56.5t-90 -40.5t-86 -15.5q-18 0 -28.5 10.5t-13.5 27.5q-21 -18 -47.5 -28t-72.5 -10q-41 0 -67.5 20.5
t-26.5 62.5q0 26 12 65t35 83q30 60 57.5 98.5t54.5 60.5t54 30.5t56 8.5q41 0 58.5 -11.5t28.5 -28.5l10 23h119l-105 -235q-11 -25 -15.5 -35.5t-4.5 -18.5q0 -15 17 -15t40 11t45 27t40 34.5t25 33.5z" />
    <glyph glyph-name="b" unicode="b" horiz-adv-x="465" 
d="M440 336q1 3 1 7q0 13 -20 13q-13 0 -20 -5t-12 -16l-101 -223q-5 -9 -6 -17t-1 -14q0 -16 13 -16q22 0 45 47zM668 172q-17 -32 -38 -52.5t-42.5 -32t-42 -16t-36.5 -4.5q-23 0 -38 7t-21 17q-17 -20 -40.5 -37t-50.5 -30t-55.5 -20t-54.5 -7q-121 0 -121 94q0 35 19 76
l257 577h166l-151 -342q16 14 31.5 19t37.5 5q43 0 59.5 -24.5t16.5 -59.5q0 -22 -13 -61t-38 -96q-4 -8 -4 -18q0 -19 25 -19q30 0 56.5 15.5t46.5 47.5z" />
    <glyph glyph-name="c" unicode="c" horiz-adv-x="428" 
d="M632 172q-8 -19 -26 -39.5t-42 -38.5q-60 -46 -124 -71.5t-144 -25.5q-38 0 -68.5 3t-52 12t-33 25.5t-11.5 43.5q0 41 31 112l37 83q36 82 94 116t148 34q70 0 101.5 -12t31.5 -49q0 -11 -5 -28l-170 -61q11 14 19.5 33t8.5 34q0 13 -19 13q-23 0 -33 -21l-98 -217
q-7 -17 -7 -33q0 -14 12 -17t24 -3q46 0 98 14t100 42q28 16 54 38.5t43 51.5z" />
    <glyph glyph-name="d" unicode="d" horiz-adv-x="484" 
d="M428 350q-5 8 -17 8t-21.5 -6.5t-17.5 -24.5l-98 -223q-8 -16 -8 -25q0 -14 12 -14q22 0 36 31zM687 172q-12 -28 -45 -58.5t-76 -56.5t-90.5 -43t-87.5 -17q-25 0 -35.5 9.5t-17.5 23.5q-11 -9 -22.5 -15t-25 -10t-30.5 -6t-39 -2q-35 0 -60.5 19.5t-25.5 61.5
q0 20 7 48.5t23 63.5l17 37q49 107 106 153t114 46q22 0 35.5 -3.5t21.5 -8.5l148 330h166l-275 -604q-5 -11 -5 -21q0 -14 15 -14q14 0 35 8.5t43 23t42 34t32 40.5z" />
    <glyph glyph-name="e" unicode="e" horiz-adv-x="424" 
d="M323 223q22 2 41.5 12t33.5 26t22 37t8 45q0 13 -19 13q-12 0 -21.5 -7.5t-20.5 -31.5zM628 172q-11 -23 -33 -47t-53 -45q-57 -41 -114 -62t-131 -21q-40 0 -70.5 2.5t-51.5 11.5t-32 25.5t-11 44.5q0 41 31 112l37 83q18 41 39 69.5t49.5 46.5t66 26t88.5 8
q39 0 64.5 -4.5t39.5 -12.5t19.5 -20t5.5 -27q0 -25 -7.5 -57t-30.5 -62q-16 -21 -43.5 -34.5t-60.5 -21.5t-66.5 -12t-61.5 -5q-12 -26 -18.5 -44.5t-6.5 -30.5q0 -27 37 -27q41 0 84 11t81.5 30.5t69.5 45.5t48 56z" />
    <glyph glyph-name="f" unicode="f" horiz-adv-x="389" 
d="M292 13q17 41 17 70q0 24 -15 29l-83 -185q-5 -11 -6 -16t-1 -7q0 -9 11 -9q23 0 33 21zM574 644q2 4 2 10q0 12 -17 12q-16 0 -24 -16l-176 -394q19 7 42 31.5t43 66.5zM334 -92q-43 -95 -179 -95q-59 0 -85 20.5t-26 58.5q0 30 17 70l300 672q29 64 81 88.5t135 24.5
q46 0 70 -16.5t24 -46.5q0 -19 -11 -47l-127 -283q-12 -27 -30 -54t-38 -50.5t-40.5 -40.5t-39.5 -25q5 -25 20 -40t38 -15q10 0 25 4.5t31.5 14t32.5 25t30 38.5l30 -39q-26 -53 -74 -82t-99 -29q-17 0 -25 1t-14 3q3 -6 3 -16q0 -14 -4.5 -33.5t-15.5 -43.5z" />
    <glyph glyph-name="g" unicode="g" horiz-adv-x="485" 
d="M283 28q-25 -17 -41.5 -30.5t-27.5 -33.5q-14 -25 -19 -37t-5 -19q0 -13 17 -13q16 0 25 17q11 19 23 47t28 69zM424 328q3 7 3 14q0 14 -18 14q-15 0 -21.5 -5t-11.5 -16l-76 -172q-8 -18 -8 -30q0 -14 12 -14q26 0 40 30zM688 172q-11 -24 -36 -50t-55.5 -47t-61.5 -35
t-54 -14q-17 0 -31 8l-41 -95q-55 -126 -216 -126q-113 0 -113 73q0 27 12 51t32.5 43.5t47.5 34t56 21.5q-73 14 -73 92q0 21 5.5 46t19.5 54q28 64 56 103t56.5 60t59 28t65.5 7q28 0 47 -10.5t27 -29.5l9 23h117l-113 -253q-12 -24 -12 -36q0 -15 18 -15q16 0 38 11
t44 27t40 34.5t26 33.5z" />
    <glyph glyph-name="h" unicode="h" horiz-adv-x="498" 
d="M702 172q-12 -29 -45 -59.5t-76 -56.5t-89.5 -42.5t-86.5 -16.5q-41 0 -56.5 21t-15.5 47q0 11 2 22.5t8 24.5q23 54 46.5 100t43.5 99q5 13 6 17t1 7q0 13 -15 13q-26 0 -37 -25l-143 -323h-166l332 744h166l-154 -342q23 13 43 18.5t39 5.5q45 0 64.5 -17t19.5 -49
q0 -20 -4.5 -39t-13.5 -43.5t-22.5 -56t-32.5 -74.5q-3 -9 -5.5 -16t-2.5 -11q0 -15 18 -15q14 0 36 11t44 27t40 34.5t25 33.5z" />
    <glyph glyph-name="i" unicode="i" horiz-adv-x="287" 
d="M491 172q-13 -29 -46.5 -60t-77 -56.5t-91 -42t-87.5 -16.5q-32 0 -52.5 17.5t-20.5 47.5q0 24 13 50l149 334l126 -69l-106 -239q-5 -12 -5 -18q0 -15 17 -15t40 11t45 27t40 34.5t25 33.5zM507 588q0 -19 -12.5 -34.5t-31 -26t-40.5 -16.5t-41 -6q-26 0 -46.5 11.5
t-20.5 31.5q0 16 11 31.5t29 27.5t40 19t45 7q26 0 46.5 -12t20.5 -33z" />
    <glyph glyph-name="j" unicode="j" horiz-adv-x="278" 
d="M93 23q-20 -10 -39 -23.5t-34 -29.5t-24 -32t-9 -30q0 -13 17 -13q18 0 40 27.5t49 100.5zM481 172q-21 -53 -89 -99q-36 -24 -77.5 -42t-79.5 -25l-30 -67q-12 -28 -32.5 -51.5t-47 -40t-57 -25.5t-62.5 -9q-62 0 -86.5 20t-24.5 57q0 45 22 79.5t55.5 60.5t73.5 44
t76 30l153 342l126 -69l-122 -275q28 1 55.5 12.5t51 28t41 35t24.5 33.5zM504 588q0 -19 -12.5 -34.5t-31 -26t-40.5 -16.5t-41 -6q-29 0 -48.5 12.5t-19.5 30.5q0 16 11 31.5t29 27.5t40.5 19t45.5 7q25 0 46 -12t21 -33z" />
    <glyph glyph-name="k" unicode="k" horiz-adv-x="504" 
d="M708 172q-15 -31 -49.5 -62.5t-79.5 -56.5t-95.5 -40.5t-97.5 -15.5q-30 0 -42 17.5t-12 36.5q0 17 7 36.5t15 38.5t15 36.5t7 30.5q0 12 -15 12q-12 0 -22 -6t-15 -19l-78 -180h-167l332 744h165l-164 -369q24 26 57.5 38.5t86.5 12.5q32 0 52 -11.5t20 -34.5
q0 -34 -35.5 -69t-107.5 -59q25 -2 39 -13t14 -31q0 -8 -4 -20t-9.5 -24.5t-9.5 -24t-4 -17.5q0 -17 18 -17q17 0 39.5 11t44 27t39.5 34.5t25 33.5zM358 266q17 1 36 5.5t35.5 12t29 18t17.5 24.5l2 6q0 12 -15 12q-19 0 -47.5 -19.5t-57.5 -58.5z" />
    <glyph glyph-name="l" unicode="l" horiz-adv-x="360" 
d="M560 614q8 18 10.5 25.5t2.5 12.5q0 10 -15 10q-19 0 -27 -18l-125 -276q23 8 48.5 40t45.5 77zM564 172q-15 -32 -47 -63t-75 -56t-94 -40.5t-105 -15.5q-51 0 -81.5 27.5t-30.5 69.5q0 12 2.5 24.5t8.5 25.5l212 476q31 68 83 97.5t134 29.5q47 0 72.5 -16t25.5 -48
q0 -11 -4 -25.5t-16 -42.5l-59 -130q-66 -149 -223 -209l-60 -134q-6 -12 -6 -21q0 -12 18.5 -18.5t36.5 -6.5q24 0 50 10.5t50.5 27t45 37t31.5 40.5z" />
    <glyph glyph-name="m" unicode="m" horiz-adv-x="717" 
d="M921 172q-13 -30 -47 -61t-77.5 -56.5t-91 -41.5t-86.5 -16q-35 0 -54 17.5t-19 46.5q0 18 12.5 50t30 70t36.5 76t31 68q3 9 4 14t1 9q0 12 -14 12q-29 0 -38 -25l-148 -335h-166l147 330q2 5 3 10t1 8q0 12 -15 12q-12 0 -21.5 -6.5t-14.5 -18.5l-149 -335h-167
l198 446l106 -55q21 17 50 26t80 9q29 0 47.5 -12.5t24.5 -28.5q28 26 64.5 33.5t78.5 7.5q38 0 58.5 -20t20.5 -55q0 -19 -8 -44.5t-20 -53.5t-25.5 -56.5t-23.5 -53.5q-7 -14 -7 -23q0 -15 18 -15q16 0 39 11t45 27t40 34.5t25 33.5z" />
    <glyph glyph-name="n" unicode="n" horiz-adv-x="502" 
d="M706 172q-13 -30 -47 -61t-77.5 -56.5t-91 -41.5t-86.5 -16q-35 0 -54 17.5t-19 46.5q0 18 12.5 50t30 70t36.5 76t31 68q3 9 4 14t1 9q0 12 -14 12q-13 0 -23 -6.5t-15 -18.5l-148 -335h-167l198 446l105 -55q25 24 61 29.5t70 5.5q38 0 58.5 -20t20.5 -55
q0 -19 -8 -44.5t-20 -53.5t-25.5 -56.5t-23.5 -53.5q-7 -14 -7 -23q0 -15 18 -15q16 0 39 11t45 27t40 34.5t25 33.5z" />
    <glyph glyph-name="o" unicode="o" horiz-adv-x="428" 
d="M414 299q-10 6 -14.5 17.5t-4.5 24.5q0 9 1 14q-10 -5 -17.5 -14.5t-16.5 -31.5l-92 -210q-5 -11 -5 -20q0 -19 17 -19q11 0 21.5 7.5t17.5 21.5zM512 344q3 5 5.5 13t2.5 16q0 10 -3.5 16.5t-12.5 6.5q-24 0 -24 -23q0 -29 32 -29zM718 329q-55 -58 -172 -70
q-34 -87 -66 -139t-66.5 -79t-73.5 -35.5t-85 -8.5q-73 0 -102 21.5t-29 58.5q0 36 25 89l46 100q21 45 43.5 76t47 49.5t51 26.5t55.5 8q17 0 26 -0.5t15 -2.5q36 33 89 33q34 0 50 -14t16 -40q0 -28 -18 -67l17.5 -3.5t14.5 -1.5q20 0 42.5 7.5t47.5 26.5z" />
    <glyph glyph-name="p" unicode="p" horiz-adv-x="460" 
d="M440 322q4 8 4 18q0 16 -17 16q-23 0 -32 -21l-106 -233q-3 -6 -4 -11t-1 -8q0 -18 16 -18q22 0 45 47zM663 172q-5 -12 -18 -30t-33.5 -34.5t-47 -28.5t-59.5 -12q-16 0 -29 7t-20 17q-41 -53 -80 -73.5t-79 -20.5q-20 0 -33 5t-17 10l-87 -196h-164l264 593h118
l-15 -35q22 24 49 38t75 14q40 0 61 -19.5t21 -52.5q0 -31 -12.5 -71.5t-38.5 -97.5q-3 -9 -3 -18q0 -19 25 -19t50.5 16t42.5 47z" />
    <glyph glyph-name="q" unicode="q" horiz-adv-x="486" 
d="M422 324q4 8 4 17q0 6 -4.5 10.5t-12.5 4.5q-23 0 -33 -21l-99 -217q-6 -14 -8 -21.5t-2 -12.5q0 -16 17 -16q22 0 42 44zM198 -180l80 181q-4 -2 -14 -3t-31 -1q-46 0 -73.5 20.5t-27.5 62.5q0 11 2 24t7.5 30.5t15 40.5t23.5 53q26 57 53 95t54 61t54 32.5t54 9.5
q41 0 60 -11.5t27 -28.5l10 23h125l-120 -271q-5 -9 -5 -18q0 -15 18 -15q16 0 38.5 11t44.5 27t40 34.5t26 33.5l30 -39q-11 -24 -36 -49.5t-56 -47.5t-62.5 -36t-54.5 -14q-18 0 -30 9l-96 -214h-156z" />
    <glyph glyph-name="r" unicode="r" horiz-adv-x="431" 
d="M635 172q-13 -29 -46.5 -60t-77 -56.5t-91 -42t-87.5 -16.5q-36 0 -54 18t-18 50q0 13 5.5 31.5t14 39t19 42t20.5 40.5q21 39 27 55.5t6 21.5q0 7 -19 15l-21 9q-13 -35 -32.5 -67.5t-45.5 -61.5q-29 -33 -51.5 -55t-40.5 -35t-32.5 -18.5t-26.5 -5.5l-14 35q11 9 21 25
q42 73 73.5 154t59.5 162l244 -138q15 -9 21.5 -19t6.5 -19q0 -12 -9 -31.5t-20.5 -42t-20.5 -45t-9 -38.5q0 -14 16 -14q17 0 39.5 10.5t45 26.5t40.5 34.5t26 34.5z" />
    <glyph glyph-name="s" unicode="s" horiz-adv-x="442" 
d="M645 172q-22 -39 -59 -71t-82.5 -55.5t-96.5 -36t-101 -12.5q-30 0 -55.5 9t-44 25t-29 36t-10.5 43v11q-7 -8 -21 -17t-23 -15q-5 17 -5 26q0 19 18.5 43t36.5 53q17 27 32 46.5t30.5 36.5t32.5 32.5t37 33.5q-1 7 -1.5 11.5t-0.5 13.5q0 31 9.5 59.5t26.5 49.5
t40.5 33.5t51.5 12.5q26 0 42 -10.5t16 -39.5q0 -9 -2 -20t-9.5 -24.5t-21.5 -30.5t-37 -38q81 -102 81 -158q0 -51 -24.5 -88t-77.5 -57q26 4 56.5 15.5t60.5 29t56 41t43 51.5zM329 289q-16 -11 -35.5 -28.5t-36.5 -44.5q-17 -26 -22.5 -46t-5.5 -38q0 -17 8.5 -24.5
t29.5 -7.5q17 0 32 9t25.5 23t16.5 31.5t6 34.5q0 29 -5 53t-13 38zM392 429q21 14 26 24t5 18q0 10 -9 10q-24 0 -24 -30q0 -3 0.5 -10.5t1.5 -11.5z" />
    <glyph glyph-name="t" unicode="t" horiz-adv-x="289" 
d="M492 172q-13 -30 -46.5 -61t-76.5 -56.5t-90 -41.5t-87 -16q-34 0 -53.5 21t-19.5 50q0 9 2.5 21.5t8.5 24.5l108 243h-43l25 56h42l139 309l170 11l-142 -320h45l-25 -56h-45l-104 -232q-5 -10 -5 -16q0 -8 10 -8q18 0 41.5 11t46.5 27.5t42 36t27 35.5z" />
    <glyph glyph-name="u" unicode="u" horiz-adv-x="486" 
d="M689 172q-12 -27 -44.5 -58t-73.5 -57t-84 -43t-76 -17q-29 0 -44 12t-20 26q-17 -14 -50.5 -26t-79.5 -12t-67.5 20t-21.5 56q0 41 25 97l106 239h150l-130 -291q-8 -19 -8 -34q0 -16 14 -16q22 0 42 44l148 334l127 -69l-106 -239q-4 -8 -4 -18q0 -15 18 -15
q16 0 38.5 11t44.5 27t40 34.5t26 33.5z" />
    <glyph glyph-name="v" unicode="v" horiz-adv-x="411" 
d="M604 377q-29 -72 -53 -122t-43.5 -83.5t-35.5 -53.5t-29 -33q-47 -43 -103 -65.5t-117 -22.5q-38 0 -64.5 20.5t-26.5 62.5q0 41 32 113l96 216h150l-131 -291q-10 -23 -10 -34q0 -16 16 -16q6 0 12 3.5t15 14.5t21 33t30 59q20 42 48.5 106.5t65.5 161.5z" />
    <glyph glyph-name="w" unicode="w" horiz-adv-x="629" 
d="M717 346q6 15 6 28q0 22 -15 22q-24 0 -24 -23q0 -12 7 -19t26 -8zM922 329q-32 -31 -78.5 -46.5t-107.5 -22.5q-6 -36 -23 -82t-48.5 -86t-78 -67.5t-111.5 -27.5q-53 0 -79 11t-33 28q-20 -16 -54.5 -27.5t-69.5 -11.5q-54 0 -80 23.5t-26 63.5q0 23 8 50.5t22 58.5
l113 253l119 -69l-117 -259q-4 -9 -6.5 -18t-2.5 -16q0 -16 15 -16q23 0 43 44l109 242l116 -70l-74 -166q-8 -16 -8 -34q0 -16 14 -16q17 0 39 25t42.5 61t35 75.5t16.5 69.5q-12 9 -15.5 20t-3.5 28q0 22 9 42t25 35t38 24t48 9q35 0 56.5 -16t21.5 -49q0 -19 -22 -57
q6 -1 13 -1.5t14 -0.5q23 0 42.5 7t43.5 22z" />
    <glyph glyph-name="x" unicode="x" horiz-adv-x="431" 
d="M635 172q-13 -29 -46.5 -60t-76 -56.5t-90 -42t-87.5 -16.5q-36 0 -54 16t-18 38q0 17 9 44l-131 -101l-39 42l204 157q14 38 26 68t12 39q0 8 -3 12t-12 4q-10 0 -24 -18.5t-33 -46.5t-43 -60t-55 -60l-41 26q27 35 54 73.5t51 77.5q20 33 39.5 56t40.5 36.5t45 19.5
t54 6q37 0 54 -14t17 -46q0 -17 -4 -36l120 96l41 -37l-196 -156l-27.5 -71.5t-12.5 -41.5q0 -16 15 -16q39 0 63.5 10t45.5 24q23 17 41.5 35.5t29.5 37.5z" />
    <glyph glyph-name="y" unicode="y" horiz-adv-x="486" 
d="M689 172q-11 -24 -36 -50t-56 -47t-63 -35t-55 -14q-16 0 -30 8l-41 -95q-53 -126 -216 -126q-113 0 -113 73q0 27 12 51t32.5 43.5t47.5 34t57 21.5q-74 14 -74 92q0 20 6.5 47t18.5 53l97 218l118 -69l-95 -214q-8 -18 -8 -30q0 -14 12 -14q26 0 40 30l141 316l118 -88
l-99 -221q-11 -22 -11 -36q0 -15 17 -15q16 0 38.5 11t45 27t40.5 34.5t26 33.5zM282 28q-25 -17 -41.5 -30.5t-27.5 -33.5q-14 -25 -19 -37t-5 -19q0 -13 17 -13q16 0 25 17q11 19 23 47t28 69z" />
    <glyph glyph-name="z" unicode="z" horiz-adv-x="442" 
d="M645 172q-14 -32 -56 -71t-106 -68q-31 -15 -64.5 -25.5t-75.5 -10.5q-38 0 -72.5 1.5t-67.5 1.5q-30 0 -55 -0.5t-33 -2.5l-8 34q35 39 77.5 78t85 77t81.5 73t66 65q-12 1 -29 1.5t-34 1.5t-32.5 1.5t-25.5 0.5q-17 0 -34.5 -5.5t-34.5 -14.5l-8 17q8 53 30.5 84.5
t57.5 31.5q16 0 39 -3.5t49.5 -8t56 -8t59.5 -3.5q21 0 43 2.5t45 4.5l15 -17q-37 -40 -81.5 -82t-88.5 -81t-82 -72.5t-62 -57.5q9 2 21.5 4t33.5 2q22 0 52 -2.5t65 -2.5q19 0 37.5 5.5t43.5 23.5q22 16 37 31.5t24 33.5z" />
    <glyph glyph-name="braceleft" unicode="{" horiz-adv-x="309" 
d="M221 296q7 12 8 28q0 8 -1.5 19.5t-6.5 25.5q-3 4 -3 10q1 8 3 14.5t9 13.5q32 29 49 46.5t24 33.5l95 223q22 53 49 84t54.5 47t53.5 20.5t47 4.5q8 0 8 -5q-2 -10 -15 -14.5t-31.5 -16t-40.5 -34t-41 -68.5l-112 -262q-7 -16 -22 -33.5t-44 -40.5q5 -16 7 -25t2 -16
q0 -5 -1.5 -14t-6.5 -20l-111 -261q-9 -20 -12 -34t-3 -26q0 -19 5 -30t11 -18t11 -11.5t5 -8.5q0 -5 -4 -8t-9 -3q-16 0 -32 4.5t-29 14t-21 25.5t-8 39q0 16 3.5 32.5t13.5 39.5z" />
    <glyph glyph-name="bar" unicode="|" horiz-adv-x="419" 
d="M156 -132l398 945h98l-398 -945h-98z" />
    <glyph glyph-name="braceright" unicode="}" horiz-adv-x="309" 
d="M254 317q7 15 23 33.5t45 41.5q-8 20 -9.5 28t-1.5 18q2 6 4 13t5 15l112 262q9 21 12 35t3 28q0 17 -5 27.5t-11.5 17.5t-11.5 10.5t-5 7.5q0 5 3.5 8.5t8.5 3.5q16 0 32 -4.5t29 -14t21 -25.5t8 -39q0 -18 -2.5 -34t-13.5 -39l-95 -223q-5 -9 -7 -26q0 -11 1 -21t6 -26
q2 -4 2.5 -8.5t0.5 -8.5q0 -7 -4 -11.5t-9 -9.5q-37 -26 -51.5 -45t-19.5 -35l-96 -224q-23 -53 -50.5 -83.5t-55 -46.5t-54 -20.5t-46.5 -4.5q-7 0 -7 4q0 9 13 14t32.5 16.5t42 35t42.5 69.5z" />
    <glyph glyph-name="asciitilde" unicode="~" horiz-adv-x="489" 
d="M590 355q-1 -20 -14.5 -42.5t-35 -41.5t-48.5 -31.5t-55 -12.5q-29 0 -45.5 11.5t-30.5 25.5t-30 25.5t-44 11.5q-18 0 -41 -16t-49 -42q-8 -8 -16 -8t-8 13t13 33t34.5 39.5t48 33.5t53.5 14q33 0 52 -11.5t33 -25t27.5 -25t36.5 -11.5q20 0 45 15t52 48q6 9 16 9
q6 0 6 -12z" />
    <glyph glyph-name="nonbreakingspace" unicode="&#xa0;" horiz-adv-x="230" 
 />
    <glyph glyph-name="exclamdown" unicode="&#xa1;" horiz-adv-x="331" 
d="M88 0zM380.021 476.005q0 18.999 12.5 34.498q12.499 15.499 31.498 26.498q18.999 11 40.9971 16.999q21.999 6 39.998 6q28.998 0 48.4971 -12.499q19.498 -12.499 19.498 -31.498q0 -16.999 -10.999 -31.998t-28.998 -26.499q-17.999 -11.499 -40.498 -18.498
q-22.498 -7 -45.4971 -7q-24.998 0 -45.9971 11.999t-20.999 31.998zM481.015 328.014l-218.986 -511.969h-173.989l259.983 580.965z" />
    <glyph glyph-name="cent" unicode="&#xa2;" horiz-adv-x="458" 
d="M590 261q-76 -37 -168 -38l-26 -66h-82l30 69q-45 5 -69 22t-24 58q0 42 31 113l37 82q33 76 84.5 110.5t129.5 39.5l29 63h80l-28 -65q42 -4 61 -17t19 -42q0 -12 -5 -27l-170 -62q11 14 19.5 33t8.5 34q0 14 -19 14q-23 0 -33 -21l-98 -217q-7 -18 -7 -33q0 -14 12 -17
t24 -3q35 0 74.5 8t77.5 25z" />
    <glyph glyph-name="sterling" unicode="&#xa3;" horiz-adv-x="438" 
d="M548 232q-22 -11 -49 -15t-57 -4q-43 0 -89.5 5.5t-85.5 13.5q-21 -11 -40.5 -16t-36.5 -5q-32 0 -45 12t-13 32q0 23 13 42t40 19q14 0 29.5 -3.5t26.5 -7.5q5 7 10 14.5t11 20t13.5 32t17.5 50.5h-60l37 55h46q18 48 43.5 79t58 49t72.5 25t89 7q54 0 83.5 -1.5
t51.5 -4.5l-78 -80q-12 5 -36.5 8.5t-50.5 3.5q-27 0 -53 -23t-42 -63h122l-54 -55h-95q-7 -32 -16.5 -53.5t-20.5 -36.5t-25 -25.5t-30 -19.5q8 -4 21 -5.5t30 -1.5q24 0 53 3.5t58 9t54 13.5t42 17z" />
    <glyph glyph-name="yen" unicode="&#xa5;" horiz-adv-x="409" 
d="M463 444q-23 -17 -48.5 -28t-66.5 -11q-18 -40 -36.5 -61.5t-38.5 -31.5t-42.5 -11.5t-47.5 -1.5q1 2 3 6.5t7 15t14.5 30.5t24.5 54h-100q17 18 42.5 27.5t76.5 11.5l27 53h-106q20 21 50 29t60 12q-19 42 -25.5 73t-6.5 53t6.5 35.5t18 21t27 10t33.5 2.5
q-2 -11 -5 -24t-3 -29q0 -25 7 -55.5t27 -74.5q54 63 95 99.5t73 55t59 23.5t54 5q-26 -15 -55.5 -43.5t-59.5 -58.5t-58.5 -56.5t-50.5 -36.5h85q-12 -10 -23 -17t-24 -11.5t-29.5 -7t-38.5 -5.5l-21 -53h96z" />
    <glyph glyph-name="brokenbar" unicode="&#xa6;" horiz-adv-x="419" 
d="M156 -132l153 364h98l-153 -364h-98zM414 480l140 333h98l-140 -333h-98z" />
    <glyph glyph-name="dieresis" unicode="&#xa8;" horiz-adv-x="402" 
d="M588 588q0 -19 -12 -34.5t-30.5 -26t-40.5 -16.5t-41 -6q-26 0 -47 11.5t-21 31.5q0 16 11 31.5t29 27.5t40.5 19t44.5 7q26 0 46.5 -12t20.5 -33zM368 588q0 -19 -12.5 -34.5t-31 -26t-40.5 -16.5t-41 -6q-26 0 -46.5 11.5t-20.5 31.5q0 16 11 31.5t29 27.5t40 19t44 7
q26 0 47 -12t21 -33z" />
    <glyph glyph-name="copyright" unicode="&#xa9;" horiz-adv-x="643" 
d="M601 169q-2 -6 -12 -10.5t-24 -7.5t-30.5 -4.5t-32.5 -1.5q-31 0 -55.5 12t-41 33t-25 49t-8.5 60q0 84 42.5 133t123.5 49q10 0 22.5 -1.5t24 -4.5t19.5 -7.5t8 -10.5l5 -51q-1 -8 -2 -13.5t-6 -5.5q-6 0 -10 10.5t-11.5 23t-21 23t-38.5 10.5q-29 0 -48.5 -12.5
t-32 -34.5t-18 -50.5t-5.5 -61.5q0 -54 21 -87.5t64 -33.5q31 0 48.5 14t37.5 47q6 8 12 8q8 0 8 -9q0 -5 -0.5 -7.5t-2.5 -8.5zM480 15q66 0 112.5 33.5t76.5 84t43.5 108.5t13.5 107q0 66 -19 113.5t-48 78.5t-63 46t-65 15q-50 0 -94.5 -25t-78 -69.5t-53.5 -106.5
t-20 -136q0 -68 18.5 -115.5t47.5 -77t63 -43t66 -13.5zM477 -16q-54 0 -97 21t-72 58.5t-44.5 89.5t-15.5 113q0 76 23 143.5t62 117t91 78.5t110 29q51 0 93 -20.5t72 -58t46.5 -90t16.5 -115.5q0 -76 -21 -143t-59 -116.5t-90 -78t-115 -28.5z" />
    <glyph glyph-name="ordfeminine" unicode="&#xaa;" horiz-adv-x="381" 
d="M496 631q3 4 3 9q0 11 -13 11q-12 0 -18.5 -6.5t-11.5 -18.5l-68 -154q-7 -14 -7 -25q0 -12 12 -12q17 0 31 33zM609 428q-34 -21 -71 -33.5t-68 -12.5q-26 0 -31 28q-16 -14 -36 -21t-55 -7q-30 0 -50.5 15.5t-20.5 46.5q0 19 9.5 49t26.5 63q22 45 43 73.5t41 45t40 23
t42 6.5q31 0 44.5 -8.5t21.5 -21.5l7 17h89l-78 -176q-9 -19 -12 -27.5t-3 -13.5q0 -11 13 -11t35 10z" />
    <glyph glyph-name="guillemotleft" unicode="&#xab;" horiz-adv-x="545" 
d="M233 226zM233 309l30 64l177 76l16 -60l-144 -53l84 -54l-34 -56zM458 309l30 64l177 76l16 -60l-144 -53l84 -54l-34 -56z" />
    <glyph glyph-name="logicalnot" unicode="&#xac;" horiz-adv-x="478" 
d="M494 37l18 208h-339l7 72h400l-24 -280h-62z" />
    <glyph glyph-name="registered" unicode="&#xae;" horiz-adv-x="643" 
d="M479 15q67 0 114 33.5t76.5 84t43 108.5t13.5 107q0 66 -19 113.5t-48 79t-63.5 46.5t-65.5 15q-50 0 -94.5 -25t-78 -69.5t-53 -107t-19.5 -137.5q0 -68 18.5 -115.5t47 -77t62.5 -42.5t66 -13zM477 -16q-54 0 -97 21.5t-72 59t-44.5 89t-15.5 112.5q0 77 23 144t62 117
t91 79t110 29q51 0 93 -20.5t72 -58t46.5 -90t16.5 -116.5q0 -75 -21 -142t-59 -116.5t-90 -78.5t-115 -29zM596 129q-14 0 -24 1t-17.5 5.5t-13 14t-10.5 26.5q-6 19 -10.5 36.5t-8.5 31t-6.5 21.5t-4.5 8h-33q-4 0 -4 -4l-8 -97q0 -7 6 -9t13 -4t13 -5t6 -11q0 -14 -9 -14
q-13 0 -25 1.5t-29 1.5q-16 0 -30 -1.5t-25 -1.5q-9 0 -9 13q0 8 6.5 11t15 5t15.5 4.5t8 9.5l21 270q0 6 -6 8t-12.5 4t-12.5 4.5t-6 10.5q0 16 11 16t24 -1.5t29 -1.5q10 0 17 1t14.5 1.5t16.5 1.5t22 1q29 0 46.5 -22t17.5 -56q0 -78 -50 -119q3 -12 10.5 -35t18.5 -46
t25 -40.5t30 -17.5q7 0 7 -8q0 -14 -10 -14h-29zM489 456q-11 0 -11 -12l-11 -138q0 -4 9 -5.5t23 -1.5q10 0 18.5 8t15.5 21t11 29.5t4 33.5q0 32 -11.5 48.5t-27.5 16.5h-20z" />
    <glyph glyph-name="macron" unicode="&#xaf;" horiz-adv-x="335" 
d="M176 530l25 56h320l-24 -56h-321z" />
    <glyph glyph-name="degree" unicode="&#xb0;" horiz-adv-x="301" 
d="M351 407q-23 0 -42.5 9.5t-34.5 26.5t-23.5 39t-8.5 48q0 25 8.5 47.5t23.5 39.5t34.5 26.5t42.5 9.5t43 -9.5t35 -26.5t24 -39.5t9 -47.5q0 -26 -9 -48t-24 -39t-35 -26.5t-43 -9.5zM351 464q24 0 40.5 18.5t16.5 47.5q0 28 -16.5 47.5t-40.5 19.5q-23 0 -39.5 -19.5
t-16.5 -47.5q0 -29 16.5 -47.5t39.5 -18.5z" />
    <glyph glyph-name="plusminus" unicode="&#xb1;" horiz-adv-x="478" 
d="M138 0zM325 37l18 208h-170l7 72h169l20 215h61l-19 -215h169l-7 -72h-169l-17 -208h-62zM138 -74l7 72h400l-7 -72h-400z" />
    <glyph glyph-name="twosuperior" unicode="&#xb2;" horiz-adv-x="313" 
d="M220 384zM220 384l32 71q17 40 34 62.5t40 32.5q29 14 51.5 20.5t37.5 11.5t22.5 10t7.5 16q0 6 -9 8.5t-32 2.5q-11 0 -19 -1.5t-19 -1.5q-14 0 -21 8.5t-7 17.5q0 21 20 25t65 4q66 0 93 -13.5t27 -44.5q0 -15 -4 -29t-15.5 -26.5t-31.5 -24.5t-53 -24q-30 -11 -48 -18
t-28.5 -13t-15.5 -13.5t-10 -18.5l-4 -7h140l-24 -55h-229z" />
    <glyph glyph-name="threesuperior" unicode="&#xb3;" horiz-adv-x="316" 
d="M211 382zM275 436q5 -1 12 -1h13q48 0 73.5 9.5t25.5 32.5q0 11 -8 16t-19 7q-14 2 -25 8t-11 23q0 20 18 27t38 9q21 2 35 8.5t14 23.5q0 20 -44 20q-12 0 -19 -1.5t-21 -1.5t-21 8.5t-7 17.5q0 21 20 25t65 4q38 0 62 -4t37.5 -12t18.5 -19t5 -24q0 -24 -19 -44
t-54 -30q13 -8 21 -21.5t8 -29.5q0 -32 -15 -52.5t-41 -32t-61 -16t-74 -4.5q-20 0 -47 0.5t-44 3.5z" />
    <glyph glyph-name="acute" unicode="&#xb4;" horiz-adv-x="224" 
d="M216 440l-40 38l152 202l82 -75z" />
    <glyph glyph-name="periodcentered" unicode="&#xb7;" horiz-adv-x="309" 
d="M271 266zM463 351q0 -19 -12.5 -34.5t-31.5 -27t-41 -17.5t-40 -6q-26 0 -46.5 11.5t-20.5 32.5q0 18 11.5 33t30 26.5t40.5 18t43 6.5q26 0 46.5 -11.5t20.5 -31.5z" />
    <glyph glyph-name="cedilla" unicode="&#xb8;" horiz-adv-x="274" 
d="M174 -154l73 145l83 -54l-108 -124z" />
    <glyph glyph-name="onesuperior" unicode="&#xb9;" horiz-adv-x="236" 
d="M259 384zM259 384l95 213q2 6 2 10q0 9 -14 9h-12q-23 0 -23 27q0 19 13.5 23.5t51.5 4.5q51 0 71.5 -9.5t20.5 -35.5q0 -9 -3.5 -20t-10.5 -25l-86 -197h-105z" />
    <glyph glyph-name="ordmasculine" unicode="&#xba;" horiz-adv-x="387" 
d="M494 608q-6 5 -10 14t-4 17t2 12q-8 -5 -13 -12t-13 -23l-69 -158q-2 -5 -3 -8.5t-1 -5.5q0 -15 13 -15q7 0 16 6t13 16zM568 642q7 9 7 22q0 8 -3 13t-9 5q-19 0 -19 -18q0 -22 24 -22zM647 588q-11 -2 -25 -4.5t-28 -4.5q-26 -66 -50 -105t-50 -59.5t-55 -26.5t-63 -6
q-55 0 -77 16t-22 44q0 27 19 67l34 75q32 68 68 94t80 26q13 0 19.5 -0.5t11.5 -1.5q27 24 67 24q50 0 50 -41q0 -19 -14 -49q8 -2 16 -2.5t16 -0.5z" />
    <glyph glyph-name="guillemotright" unicode="&#xbb;" horiz-adv-x="545" 
d="M223 238zM239 238l-16 61l144 52l-85 54l35 57l128 -84l-29 -64zM464 238l-16 61l144 52l-85 54l35 57l128 -84l-29 -64z" />
    <glyph glyph-name="onequarter" unicode="&#xbc;" horiz-adv-x="678" 
d="M96 0zM287 384l95 213q2 6 2 10q0 9 -14 9h-12q-23 0 -23 27q0 19 13.5 23.5t51.5 4.5q51 0 71.5 -9.5t20.5 -35.5q0 -9 -3.5 -20t-10.5 -25l-86 -197h-105zM96 -3l661 670h94l-665 -670h-90zM580 0l46 108h-141l79 177q33 -3 53 -18t20 -38q0 -6 -0.5 -9.5t-1.5 -5.5
l-27 -59h40l5 9q9 20 19 34t24.5 22.5t36 12.5t53.5 4l-36 -82h39l-21 -47h-41q-12 -26 -24 -54t-23 -54h-100z" />
    <glyph glyph-name="onehalf" unicode="&#xbd;" horiz-adv-x="678" 
d="M96 0zM287 384l95 213q2 6 2 10q0 9 -14 9h-12q-23 0 -23 27q0 19 13.5 23.5t51.5 4.5q51 0 71.5 -9.5t20.5 -35.5q0 -9 -3.5 -20t-10.5 -25l-86 -197h-105zM96 -3l661 670h94l-665 -670h-90zM415 0l32 71q17 40 34 62.5t40 32.5q29 14 51.5 20.5t37.5 11.5t22.5 10
t7.5 16q0 6 -9 8.5t-32 2.5q-11 0 -19 -1.5t-19 -1.5q-14 0 -21 8.5t-7 17.5q0 21 20 25t65 4q66 0 93 -13.5t27 -44.5q0 -15 -4 -29t-15.5 -26.5t-31.5 -24.5t-53 -24q-30 -11 -48 -18t-28.5 -13t-15.5 -13.5t-10 -18.5l-4 -7h140l-24 -55h-229z" />
    <glyph glyph-name="threequarters" unicode="&#xbe;" horiz-adv-x="678" 
d="M96 0zM262 436q5 -1 12 -1h13q48 0 73.5 9.5t25.5 32.5q0 11 -8 16t-19 7q-14 2 -25 8t-11 23q0 20 18 27t38 9q21 2 35 8.5t14 23.5q0 20 -44 20q-12 0 -19 -1.5t-21 -1.5t-21 8.5t-7 17.5q0 21 20 25t65 4q38 0 62 -4t37.5 -12t18.5 -19t5 -24q0 -24 -19 -44t-54 -30
q13 -8 21 -21.5t8 -29.5q0 -32 -15 -52.5t-41 -32t-61 -16t-74 -4.5q-20 0 -47 0.5t-44 3.5zM96 -3l661 670h94l-665 -670h-90zM582 0l46 108h-141l79 177q33 -3 53 -18t20 -38q0 -6 -0.5 -9.5t-1.5 -5.5l-27 -59h40l5 9q9 20 19 34t24.5 22.5t36 12.5t53.5 4l-36 -82h39
l-21 -47h-41q-12 -26 -24 -54t-23 -54h-100z" />
    <glyph glyph-name="questiondown" unicode="&#xbf;" horiz-adv-x="553" 
d="M108 0zM659.018 337.014q-14.999 -44.9971 -26.999 -73.4951q-11.999 -28.499 -33.498 -52.4971q-21.498 -23.999 -57.9961 -48.4971q-36.498 -24.499 -101.494 -59.4961q-41.9971 -22.999 -77.9951 -47.4971q-35.9971 -24.499 -52.9961 -50.4971
q-11 -17.999 -20.499 -38.498t-9.49902 -42.4971q0 -35.998 44.9971 -35.998q18.999 0 36.9971 4q17.999 4 36.998 8.49902q18.999 4.5 39.998 8.5q20.998 3.99902 44.9971 3.99902q45.9971 0 78.9951 -15.999t32.998 -50.9961q0 -13.999 -8 -23.499
q-7.99902 -9.49902 -21.998 -9.49902q-14 0 -24.999 9.99902q-12.999 8 -28.498 11.999q-15.499 4 -38.498 4q-20.998 0 -40.4971 -4q-19.499 -3.99902 -44.9971 -8.99902q-25.499 -5 -59.9971 -9q-34.4971 -3.99902 -86.4941 -3.99902q-62.9961 0 -97.4941 21.998
q-34.498 21.999 -34.498 70.9961q0 22.998 10 45.9971q9.99902 22.999 20.998 42.9971q13.999 23.999 31.498 48.9971q17.499 24.999 41.498 47.9971q23.998 22.999 56.4961 44.9971q32.498 21.999 74.4951 39.998q51.9971 21.999 82.9951 39.9971
q30.998 17.999 50.4971 39.998t31.498 52.9971t25.999 79.9951zM566.023 476.005q0 18.999 12.499 34.498t31.498 26.498q18.999 11 40.4971 16.999q21.499 6 39.498 6q25.998 0 46.9971 -11.499q20.999 -11.5 20.999 -32.498q0 -15.999 -11 -31.498
q-10.999 -15.499 -28.998 -26.999q-17.999 -11.499 -40.4971 -18.498q-22.499 -7 -44.498 -7q-25.998 0 -46.4971 11.999q-20.498 11.999 -20.498 31.998z" />
    <glyph glyph-name="Agrave" unicode="&#xc0;" horiz-adv-x="579" 
d="M119 0zM617 552q8 17 12 34.5t4 33.5q0 26 -11.5 44t-34.5 18q-10 0 -18 -3t-15.5 -10.5t-15.5 -21t-18 -35.5l-172 -383q-24 -55 -34 -81.5t-10 -36.5q0 -24 20 -24q18 0 39.5 13t41.5 32t36 40.5t24 38.5zM784 170q-13 -29 -46.5 -59.5t-76.5 -56t-90 -41.5t-87 -16
q-66 0 -66 70q0 5 0.5 11t1.5 11q-45 -45 -101 -68.5t-123 -23.5q-77 0 -77 73q0 8 2 18t8 28t18.5 48t33.5 78l159 357q34 77 87.5 112.5t140.5 35.5q54 0 84 -21t39 -45l27 60h149l-280 -627q-1 -3 -1 -6q0 -7 11 -7q18 0 41.5 10.5t46.5 27t42 36t27 36.5zM610 761
l-158 172l95 68l113 -208z" />
    <glyph glyph-name="Aacute" unicode="&#xc1;" horiz-adv-x="579" 
d="M119 0zM617 552q8 17 12 34.5t4 33.5q0 26 -11.5 44t-34.5 18q-10 0 -18 -3t-15.5 -10.5t-15.5 -21t-18 -35.5l-172 -383q-24 -55 -34 -81.5t-10 -36.5q0 -24 20 -24q18 0 39.5 13t41.5 32t36 40.5t24 38.5zM784 170q-13 -29 -46.5 -59.5t-76.5 -56t-90 -41.5t-87 -16
q-66 0 -66 70q0 5 0.5 11t1.5 11q-45 -45 -101 -68.5t-123 -23.5q-77 0 -77 73q0 8 2 18t8 28t18.5 48t33.5 78l159 357q34 77 87.5 112.5t140.5 35.5q54 0 84 -21t39 -45l27 60h149l-280 -627q-1 -3 -1 -6q0 -7 11 -7q18 0 41.5 10.5t46.5 27t42 36t27 36.5zM623 761
l-40 38l152 202l82 -75z" />
    <glyph glyph-name="Acircumflex" unicode="&#xc2;" horiz-adv-x="579" 
d="M119 0zM617 552q8 17 12 34.5t4 33.5q0 26 -11.5 44t-34.5 18q-10 0 -18 -3t-15.5 -10.5t-15.5 -21t-18 -35.5l-172 -383q-24 -55 -34 -81.5t-10 -36.5q0 -24 20 -24q18 0 39.5 13t41.5 32t36 40.5t24 38.5zM784 170q-13 -29 -46.5 -59.5t-76.5 -56t-90 -41.5t-87 -16
q-66 0 -66 70q0 5 0.5 11t1.5 11q-45 -45 -101 -68.5t-123 -23.5q-77 0 -77 73q0 8 2 18t8 28t18.5 48t33.5 78l159 357q34 77 87.5 112.5t140.5 35.5q54 0 84 -21t39 -45l27 60h149l-280 -627q-1 -3 -1 -6q0 -7 11 -7q18 0 41.5 10.5t46.5 27t42 36t27 36.5zM761 786
l-97 104l-147 -104l-35 41l161 174h72l98 -181z" />
    <glyph glyph-name="Atilde" unicode="&#xc3;" horiz-adv-x="579" 
d="M119 0zM617 552q8 17 12 34.5t4 33.5q0 26 -11.5 44t-34.5 18q-10 0 -18 -3t-15.5 -10.5t-15.5 -21t-18 -35.5l-172 -383q-24 -55 -34 -81.5t-10 -36.5q0 -24 20 -24q18 0 39.5 13t41.5 32t36 40.5t24 38.5zM784 170q-13 -29 -46.5 -59.5t-76.5 -56t-90 -41.5t-87 -16
q-66 0 -66 70q0 5 0.5 11t1.5 11q-45 -45 -101 -68.5t-123 -23.5q-77 0 -77 73q0 8 2 18t8 28t18.5 48t33.5 78l159 357q34 77 87.5 112.5t140.5 35.5q54 0 84 -21t39 -45l27 60h149l-280 -627q-1 -3 -1 -6q0 -7 11 -7q18 0 41.5 10.5t46.5 27t42 36t27 36.5zM836 901
q-6 -19 -18.5 -34t-28 -25.5t-33.5 -16.5t-35 -6q-27 0 -44.5 7.5t-32.5 16t-30 16t-36 7.5q-17 0 -39.5 -10t-45.5 -38l-20 39q15 30 48.5 54.5t79.5 24.5q28 0 45 -7.5t30 -16t25 -16t30 -7.5t40.5 10.5t46.5 42.5z" />
    <glyph glyph-name="Adieresis" unicode="&#xc4;" horiz-adv-x="579" 
d="M119 0zM617 552q8 17 12 34.5t4 33.5q0 26 -11.5 44t-34.5 18q-10 0 -18 -3t-15.5 -10.5t-15.5 -21t-18 -35.5l-172 -383q-24 -55 -34 -81.5t-10 -36.5q0 -24 20 -24q18 0 39.5 13t41.5 32t36 40.5t24 38.5zM784 170q-13 -29 -46.5 -59.5t-76.5 -56t-90 -41.5t-87 -16
q-66 0 -66 70q0 5 0.5 11t1.5 11q-45 -45 -101 -68.5t-123 -23.5q-77 0 -77 73q0 8 2 18t8 28t18.5 48t33.5 78l159 357q34 77 87.5 112.5t140.5 35.5q54 0 84 -21t39 -45l27 60h149l-280 -627q-1 -3 -1 -6q0 -7 11 -7q18 0 41.5 10.5t46.5 27t42 36t27 36.5zM883 909
q0 -19 -12 -34.5t-30.5 -26t-40.5 -16.5t-41 -6q-26 0 -47 11.5t-21 31.5q0 16 11 31.5t29 27.5t40.5 19t44.5 7q26 0 46.5 -12t20.5 -33zM663 909q0 -19 -12.5 -34.5t-31 -26t-40.5 -16.5t-41 -6q-26 0 -46.5 11.5t-20.5 31.5q0 16 11 31.5t29 27.5t40 19t44 7q26 0 47 -12
t21 -33z" />
    <glyph glyph-name="Aring" unicode="&#xc5;" horiz-adv-x="579" 
d="M119 0zM617 552q8 17 12 34.5t4 33.5q0 26 -11.5 44t-34.5 18q-10 0 -18 -3t-15.5 -10.5t-15.5 -21t-18 -35.5l-172 -383q-24 -55 -34 -81.5t-10 -36.5q0 -24 20 -24q18 0 39.5 13t41.5 32t36 40.5t24 38.5zM784 170q-13 -29 -46.5 -59.5t-76.5 -56t-90 -41.5t-87 -16
q-66 0 -66 70q0 5 0.5 11t1.5 11q-45 -45 -101 -68.5t-123 -23.5q-77 0 -77 73q0 8 2 18t8 28t18.5 48t33.5 78l159 357q34 77 87.5 112.5t140.5 35.5q54 0 84 -21t39 -45l27 60h149l-280 -627q-1 -3 -1 -6q0 -7 11 -7q18 0 41.5 10.5t46.5 27t42 36t27 36.5zM639 755
q-22 0 -39.5 8t-30 22t-19 32.5t-6.5 39.5q0 25 10 50.5t27 46.5t41 34t53 13q45 0 70.5 -30.5t25.5 -72.5q0 -30 -12 -56.5t-31 -45.5t-42.5 -30t-46.5 -11zM647 812q12 0 24 6t22 16.5t16.5 25t6.5 31.5q0 22 -12.5 38t-35.5 16q-14 0 -27 -7t-22.5 -18.5t-15.5 -26
t-6 -29.5q0 -20 13.5 -36t36.5 -16z" />
    <glyph glyph-name="AE" unicode="&#xc6;" horiz-adv-x="1020" 
d="M1145 172q-14 -34 -49 -65.5t-81.5 -56t-100 -39t-103.5 -14.5q-19 0 -43 1t-47.5 5.5t-44.5 14t-33 26.5q-40 -21 -81.5 -34t-77.5 -13q-66 0 -66 70q0 5 0.5 11t1.5 11q-45 -45 -101 -68.5t-123 -23.5q-77 0 -77 73q0 8 2 18t8 28t18.5 48t33.5 78l159 357
q34 77 87.5 112.5t140.5 35.5q54 0 84 -21t39 -45l27 60h149l-280 -627q-1 -3 -1 -6q0 -7 11 -7q8 0 16 2t18 5q3 46 24 94t56 88.5t81.5 71t101.5 42.5q-45 15 -63.5 44t-18.5 64q0 57 24 100.5t65 73.5t96 45.5t117 15.5q39 0 66 -3t43 -10.5t23 -20t7 -31.5q0 -7 -1 -15
t-3 -16l-170 -62q5 7 10 16.5t9 19t6.5 18t2.5 13.5q0 15 -33 15q-15 0 -33.5 -14t-34 -37t-26 -51.5t-10.5 -57.5q0 -24 14.5 -48.5t62.5 -42.5l-18 -42q-61 -20 -106.5 -53t-76 -70.5t-46 -75.5t-15.5 -67q0 -21 14.5 -33t45.5 -12q35 0 76.5 11.5t80 31t69 45.5t44.5 56z
M617 552q8 17 12 34.5t4 33.5q0 26 -11.5 44t-34.5 18q-10 0 -18 -3t-15.5 -10.5t-15.5 -21t-18 -35.5l-172 -383q-25 -55 -34.5 -81.5t-9.5 -36.5q0 -24 20 -24q18 0 39.5 13t41.5 32t36 40.5t24 38.5z" />
    <glyph glyph-name="Ccedilla" unicode="&#xc7;" horiz-adv-x="512" 
d="M136 0zM653 172q-13 -28 -40 -54t-62 -49q-53 -34 -111 -53t-123 -19q-24 0 -55 1.5t-59 10.5t-47.5 27.5t-19.5 53.5q0 10 2 23t7.5 31t15.5 44t27 64l143 319q22 48 49 81.5t61.5 54.5t77 30.5t95.5 9.5q76 0 111 -14t35 -51q0 -16 -4 -31l-169 -62q5 7 10 16.5t8.5 19
t6 18t2.5 13.5q0 15 -32 15q-19 0 -32 -8t-25 -35l-198 -444q-23 -51 -31 -72.5t-8 -26.5q0 -17 36 -17q45 0 92.5 11.5t88.5 31t72.5 45.5t44.5 55zM217 -154l73 145l83 -54l-108 -124z" />
    <glyph glyph-name="Egrave" unicode="&#xc8;" horiz-adv-x="533" 
d="M143 0zM659 172q-11 -25 -33.5 -48t-51.5 -44q-55 -38 -117.5 -60.5t-132.5 -22.5q-23 0 -54.5 1.5t-59.5 10.5t-47.5 27.5t-19.5 53.5q0 48 19.5 98.5t55 94.5t84 76.5t105.5 44.5q-45 15 -63.5 44t-18.5 64q0 57 24 100.5t65.5 73.5t96 45.5t116.5 15.5q39 0 66 -3
t43 -10.5t23 -20t7 -31.5q0 -7 -1 -15t-3 -16l-170 -62q5 7 10 16.5t9 19t6.5 18t2.5 13.5q0 15 -32 15q-16 0 -34.5 -14t-34 -37t-26 -51.5t-10.5 -57.5q0 -12 3 -24.5t11.5 -24t24 -22.5t39.5 -20l-19 -42q-33 -11 -59.5 -24t-47.5 -28t-38.5 -32.5t-33.5 -36.5
q-15 -18 -26.5 -37.5t-20 -39t-13 -37t-4.5 -31.5q0 -21 14 -33t45 -12q35 0 76.5 11.5t80 31t69 45.5t44.5 56zM610 761l-158 172l95 68l113 -208z" />
    <glyph glyph-name="Eacute" unicode="&#xc9;" horiz-adv-x="533" 
d="M143 0zM659 172q-11 -25 -33.5 -48t-51.5 -44q-55 -38 -117.5 -60.5t-132.5 -22.5q-23 0 -54.5 1.5t-59.5 10.5t-47.5 27.5t-19.5 53.5q0 48 19.5 98.5t55 94.5t84 76.5t105.5 44.5q-45 15 -63.5 44t-18.5 64q0 57 24 100.5t65.5 73.5t96 45.5t116.5 15.5q39 0 66 -3
t43 -10.5t23 -20t7 -31.5q0 -7 -1 -15t-3 -16l-170 -62q5 7 10 16.5t9 19t6.5 18t2.5 13.5q0 15 -32 15q-16 0 -34.5 -14t-34 -37t-26 -51.5t-10.5 -57.5q0 -12 3 -24.5t11.5 -24t24 -22.5t39.5 -20l-19 -42q-33 -11 -59.5 -24t-47.5 -28t-38.5 -32.5t-33.5 -36.5
q-15 -18 -26.5 -37.5t-20 -39t-13 -37t-4.5 -31.5q0 -21 14 -33t45 -12q35 0 76.5 11.5t80 31t69 45.5t44.5 56zM638 761l-40 38l152 202l82 -75z" />
    <glyph glyph-name="Ecircumflex" unicode="&#xca;" horiz-adv-x="533" 
d="M143 0zM659 172q-11 -25 -33.5 -48t-51.5 -44q-55 -38 -117.5 -60.5t-132.5 -22.5q-23 0 -54.5 1.5t-59.5 10.5t-47.5 27.5t-19.5 53.5q0 48 19.5 98.5t55 94.5t84 76.5t105.5 44.5q-45 15 -63.5 44t-18.5 64q0 57 24 100.5t65.5 73.5t96 45.5t116.5 15.5q39 0 66 -3
t43 -10.5t23 -20t7 -31.5q0 -7 -1 -15t-3 -16l-170 -62q5 7 10 16.5t9 19t6.5 18t2.5 13.5q0 15 -32 15q-16 0 -34.5 -14t-34 -37t-26 -51.5t-10.5 -57.5q0 -12 3 -24.5t11.5 -24t24 -22.5t39.5 -20l-19 -42q-33 -11 -59.5 -24t-47.5 -28t-38.5 -32.5t-33.5 -36.5
q-15 -18 -26.5 -37.5t-20 -39t-13 -37t-4.5 -31.5q0 -21 14 -33t45 -12q35 0 76.5 11.5t80 31t69 45.5t44.5 56zM747 786l-97 104l-147 -104l-35 41l161 174h72l98 -181z" />
    <glyph glyph-name="Edieresis" unicode="&#xcb;" horiz-adv-x="533" 
d="M143 0zM659 172q-11 -25 -33.5 -48t-51.5 -44q-55 -38 -117.5 -60.5t-132.5 -22.5q-23 0 -54.5 1.5t-59.5 10.5t-47.5 27.5t-19.5 53.5q0 48 19.5 98.5t55 94.5t84 76.5t105.5 44.5q-45 15 -63.5 44t-18.5 64q0 57 24 100.5t65.5 73.5t96 45.5t116.5 15.5q39 0 66 -3
t43 -10.5t23 -20t7 -31.5q0 -7 -1 -15t-3 -16l-170 -62q5 7 10 16.5t9 19t6.5 18t2.5 13.5q0 15 -32 15q-16 0 -34.5 -14t-34 -37t-26 -51.5t-10.5 -57.5q0 -12 3 -24.5t11.5 -24t24 -22.5t39.5 -20l-19 -42q-33 -11 -59.5 -24t-47.5 -28t-38.5 -32.5t-33.5 -36.5
q-15 -18 -26.5 -37.5t-20 -39t-13 -37t-4.5 -31.5q0 -21 14 -33t45 -12q35 0 76.5 11.5t80 31t69 45.5t44.5 56zM848 909q0 -19 -12 -34.5t-30.5 -26t-40.5 -16.5t-41 -6q-26 0 -47 11.5t-21 31.5q0 16 11 31.5t29 27.5t40.5 19t44.5 7q26 0 46.5 -12t20.5 -33zM628 909
q0 -19 -12.5 -34.5t-31 -26t-40.5 -16.5t-41 -6q-26 0 -46.5 11.5t-20.5 31.5q0 16 11 31.5t29 27.5t40 19t44 7q26 0 47 -12t21 -33z" />
    <glyph glyph-name="Igrave" unicode="&#xcc;" horiz-adv-x="276" 
d="M80 0zM80 0l282 636q5 12 5 19q0 21 -41 21h-10q-31 0 -31 27q0 21 18 32.5t74 11.5q77 0 121.5 -14.5t44.5 -55.5q0 -11 -2.5 -23.5t-9.5 -27.5l-278 -626h-173zM461 761l-158 172l95 68l113 -208z" />
    <glyph glyph-name="Iacute" unicode="&#xcd;" horiz-adv-x="276" 
d="M80 0zM80 0l282 636q5 12 5 19q0 21 -41 21h-10q-31 0 -31 27q0 21 18 32.5t74 11.5q77 0 121.5 -14.5t44.5 -55.5q0 -11 -2.5 -23.5t-9.5 -27.5l-278 -626h-173zM462 761l-40 38l152 202l82 -75z" />
    <glyph glyph-name="Icircumflex" unicode="&#xce;" horiz-adv-x="276" 
d="M80 0zM80 0l282 636q5 12 5 19q0 21 -41 21h-10q-31 0 -31 27q0 21 18 32.5t74 11.5q77 0 121.5 -14.5t44.5 -55.5q0 -11 -2.5 -23.5t-9.5 -27.5l-278 -626h-173zM582 786l-97 104l-147 -104l-35 41l161 174h72l98 -181z" />
    <glyph glyph-name="Idieresis" unicode="&#xcf;" horiz-adv-x="276" 
d="M80 0zM80 0l282 636q5 12 5 19q0 21 -41 21h-10q-31 0 -31 27q0 21 18 32.5t74 11.5q77 0 121.5 -14.5t44.5 -55.5q0 -11 -2.5 -23.5t-9.5 -27.5l-278 -626h-173zM699 909q0 -19 -12 -34.5t-30.5 -26t-40.5 -16.5t-41 -6q-26 0 -47 11.5t-21 31.5q0 16 11 31.5t29 27.5
t40.5 19t44.5 7q26 0 46.5 -12t20.5 -33zM479 909q0 -19 -12.5 -34.5t-31 -26t-40.5 -16.5t-41 -6q-26 0 -46.5 11.5t-20.5 31.5q0 16 11 31.5t29 27.5t40 19t44 7q26 0 47 -12t21 -33z" />
    <glyph glyph-name="Eth" unicode="&#xd0;" horiz-adv-x="562" 
d="M651 246q-29 -65 -66 -112t-84.5 -77.5t-108 -45t-136.5 -14.5q-79 0 -122 0.5t-55 2.5l159 357h-54l25 56h54l100 223q5 12 5 19q0 21 -41 21h-10q-31 0 -31 27q0 21 18 32.5t74 11.5q61 0 102 -8.5t56 -31.5q32 20 66 30t76 10q32 0 60 -6t48.5 -17.5t32 -27
t11.5 -33.5q0 -11 -5 -28t-22 -54zM630 566q10 22 15 35t7.5 21t3 11.5t0.5 5.5q0 39 -46 39q-31 0 -50 -15t-32 -46l-91 -204h79l-24 -56h-80l-123 -275q2 -1 6 -1.5t12 -0.5q20 0 42.5 9.5t48 33.5t53 66t56.5 107z" />
    <glyph glyph-name="Ntilde" unicode="&#xd1;" horiz-adv-x="584" 
d="M79 0zM788 170q-13 -30 -46.5 -60.5t-77 -55.5t-90.5 -41t-86 -16q-37 0 -57 18t-20 46q0 19 10 45l236 530q5 13 5 24q0 12 -15 12q-16 0 -37 -11t-42 -28t-40 -37.5t-29 -39.5l-247 -556h-173l282 636q5 12 5 19q0 21 -41 21h-10q-31 0 -31 27q0 21 18 32.5t74 11.5
q74 0 118 -13.5t47 -49.5q29 29 66 46t94 17q62 0 91 -21t29 -60q0 -34 -22 -83l-207 -465q-2 -3 -2 -8q0 -9 14 -9q16 0 39.5 10.5t46 27t41 36t26.5 36.5zM822 901q-6 -19 -18.5 -34t-28 -25.5t-33.5 -16.5t-35 -6q-27 0 -44.5 7.5t-32.5 16t-30 16t-36 7.5
q-17 0 -39.5 -10t-45.5 -38l-20 39q15 30 48.5 54.5t79.5 24.5q28 0 45 -7.5t30 -16t25 -16t30 -7.5t40.5 10.5t46.5 42.5z" />
    <glyph glyph-name="Ograve" unicode="&#xd2;" horiz-adv-x="589" 
d="M125 0zM624 565q7 15 9.5 27t2.5 23q0 26 -17 40.5t-37 14.5q-15 0 -30 -11t-26 -35l-205 -462q-7 -14 -7 -27q0 -32 51 -32q53 0 79 59zM754 643q7 17 7 32q0 22 -14 22q-24 0 -24 -23q0 -11 7 -20t24 -11zM917 607q-8 -10 -21 -19t-29 -15.5t-33 -10.5t-33 -4
q-5 0 -10 0.5t-10 1.5q-1 -10 -4 -21.5t-14 -34.5l-161 -361q-32 -72 -107 -109t-184 -37q-94 0 -140 24t-46 69q0 12 3.5 25t9.5 28l203 456q37 83 102 115.5t148 32.5q27 0 53 -5.5t43 -16.5q14 17 34.5 24t43.5 7q30 0 49 -14t19 -43q0 -37 -21 -67q5 -1 9.5 -1.5
t8.5 -0.5q26 0 49.5 9t46.5 23q1 1 4 1q6 0 6 -5q0 -2 -1 -5t-2 -5zM626 761l-158 172l95 68l113 -208z" />
    <glyph glyph-name="Oacute" unicode="&#xd3;" horiz-adv-x="589" 
d="M125 0zM624 565q7 15 9.5 27t2.5 23q0 26 -17 40.5t-37 14.5q-15 0 -30 -11t-26 -35l-205 -462q-7 -14 -7 -27q0 -32 51 -32q53 0 79 59zM754 643q7 17 7 32q0 22 -14 22q-24 0 -24 -23q0 -11 7 -20t24 -11zM917 607q-8 -10 -21 -19t-29 -15.5t-33 -10.5t-33 -4
q-5 0 -10 0.5t-10 1.5q-1 -10 -4 -21.5t-14 -34.5l-161 -361q-32 -72 -107 -109t-184 -37q-94 0 -140 24t-46 69q0 12 3.5 25t9.5 28l203 456q37 83 102 115.5t148 32.5q27 0 53 -5.5t43 -16.5q14 17 34.5 24t43.5 7q30 0 49 -14t19 -43q0 -37 -21 -67q5 -1 9.5 -1.5
t8.5 -0.5q26 0 49.5 9t46.5 23q1 1 4 1q6 0 6 -5q0 -2 -1 -5t-2 -5zM635 761l-40 38l152 202l82 -75z" />
    <glyph glyph-name="Ocircumflex" unicode="&#xd4;" horiz-adv-x="589" 
d="M125 0zM624 565q7 15 9.5 27t2.5 23q0 26 -17 40.5t-37 14.5q-15 0 -30 -11t-26 -35l-205 -462q-7 -14 -7 -27q0 -32 51 -32q53 0 79 59zM754 643q7 17 7 32q0 22 -14 22q-24 0 -24 -23q0 -11 7 -20t24 -11zM917 607q-8 -10 -21 -19t-29 -15.5t-33 -10.5t-33 -4
q-5 0 -10 0.5t-10 1.5q-1 -10 -4 -21.5t-14 -34.5l-161 -361q-32 -72 -107 -109t-184 -37q-94 0 -140 24t-46 69q0 12 3.5 25t9.5 28l203 456q37 83 102 115.5t148 32.5q27 0 53 -5.5t43 -16.5q14 17 34.5 24t43.5 7q30 0 49 -14t19 -43q0 -37 -21 -67q5 -1 9.5 -1.5
t8.5 -0.5q26 0 49.5 9t46.5 23q1 1 4 1q6 0 6 -5q0 -2 -1 -5t-2 -5zM763 786l-97 104l-147 -104l-35 41l161 174h72l98 -181z" />
    <glyph glyph-name="Otilde" unicode="&#xd5;" horiz-adv-x="589" 
d="M125 0zM624 565q7 15 9.5 27t2.5 23q0 26 -17 40.5t-37 14.5q-15 0 -30 -11t-26 -35l-205 -462q-7 -14 -7 -27q0 -32 51 -32q53 0 79 59zM754 643q7 17 7 32q0 22 -14 22q-24 0 -24 -23q0 -11 7 -20t24 -11zM917 607q-8 -10 -21 -19t-29 -15.5t-33 -10.5t-33 -4
q-5 0 -10 0.5t-10 1.5q-1 -10 -4 -21.5t-14 -34.5l-161 -361q-32 -72 -107 -109t-184 -37q-94 0 -140 24t-46 69q0 12 3.5 25t9.5 28l203 456q37 83 102 115.5t148 32.5q27 0 53 -5.5t43 -16.5q14 17 34.5 24t43.5 7q30 0 49 -14t19 -43q0 -37 -21 -67q5 -1 9.5 -1.5
t8.5 -0.5q26 0 49.5 9t46.5 23q1 1 4 1q6 0 6 -5q0 -2 -1 -5t-2 -5zM852 901q-6 -19 -18.5 -34t-28 -25.5t-33.5 -16.5t-35 -6q-27 0 -44.5 7.5t-32.5 16t-30 16t-36 7.5q-17 0 -39.5 -10t-45.5 -38l-20 39q15 30 48.5 54.5t79.5 24.5q28 0 45 -7.5t30 -16t25 -16t30 -7.5
t40.5 10.5t46.5 42.5z" />
    <glyph glyph-name="Odieresis" unicode="&#xd6;" horiz-adv-x="589" 
d="M125 0zM624 565q7 15 9.5 27t2.5 23q0 26 -17 40.5t-37 14.5q-15 0 -30 -11t-26 -35l-205 -462q-7 -14 -7 -27q0 -32 51 -32q53 0 79 59zM754 643q7 17 7 32q0 22 -14 22q-24 0 -24 -23q0 -11 7 -20t24 -11zM917 607q-8 -10 -21 -19t-29 -15.5t-33 -10.5t-33 -4
q-5 0 -10 0.5t-10 1.5q-1 -10 -4 -21.5t-14 -34.5l-161 -361q-32 -72 -107 -109t-184 -37q-94 0 -140 24t-46 69q0 12 3.5 25t9.5 28l203 456q37 83 102 115.5t148 32.5q27 0 53 -5.5t43 -16.5q14 17 34.5 24t43.5 7q30 0 49 -14t19 -43q0 -37 -21 -67q5 -1 9.5 -1.5
t8.5 -0.5q26 0 49.5 9t46.5 23q1 1 4 1q6 0 6 -5q0 -2 -1 -5t-2 -5zM877 909q0 -19 -12 -34.5t-30.5 -26t-40.5 -16.5t-41 -6q-26 0 -47 11.5t-21 31.5q0 16 11 31.5t29 27.5t40.5 19t44.5 7q26 0 46.5 -12t20.5 -33zM657 909q0 -19 -12.5 -34.5t-31 -26t-40.5 -16.5t-41 -6
q-26 0 -46.5 11.5t-20.5 31.5q0 16 11 31.5t29 27.5t40 19t44 7q26 0 47 -12t21 -33z" />
    <glyph glyph-name="multiply" unicode="&#xd7;" horiz-adv-x="420" 
d="M345 228l-134 -149l-38 53l131 149l-105 150l44 51l107 -150l133 150l38 -54l-132 -150l106 -149l-45 -50z" />
    <glyph glyph-name="Oslash" unicode="&#xd8;" horiz-adv-x="589" 
d="M917 607q-8 -10 -21 -19t-29 -15.5t-33 -10.5t-33 -4q-5 0 -10 0.5t-10 1.5q-1 -10 -4 -21.5t-14 -34.5l-161 -361q-32 -72 -107 -109t-184 -37q-78 0 -122 16l-105 -114l-53 48l101 111q-7 13 -7 32q0 12 3.5 25t9.5 28l203 456q37 83 102 115.5t148 32.5q27 0 53 -5.5
t43 -16.5q14 17 35.5 24t50.5 7l83 91l54 -48l-79 -86q1 -4 1.5 -7t0.5 -7q0 -37 -21 -67q5 -1 9.5 -1.5t8.5 -0.5q26 0 49.5 9t46.5 23q1 1 4 1q6 0 6 -5q0 -2 -1 -5t-2 -5zM556 414l-240 -262q-2 -5 -2 -9v-8q0 -32 51 -32q53 0 79 59zM636 607v8q0 26 -17 40.5t-37 14.5
q-15 0 -30 -11t-26 -35l-119 -266z" />
    <glyph glyph-name="Ugrave" unicode="&#xd9;" 
d="M124 0zM789 170q-13 -29 -46 -59.5t-74.5 -56t-85.5 -41.5t-78 -16q-46 0 -65.5 21.5t-19.5 53.5v12q-45 -42 -99.5 -64.5t-119.5 -22.5q-77 0 -77 73q0 31 18 73l220 493q5 12 5 19q0 21 -41 21h-10q-31 0 -31 27q0 21 18 32.5t74 11.5q77 0 121.5 -14.5t44.5 -55.5
q0 -11 -2.5 -23.5t-9.5 -27.5l-232 -523q-4 -7 -4 -13q0 -10 12 -10q11 0 38 11q41 20 70 46t47 58l245 549h166l-281 -628q-2 -5 -2 -8q0 -7 12 -7q18 0 41.5 10.5t46.5 27t41.5 36t26.5 36.5zM610 761l-158 172l95 68l113 -208z" />
    <glyph glyph-name="Uacute" unicode="&#xda;" 
d="M124 0zM789 170q-13 -29 -46 -59.5t-74.5 -56t-85.5 -41.5t-78 -16q-46 0 -65.5 21.5t-19.5 53.5v12q-45 -42 -99.5 -64.5t-119.5 -22.5q-77 0 -77 73q0 31 18 73l220 493q5 12 5 19q0 21 -41 21h-10q-31 0 -31 27q0 21 18 32.5t74 11.5q77 0 121.5 -14.5t44.5 -55.5
q0 -11 -2.5 -23.5t-9.5 -27.5l-232 -523q-4 -7 -4 -13q0 -10 12 -10q11 0 38 11q41 20 70 46t47 58l245 549h166l-281 -628q-2 -5 -2 -8q0 -7 12 -7q18 0 41.5 10.5t46.5 27t41.5 36t26.5 36.5zM632 761l-40 38l152 202l82 -75z" />
    <glyph glyph-name="Ucircumflex" unicode="&#xdb;" 
d="M124 0zM789 170q-13 -29 -46 -59.5t-74.5 -56t-85.5 -41.5t-78 -16q-46 0 -65.5 21.5t-19.5 53.5v12q-45 -42 -99.5 -64.5t-119.5 -22.5q-77 0 -77 73q0 31 18 73l220 493q5 12 5 19q0 21 -41 21h-10q-31 0 -31 27q0 21 18 32.5t74 11.5q77 0 121.5 -14.5t44.5 -55.5
q0 -11 -2.5 -23.5t-9.5 -27.5l-232 -523q-4 -7 -4 -13q0 -10 12 -10q11 0 38 11q41 20 70 46t47 58l245 549h166l-281 -628q-2 -5 -2 -8q0 -7 12 -7q18 0 41.5 10.5t46.5 27t41.5 36t26.5 36.5zM749 786l-97 104l-147 -104l-35 41l161 174h72l98 -181z" />
    <glyph glyph-name="Udieresis" unicode="&#xdc;" 
d="M124 0zM789 170q-13 -29 -46 -59.5t-74.5 -56t-85.5 -41.5t-78 -16q-46 0 -65.5 21.5t-19.5 53.5v12q-45 -42 -99.5 -64.5t-119.5 -22.5q-77 0 -77 73q0 31 18 73l220 493q5 12 5 19q0 21 -41 21h-10q-31 0 -31 27q0 21 18 32.5t74 11.5q77 0 121.5 -14.5t44.5 -55.5
q0 -11 -2.5 -23.5t-9.5 -27.5l-232 -523q-4 -7 -4 -13q0 -10 12 -10q11 0 38 11q41 20 70 46t47 58l245 549h166l-281 -628q-2 -5 -2 -8q0 -7 12 -7q18 0 41.5 10.5t46.5 27t41.5 36t26.5 36.5zM861 909q0 -19 -12 -34.5t-30.5 -26t-40.5 -16.5t-41 -6q-26 0 -47 11.5
t-21 31.5q0 16 11 31.5t29 27.5t40.5 19t44.5 7q26 0 46.5 -12t20.5 -33zM641 909q0 -19 -12.5 -34.5t-31 -26t-40.5 -16.5t-41 -6q-26 0 -46.5 11.5t-20.5 31.5q0 16 11 31.5t29 27.5t40 19t44 7q26 0 47 -12t21 -33z" />
    <glyph glyph-name="Yacute" unicode="&#xdd;" 
d="M168 0zM784 172q-12 -26 -39 -53t-62 -49.5t-74.5 -39.5t-75.5 -24q-22 -55 -49 -92t-56.5 -59.5t-61 -32t-63.5 -9.5q-50 0 -81.5 22.5t-31.5 65.5q0 35 16.5 65t46.5 54t71 42t91 30l39 91q-87 -75 -209 -75q-77 0 -77 71q0 31 18 73l171 384q5 12 5 19q0 21 -40 21
h-11q-31 0 -31 27q0 10 4 18.5t14.5 14t28 8.5t45.5 3q77 0 122 -14.5t45 -55.5q0 -22 -13 -51l-183 -415q-4 -7 -4 -12q0 -11 12 -11t38 12q80 38 117 103l196 441h166l-297 -645q40 5 63.5 13.5t43.5 22.5q25 17 46.5 38t29.5 38zM376 8q-21 -6 -39 -16.5t-31.5 -23.5
t-21 -27.5t-7.5 -29.5q0 -9 7 -12.5t16 -3.5q16 0 26 15q17 21 28.5 43t21.5 55zM624 761l-40 38l152 202l82 -75z" />
    <glyph glyph-name="Thorn" unicode="&#xde;" horiz-adv-x="514" 
d="M606 242q-37 -83 -94 -117t-139 -34q-31 0 -47.5 4t-25.5 12l-47 -107h-173l154 349q-21 -17 -31 -43l-30 40q11 28 40 56t67 51l82 183q5 12 5 19q0 21 -41 21h-10q-31 0 -31 27q0 21 18 32.5t74 11.5q77 0 121.5 -14.5t44.5 -55.5q0 -11 -2.5 -24t-9.5 -27l-49 -110
q17 2 34.5 3t34.5 1q123 0 123 -83q0 -22 -8 -49.5t-24 -63.5zM522 388q8 18 10.5 27t2.5 17q0 11 -7.5 15t-16.5 4q-26 0 -38 -1t-20 -3l-99 -223l51 18q-5 -7 -9.5 -16.5l-9 -19t-7 -18t-2.5 -13.5q0 -14 19 -14q14 0 21.5 7t18.5 29z" />
    <glyph glyph-name="germandbls" unicode="&#xdf;" horiz-adv-x="504" 
d="M439 420q75 28 114.5 58.5t59.5 56.5q17 22 30 50t13 54q0 20 -11.5 31t-34.5 11q-29 0 -48.5 -16.5t-33.5 -47.5zM-4 -184l364 815q30 67 91 93t163 26q108 0 156.5 -23t48.5 -63t-20.5 -82t-54.5 -78.5t-77 -63t-88 -36.5q83 -24 83 -103q0 -7 -1 -15.5t-5.5 -22
t-12.5 -33.5t-22 -50q-24 -54 -60.5 -91.5t-79.5 -62.5t-91 -39.5t-94 -22.5l26 67q50 29 84.5 65t60.5 88q11 23 17 37.5t9 25.5t3.5 20.5t0.5 22.5q0 38 -17 57.5t-60 30.5l-250 -562h-174z" />
    <glyph glyph-name="agrave" unicode="&#xe0;" horiz-adv-x="480" 
d="M126 0zM418 329q2 3 2 6.5v6.5q0 5 -3.5 9.5t-13.5 4.5q-15 0 -23.5 -8t-15.5 -25l-91 -205q-9 -18 -9 -34t14 -16q23 0 44 44zM684 172q-15 -31 -49 -62.5t-77 -56.5t-90 -40.5t-86 -15.5q-18 0 -28.5 10.5t-13.5 27.5q-21 -18 -47.5 -28t-72.5 -10q-41 0 -67.5 20.5
t-26.5 62.5q0 26 12 65t35 83q30 60 57.5 98.5t54.5 60.5t54 30.5t56 8.5q41 0 58.5 -11.5t28.5 -28.5l10 23h119l-105 -235q-11 -25 -15.5 -35.5t-4.5 -18.5q0 -15 17 -15t40 11t45 27t40 34.5t25 33.5zM454 440l-158 172l95 68l113 -208z" />
    <glyph glyph-name="aacute" unicode="&#xe1;" horiz-adv-x="480" 
d="M126 0zM418 329q2 3 2 6.5v6.5q0 5 -3.5 9.5t-13.5 4.5q-15 0 -23.5 -8t-15.5 -25l-91 -205q-9 -18 -9 -34t14 -16q23 0 44 44zM684 172q-15 -31 -49 -62.5t-77 -56.5t-90 -40.5t-86 -15.5q-18 0 -28.5 10.5t-13.5 27.5q-21 -18 -47.5 -28t-72.5 -10q-41 0 -67.5 20.5
t-26.5 62.5q0 26 12 65t35 83q30 60 57.5 98.5t54.5 60.5t54 30.5t56 8.5q41 0 58.5 -11.5t28.5 -28.5l10 23h119l-105 -235q-11 -25 -15.5 -35.5t-4.5 -18.5q0 -15 17 -15t40 11t45 27t40 34.5t25 33.5zM457 440l-40 38l152 202l82 -75z" />
    <glyph glyph-name="acircumflex" unicode="&#xe2;" horiz-adv-x="480" 
d="M126 0zM418 329q2 3 2 6.5v6.5q0 5 -3.5 9.5t-13.5 4.5q-15 0 -23.5 -8t-15.5 -25l-91 -205q-9 -18 -9 -34t14 -16q23 0 44 44zM684 172q-15 -31 -49 -62.5t-77 -56.5t-90 -40.5t-86 -15.5q-18 0 -28.5 10.5t-13.5 27.5q-21 -18 -47.5 -28t-72.5 -10q-41 0 -67.5 20.5
t-26.5 62.5q0 26 12 65t35 83q30 60 57.5 98.5t54.5 60.5t54 30.5t56 8.5q41 0 58.5 -11.5t28.5 -28.5l10 23h119l-105 -235q-11 -25 -15.5 -35.5t-4.5 -18.5q0 -15 17 -15t40 11t45 27t40 34.5t25 33.5zM580 465l-97 104l-147 -104l-35 41l161 174h72l98 -181z" />
    <glyph glyph-name="atilde" unicode="&#xe3;" horiz-adv-x="480" 
d="M126 0zM418 329q2 3 2 6.5v6.5q0 5 -3.5 9.5t-13.5 4.5q-15 0 -23.5 -8t-15.5 -25l-91 -205q-9 -18 -9 -34t14 -16q23 0 44 44zM684 172q-15 -31 -49 -62.5t-77 -56.5t-90 -40.5t-86 -15.5q-18 0 -28.5 10.5t-13.5 27.5q-21 -18 -47.5 -28t-72.5 -10q-41 0 -67.5 20.5
t-26.5 62.5q0 26 12 65t35 83q30 60 57.5 98.5t54.5 60.5t54 30.5t56 8.5q41 0 58.5 -11.5t28.5 -28.5l10 23h119l-105 -235q-11 -25 -15.5 -35.5t-4.5 -18.5q0 -15 17 -15t40 11t45 27t40 34.5t25 33.5zM674 580q-6 -19 -18.5 -34t-28 -25.5t-33.5 -16.5t-35 -6
q-27 0 -44.5 7.5t-32.5 16t-30 16t-36 7.5q-17 0 -39.5 -10t-45.5 -38l-20 39q15 30 48.5 54.5t79.5 24.5q28 0 45 -7.5t30 -16t25 -16t30 -7.5t40.5 10.5t46.5 42.5z" />
    <glyph glyph-name="adieresis" unicode="&#xe4;" horiz-adv-x="480" 
d="M126 0zM418 329q2 3 2 6.5v6.5q0 5 -3.5 9.5t-13.5 4.5q-15 0 -23.5 -8t-15.5 -25l-91 -205q-9 -18 -9 -34t14 -16q23 0 44 44zM684 172q-15 -31 -49 -62.5t-77 -56.5t-90 -40.5t-86 -15.5q-18 0 -28.5 10.5t-13.5 27.5q-21 -18 -47.5 -28t-72.5 -10q-41 0 -67.5 20.5
t-26.5 62.5q0 26 12 65t35 83q30 60 57.5 98.5t54.5 60.5t54 30.5t56 8.5q41 0 58.5 -11.5t28.5 -28.5l10 23h119l-105 -235q-11 -25 -15.5 -35.5t-4.5 -18.5q0 -15 17 -15t40 11t45 27t40 34.5t25 33.5zM702 588q0 -19 -12 -34.5t-30.5 -26t-40.5 -16.5t-41 -6
q-26 0 -47 11.5t-21 31.5q0 16 11 31.5t29 27.5t40.5 19t44.5 7q26 0 46.5 -12t20.5 -33zM482 588q0 -19 -12.5 -34.5t-31 -26t-40.5 -16.5t-41 -6q-26 0 -46.5 11.5t-20.5 31.5q0 16 11 31.5t29 27.5t40 19t44 7q26 0 47 -12t21 -33z" />
    <glyph glyph-name="aring" unicode="&#xe5;" horiz-adv-x="480" 
d="M126 0zM418 329q2 3 2 6.5v6.5q0 5 -3.5 9.5t-13.5 4.5q-15 0 -23.5 -8t-15.5 -25l-91 -205q-9 -18 -9 -34t14 -16q23 0 44 44zM684 172q-15 -31 -49 -62.5t-77 -56.5t-90 -40.5t-86 -15.5q-18 0 -28.5 10.5t-13.5 27.5q-21 -18 -47.5 -28t-72.5 -10q-41 0 -67.5 20.5
t-26.5 62.5q0 26 12 65t35 83q30 60 57.5 98.5t54.5 60.5t54 30.5t56 8.5q41 0 58.5 -11.5t28.5 -28.5l10 23h119l-105 -235q-11 -25 -15.5 -35.5t-4.5 -18.5q0 -15 17 -15t40 11t45 27t40 34.5t25 33.5zM475 434q-22 0 -39.5 8t-30 22t-19 32.5t-6.5 39.5q0 25 10 50.5
t27 46.5t41 34t53 13q45 0 70.5 -30.5t25.5 -72.5q0 -30 -12 -56.5t-31 -45.5t-42.5 -30t-46.5 -11zM483 491q12 0 24 6t22 16.5t16.5 25t6.5 31.5q0 22 -12.5 38t-35.5 16q-14 0 -27 -7t-22.5 -18.5t-15.5 -26t-6 -29.5q0 -20 13.5 -36t36.5 -16z" />
    <glyph glyph-name="ae" unicode="&#xe6;" horiz-adv-x="631" 
d="M834 172q-11 -23 -33 -47t-52 -45q-58 -41 -115 -62t-131 -21q-30 0 -50 2t-33.5 6.5t-22.5 11.5t-18 18q-21 -18 -56.5 -28t-76.5 -10q-120 0 -120 83q0 28 14 73q18 56 62.5 80.5t103.5 24.5q7 0 17.5 -0.5t21 -2t19.5 -5t14 -10.5l40 89q2 3 2 6.5v6.5q0 5 -3.5 9.5
t-13.5 4.5q-25 0 -45 -9.5t-43 -46.5l-98 36q23 28 44.5 46t43.5 27.5t44 13t46 3.5q41 0 68.5 -9t37.5 -31q17 17 52.5 28.5t95.5 11.5q40 0 65 -4.5t39.5 -12.5t20 -20t5.5 -27q0 -25 -8 -57t-31 -62q-15 -21 -43 -34.5t-60.5 -21.5t-66 -12t-61.5 -5q-25 -51 -25 -75
q0 -27 36 -27q41 0 84 11t81.5 30.5t69.5 45.5t49 56zM529 223q22 2 41.5 12t34 26t22.5 37t8 45q0 13 -20 13q-13 0 -22 -7.5t-20 -31.5zM357 193q-5 5 -11 8t-14 3q-9 0 -18 -6.5t-15 -20.5l-26 -59q-9 -18 -9 -34t14 -16q23 0 44 44z" />
    <glyph glyph-name="ccedilla" unicode="&#xe7;" horiz-adv-x="428" 
d="M131 0zM632 172q-8 -19 -26 -39.5t-42 -38.5q-60 -46 -124 -71.5t-144 -25.5q-38 0 -68.5 3t-52 12t-33 25.5t-11.5 43.5q0 41 31 112l37 83q36 82 94 116t148 34q70 0 101.5 -12t31.5 -49q0 -11 -5 -28l-170 -61q11 14 19.5 33t8.5 34q0 13 -19 13q-23 0 -33 -21
l-98 -217q-7 -17 -7 -33q0 -14 12 -17t24 -3q46 0 98 14t100 42q28 16 54 38.5t43 51.5zM181 -154l73 145l83 -54l-108 -124z" />
    <glyph glyph-name="egrave" unicode="&#xe8;" horiz-adv-x="424" 
d="M132 0zM323 223q22 2 41.5 12t33.5 26t22 37t8 45q0 13 -19 13q-12 0 -21.5 -7.5t-20.5 -31.5zM628 172q-11 -23 -33 -47t-53 -45q-57 -41 -114 -62t-131 -21q-40 0 -70.5 2.5t-51.5 11.5t-32 25.5t-11 44.5q0 41 31 112l37 83q18 41 39 69.5t49.5 46.5t66 26t88.5 8
q39 0 64.5 -4.5t39.5 -12.5t19.5 -20t5.5 -27q0 -25 -7.5 -57t-30.5 -62q-16 -21 -43.5 -34.5t-60.5 -21.5t-66.5 -12t-61.5 -5q-12 -26 -18.5 -44.5t-6.5 -30.5q0 -27 37 -27q41 0 84 11t81.5 30.5t69.5 45.5t48 56zM461 440l-158 172l95 68l113 -208z" />
    <glyph glyph-name="eacute" unicode="&#xe9;" horiz-adv-x="424" 
d="M132 0zM323 223q22 2 41.5 12t33.5 26t22 37t8 45q0 13 -19 13q-12 0 -21.5 -7.5t-20.5 -31.5zM628 172q-11 -23 -33 -47t-53 -45q-57 -41 -114 -62t-131 -21q-40 0 -70.5 2.5t-51.5 11.5t-32 25.5t-11 44.5q0 41 31 112l37 83q18 41 39 69.5t49.5 46.5t66 26t88.5 8
q39 0 64.5 -4.5t39.5 -12.5t19.5 -20t5.5 -27q0 -25 -7.5 -57t-30.5 -62q-16 -21 -43.5 -34.5t-60.5 -21.5t-66.5 -12t-61.5 -5q-12 -26 -18.5 -44.5t-6.5 -30.5q0 -27 37 -27q41 0 84 11t81.5 30.5t69.5 45.5t48 56zM449 440l-40 38l152 202l82 -75z" />
    <glyph glyph-name="ecircumflex" unicode="&#xea;" horiz-adv-x="424" 
d="M132 0zM323 223q22 2 41.5 12t33.5 26t22 37t8 45q0 13 -19 13q-12 0 -21.5 -7.5t-20.5 -31.5zM628 172q-11 -23 -33 -47t-53 -45q-57 -41 -114 -62t-131 -21q-40 0 -70.5 2.5t-51.5 11.5t-32 25.5t-11 44.5q0 41 31 112l37 83q18 41 39 69.5t49.5 46.5t66 26t88.5 8
q39 0 64.5 -4.5t39.5 -12.5t19.5 -20t5.5 -27q0 -25 -7.5 -57t-30.5 -62q-16 -21 -43.5 -34.5t-60.5 -21.5t-66.5 -12t-61.5 -5q-12 -26 -18.5 -44.5t-6.5 -30.5q0 -27 37 -27q41 0 84 11t81.5 30.5t69.5 45.5t48 56zM572 465l-97 104l-147 -104l-35 41l161 174h72l98 -181z
" />
    <glyph glyph-name="edieresis" unicode="&#xeb;" horiz-adv-x="424" 
d="M132 0zM323 223q22 2 41.5 12t33.5 26t22 37t8 45q0 13 -19 13q-12 0 -21.5 -7.5t-20.5 -31.5zM628 172q-11 -23 -33 -47t-53 -45q-57 -41 -114 -62t-131 -21q-40 0 -70.5 2.5t-51.5 11.5t-32 25.5t-11 44.5q0 41 31 112l37 83q18 41 39 69.5t49.5 46.5t66 26t88.5 8
q39 0 64.5 -4.5t39.5 -12.5t19.5 -20t5.5 -27q0 -25 -7.5 -57t-30.5 -62q-16 -21 -43.5 -34.5t-60.5 -21.5t-66.5 -12t-61.5 -5q-12 -26 -18.5 -44.5t-6.5 -30.5q0 -27 37 -27q41 0 84 11t81.5 30.5t69.5 45.5t48 56zM694 588q0 -19 -12 -34.5t-30.5 -26t-40.5 -16.5t-41 -6
q-26 0 -47 11.5t-21 31.5q0 16 11 31.5t29 27.5t40.5 19t44.5 7q26 0 46.5 -12t20.5 -33zM474 588q0 -19 -12.5 -34.5t-31 -26t-40.5 -16.5t-41 -6q-26 0 -46.5 11.5t-20.5 31.5q0 16 11 31.5t29 27.5t40 19t44 7q26 0 47 -12t21 -33z" />
    <glyph glyph-name="igrave" unicode="&#xec;" horiz-adv-x="287" 
d="M116 0zM491 172q-13 -29 -46.5 -60t-77 -56.5t-91 -42t-87.5 -16.5q-32 0 -52.5 17.5t-20.5 47.5q0 24 13 50l149 334l126 -69l-106 -239q-5 -12 -5 -18q0 -15 17 -15t40 11t45 27t40 34.5t25 33.5zM374 440l-158 172l95 68l113 -208z" />
    <glyph glyph-name="iacute" unicode="&#xed;" horiz-adv-x="287" 
d="M116 0zM491 172q-13 -29 -46.5 -60t-77 -56.5t-91 -42t-87.5 -16.5q-32 0 -52.5 17.5t-20.5 47.5q0 24 13 50l149 334l126 -69l-106 -239q-5 -12 -5 -18q0 -15 17 -15t40 11t45 27t40 34.5t25 33.5zM373 440l-40 38l152 202l82 -75z" />
    <glyph glyph-name="icircumflex" unicode="&#xee;" horiz-adv-x="287" 
d="M116 0zM491 172q-13 -29 -46.5 -60t-77 -56.5t-91 -42t-87.5 -16.5q-32 0 -52.5 17.5t-20.5 47.5q0 24 13 50l149 334l126 -69l-106 -239q-5 -12 -5 -18q0 -15 17 -15t40 11t45 27t40 34.5t25 33.5zM496 465l-97 104l-147 -104l-35 41l161 174h72l98 -181z" />
    <glyph glyph-name="idieresis" unicode="&#xef;" horiz-adv-x="287" 
d="M116 0zM491 172q-13 -29 -46.5 -60t-77 -56.5t-91 -42t-87.5 -16.5q-32 0 -52.5 17.5t-20.5 47.5q0 24 13 50l149 334l126 -69l-106 -239q-5 -12 -5 -18q0 -15 17 -15t40 11t45 27t40 34.5t25 33.5zM606 588q0 -19 -12 -34.5t-30.5 -26t-40.5 -16.5t-41 -6
q-26 0 -47 11.5t-21 31.5q0 16 11 31.5t29 27.5t40.5 19t44.5 7q26 0 46.5 -12t20.5 -33zM386 588q0 -19 -12.5 -34.5t-31 -26t-40.5 -16.5t-41 -6q-26 0 -46.5 11.5t-20.5 31.5q0 16 11 31.5t29 27.5t40 19t44 7q26 0 47 -12t21 -33z" />
    <glyph glyph-name="eth" unicode="&#xf0;" horiz-adv-x="394" 
d="M640 567q-11 -65 -41 -154t-87 -216q-26 -57 -53.5 -95.5t-60 -62t-71.5 -33t-88 -9.5q-58 0 -85.5 18.5t-27.5 60.5q0 52 47 154q39 86 86.5 122t104.5 36q17 0 39 -4.5t37 -19.5q20 42 32 85t19 80l-141 -35l-13 50l159 40q0 42 -7.5 57t-24.5 15q-14 0 -37 -10
q-4 -2 -9.5 -4.5t-12.5 -2.5q-9 0 -14.5 8t-5.5 18q0 21 18 33q41 26 82 37.5t92 11.5q41 0 57 -25t16 -61q0 -9 -0.5 -18.5t-1.5 -20.5l53 14l13 -50zM402 284q3 7 5.5 13t2.5 11t-4 9.5t-14 4.5q-20 0 -29 -10t-15 -22l-86 -193q-5 -12 -5 -19q0 -18 17 -18q27 0 44 37z
" />
    <glyph glyph-name="ntilde" unicode="&#xf1;" horiz-adv-x="502" 
d="M79 0zM706 172q-13 -30 -47 -61t-77.5 -56.5t-91 -41.5t-86.5 -16q-35 0 -54 17.5t-19 46.5q0 18 12.5 50t30 70t36.5 76t31 68q3 9 4 14t1 9q0 12 -14 12q-13 0 -23 -6.5t-15 -18.5l-148 -335h-167l198 446l105 -55q25 24 61 29.5t70 5.5q38 0 58.5 -20t20.5 -55
q0 -19 -8 -44.5t-20 -53.5t-25.5 -56.5t-23.5 -53.5q-7 -14 -7 -23q0 -15 18 -15q16 0 39 11t45 27t40 34.5t25 33.5zM659 580q-6 -19 -18.5 -34t-28 -25.5t-33.5 -16.5t-35 -6q-27 0 -44.5 7.5t-32.5 16t-30 16t-36 7.5q-17 0 -39.5 -10t-45.5 -38l-20 39q15 30 48.5 54.5
t79.5 24.5q28 0 45 -7.5t30 -16t25 -16t30 -7.5t40.5 10.5t46.5 42.5z" />
    <glyph glyph-name="ograve" unicode="&#xf2;" horiz-adv-x="428" 
d="M124 0zM414 299q-10 6 -14.5 17.5t-4.5 24.5q0 9 1 14q-10 -5 -17.5 -14.5t-16.5 -31.5l-92 -210q-5 -11 -5 -20q0 -19 17 -19q11 0 21.5 7.5t17.5 21.5zM512 344q3 5 5.5 13t2.5 16q0 10 -3.5 16.5t-12.5 6.5q-24 0 -24 -23q0 -29 32 -29zM718 329q-55 -58 -172 -70
q-34 -87 -66 -139t-66.5 -79t-73.5 -35.5t-85 -8.5q-73 0 -102 21.5t-29 58.5q0 36 25 89l46 100q21 45 43.5 76t47 49.5t51 26.5t55.5 8q17 0 26 -0.5t15 -2.5q36 33 89 33q34 0 50 -14t16 -40q0 -28 -18 -67l17.5 -3.5t14.5 -1.5q20 0 42.5 7.5t47.5 26.5zM420 440
l-158 172l95 68l113 -208z" />
    <glyph glyph-name="oacute" unicode="&#xf3;" horiz-adv-x="428" 
d="M124 0zM414 299q-10 6 -14.5 17.5t-4.5 24.5q0 9 1 14q-10 -5 -17.5 -14.5t-16.5 -31.5l-92 -210q-5 -11 -5 -20q0 -19 17 -19q11 0 21.5 7.5t17.5 21.5zM512 344q3 5 5.5 13t2.5 16q0 10 -3.5 16.5t-12.5 6.5q-24 0 -24 -23q0 -29 32 -29zM718 329q-55 -58 -172 -70
q-34 -87 -66 -139t-66.5 -79t-73.5 -35.5t-85 -8.5q-73 0 -102 21.5t-29 58.5q0 36 25 89l46 100q21 45 43.5 76t47 49.5t51 26.5t55.5 8q17 0 26 -0.5t15 -2.5q36 33 89 33q34 0 50 -14t16 -40q0 -28 -18 -67l17.5 -3.5t14.5 -1.5q20 0 42.5 7.5t47.5 26.5zM428 440l-40 38
l152 202l82 -75z" />
    <glyph glyph-name="ocircumflex" unicode="&#xf4;" horiz-adv-x="428" 
d="M124 0zM414 299q-10 6 -14.5 17.5t-4.5 24.5q0 9 1 14q-10 -5 -17.5 -14.5t-16.5 -31.5l-92 -210q-5 -11 -5 -20q0 -19 17 -19q11 0 21.5 7.5t17.5 21.5zM512 344q3 5 5.5 13t2.5 16q0 10 -3.5 16.5t-12.5 6.5q-24 0 -24 -23q0 -29 32 -29zM718 329q-55 -58 -172 -70
q-34 -87 -66 -139t-66.5 -79t-73.5 -35.5t-85 -8.5q-73 0 -102 21.5t-29 58.5q0 36 25 89l46 100q21 45 43.5 76t47 49.5t51 26.5t55.5 8q17 0 26 -0.5t15 -2.5q36 33 89 33q34 0 50 -14t16 -40q0 -28 -18 -67l17.5 -3.5t14.5 -1.5q20 0 42.5 7.5t47.5 26.5zM580 465
l-97 104l-147 -104l-35 41l161 174h72l98 -181z" />
    <glyph glyph-name="otilde" unicode="&#xf5;" horiz-adv-x="428" 
d="M124 0zM414 299q-10 6 -14.5 17.5t-4.5 24.5q0 9 1 14q-10 -5 -17.5 -14.5t-16.5 -31.5l-92 -210q-5 -11 -5 -20q0 -19 17 -19q11 0 21.5 7.5t17.5 21.5zM512 344q3 5 5.5 13t2.5 16q0 10 -3.5 16.5t-12.5 6.5q-24 0 -24 -23q0 -29 32 -29zM718 329q-55 -58 -172 -70
q-34 -87 -66 -139t-66.5 -79t-73.5 -35.5t-85 -8.5q-73 0 -102 21.5t-29 58.5q0 36 25 89l46 100q21 45 43.5 76t47 49.5t51 26.5t55.5 8q17 0 26 -0.5t15 -2.5q36 33 89 33q34 0 50 -14t16 -40q0 -28 -18 -67l17.5 -3.5t14.5 -1.5q20 0 42.5 7.5t47.5 26.5zM671 580
q-6 -19 -18.5 -34t-28 -25.5t-33.5 -16.5t-35 -6q-27 0 -44.5 7.5t-32.5 16t-30 16t-36 7.5q-17 0 -39.5 -10t-45.5 -38l-20 39q15 30 48.5 54.5t79.5 24.5q28 0 45 -7.5t30 -16t25 -16t30 -7.5t40.5 10.5t46.5 42.5z" />
    <glyph glyph-name="odieresis" unicode="&#xf6;" horiz-adv-x="428" 
d="M124 0zM414 299q-10 6 -14.5 17.5t-4.5 24.5q0 9 1 14q-10 -5 -17.5 -14.5t-16.5 -31.5l-92 -210q-5 -11 -5 -20q0 -19 17 -19q11 0 21.5 7.5t17.5 21.5zM512 344q3 5 5.5 13t2.5 16q0 10 -3.5 16.5t-12.5 6.5q-24 0 -24 -23q0 -29 32 -29zM718 329q-55 -58 -172 -70
q-34 -87 -66 -139t-66.5 -79t-73.5 -35.5t-85 -8.5q-73 0 -102 21.5t-29 58.5q0 36 25 89l46 100q21 45 43.5 76t47 49.5t51 26.5t55.5 8q17 0 26 -0.5t15 -2.5q36 33 89 33q34 0 50 -14t16 -40q0 -28 -18 -67l17.5 -3.5t14.5 -1.5q20 0 42.5 7.5t47.5 26.5zM688 588
q0 -19 -12 -34.5t-30.5 -26t-40.5 -16.5t-41 -6q-26 0 -47 11.5t-21 31.5q0 16 11 31.5t29 27.5t40.5 19t44.5 7q26 0 46.5 -12t20.5 -33zM468 588q0 -19 -12.5 -34.5t-31 -26t-40.5 -16.5t-41 -6q-26 0 -46.5 11.5t-20.5 31.5q0 16 11 31.5t29 27.5t40 19t44 7q26 0 47 -12
t21 -33z" />
    <glyph glyph-name="divide" unicode="&#xf7;" horiz-adv-x="357" 
d="M173 250l7 67h279l-8 -67h-278zM333 365q-25 0 -34.5 14t-9.5 35q0 16 7.5 31t19 26.5t25.5 18t27 6.5q22 0 33.5 -15.5t11.5 -35.5q0 -17 -7.5 -32t-19.5 -25.5t-26 -16.5t-27 -6zM271 66q-25 0 -34.5 13.5t-9.5 33.5q0 17 7 32.5t18 27.5t24.5 19t27.5 7
q22 0 33.5 -14.5t11.5 -34.5q0 -18 -7.5 -33t-18.5 -26.5t-25 -18t-27 -6.5z" />
    <glyph glyph-name="oslash" unicode="&#xf8;" horiz-adv-x="428" 
d="M718 329q-55 -58 -172 -70q-34 -87 -66 -139t-66.5 -79t-73.5 -35.5t-85 -8.5q-45 0 -73 9l-98 -107l-53 48l96 105q-3 12 -3 25q0 36 25 89l46 100q21 45 43.5 76t47 49.5t51 26.5t55.5 8q17 0 26 -0.5t15 -2.5q25 25 63 31l81 87l54 -48l-53 -57q10 -13 10 -34
q0 -28 -18 -67l17.5 -3.5t14.5 -1.5q20 0 42.5 7.5t47.5 26.5zM392 234l-138 -150q-1 -2 -1 -8q0 -11 6.5 -18.5t18.5 -7.5q11 0 27 7.5t21 21.5zM400 348q-1 4 -1 10q0 10 2 14q-10 -5 -29 -24.5t-34 -66.5z" />
    <glyph glyph-name="ugrave" unicode="&#xf9;" horiz-adv-x="486" 
d="M128 0zM689 172q-12 -27 -44.5 -58t-73.5 -57t-84 -43t-76 -17q-29 0 -44 12t-20 26q-17 -14 -50.5 -26t-79.5 -12t-67.5 20t-21.5 56q0 41 25 97l106 239h150l-130 -291q-8 -19 -8 -34q0 -16 14 -16q22 0 42 44l148 334l127 -69l-106 -239q-4 -8 -4 -18q0 -15 18 -15
q16 0 38.5 11t44.5 27t40 34.5t26 33.5zM415 440l-158 172l95 68l113 -208z" />
    <glyph glyph-name="uacute" unicode="&#xfa;" horiz-adv-x="486" 
d="M128 0zM689 172q-12 -27 -44.5 -58t-73.5 -57t-84 -43t-76 -17q-29 0 -44 12t-20 26q-17 -14 -50.5 -26t-79.5 -12t-67.5 20t-21.5 56q0 41 25 97l106 239h150l-130 -291q-8 -19 -8 -34q0 -16 14 -16q22 0 42 44l148 334l127 -69l-106 -239q-4 -8 -4 -18q0 -15 18 -15
q16 0 38.5 11t44.5 27t40 34.5t26 33.5zM427 440l-40 38l152 202l82 -75z" />
    <glyph glyph-name="ucircumflex" unicode="&#xfb;" horiz-adv-x="486" 
d="M128 0zM689 172q-12 -27 -44.5 -58t-73.5 -57t-84 -43t-76 -17q-29 0 -44 12t-20 26q-17 -14 -50.5 -26t-79.5 -12t-67.5 20t-21.5 56q0 41 25 97l106 239h150l-130 -291q-8 -19 -8 -34q0 -16 14 -16q22 0 42 44l148 334l127 -69l-106 -239q-4 -8 -4 -18q0 -15 18 -15
q16 0 38.5 11t44.5 27t40 34.5t26 33.5zM566 465l-97 104l-147 -104l-35 41l161 174h72l98 -181z" />
    <glyph glyph-name="udieresis" unicode="&#xfc;" horiz-adv-x="486" 
d="M128 0zM689 172q-12 -27 -44.5 -58t-73.5 -57t-84 -43t-76 -17q-29 0 -44 12t-20 26q-17 -14 -50.5 -26t-79.5 -12t-67.5 20t-21.5 56q0 41 25 97l106 239h150l-130 -291q-8 -19 -8 -34q0 -16 14 -16q22 0 42 44l148 334l127 -69l-106 -239q-4 -8 -4 -18q0 -15 18 -15
q16 0 38.5 11t44.5 27t40 34.5t26 33.5zM684 588q0 -19 -12 -34.5t-30.5 -26t-40.5 -16.5t-41 -6q-26 0 -47 11.5t-21 31.5q0 16 11 31.5t29 27.5t40.5 19t44.5 7q26 0 46.5 -12t20.5 -33zM464 588q0 -19 -12.5 -34.5t-31 -26t-40.5 -16.5t-41 -6q-26 0 -46.5 11.5
t-20.5 31.5q0 16 11 31.5t29 27.5t40 19t44 7q26 0 47 -12t21 -33z" />
    <glyph glyph-name="yacute" unicode="&#xfd;" horiz-adv-x="486" 
d="M79 0zM689 172q-11 -24 -36 -50t-56 -47t-63 -35t-55 -14q-16 0 -30 8l-41 -95q-53 -126 -216 -126q-113 0 -113 73q0 27 12 51t32.5 43.5t47.5 34t57 21.5q-74 14 -74 92q0 20 6.5 47t18.5 53l97 218l118 -69l-95 -214q-8 -18 -8 -30q0 -14 12 -14q26 0 40 30l141 316
l118 -88l-99 -221q-11 -22 -11 -36q0 -15 17 -15q16 0 38.5 11t45 27t40.5 34.5t26 33.5zM282 28q-25 -17 -41.5 -30.5t-27.5 -33.5q-14 -25 -19 -37t-5 -19q0 -13 17 -13q16 0 25 17q11 19 23 47t28 69zM413 440l-40 38l152 202l82 -75z" />
    <glyph glyph-name="thorn" unicode="&#xfe;" horiz-adv-x="460" 
d="M663 172q-5 -12 -18 -30t-33.5 -34.5t-47 -28.5t-59.5 -12q-16 0 -29 7t-20 17q-27 -38 -67.5 -66t-91.5 -28q-20 0 -33 5t-17 10l-87 -196h-164l414 928h166l-152 -342q16 14 32 19t37 5q44 0 60 -24.5t16 -59.5q0 -39 -17 -78.5t-34 -78.5q-3 -9 -3 -18q0 -19 25 -19
t50.5 16t42.5 47zM445 336q1 3 1 7q0 13 -19 13q-23 0 -32 -21l-106 -233q-3 -6 -4 -11t-1 -8q0 -18 16 -18q22 0 45 47z" />
    <glyph glyph-name="ydieresis" unicode="&#xff;" horiz-adv-x="486" 
d="M79 0zM689 172q-11 -24 -36 -50t-56 -47t-63 -35t-55 -14q-16 0 -30 8l-41 -95q-53 -126 -216 -126q-113 0 -113 73q0 27 12 51t32.5 43.5t47.5 34t57 21.5q-74 14 -74 92q0 20 6.5 47t18.5 53l97 218l118 -69l-95 -214q-8 -18 -8 -30q0 -14 12 -14q26 0 40 30l141 316
l118 -88l-99 -221q-11 -22 -11 -36q0 -15 17 -15q16 0 38.5 11t45 27t40.5 34.5t26 33.5zM282 28q-25 -17 -41.5 -30.5t-27.5 -33.5q-14 -25 -19 -37t-5 -19q0 -13 17 -13q16 0 25 17q11 19 23 47t28 69zM696 588q0 -19 -12 -34.5t-30.5 -26t-40.5 -16.5t-41 -6
q-26 0 -47 11.5t-21 31.5q0 16 11 31.5t29 27.5t40.5 19t44.5 7q26 0 46.5 -12t20.5 -33zM476 588q0 -19 -12.5 -34.5t-31 -26t-40.5 -16.5t-41 -6q-26 0 -46.5 11.5t-20.5 31.5q0 16 11 31.5t29 27.5t40 19t44 7q26 0 47 -12t21 -33z" />
    <glyph glyph-name="Amacron" unicode="&#x100;" horiz-adv-x="579" 
d="M119 0zM617 552q8 17 12 34.5t4 33.5q0 26 -11.5 44t-34.5 18q-10 0 -18 -3t-15.5 -10.5t-15.5 -21t-18 -35.5l-172 -383q-24 -55 -34 -81.5t-10 -36.5q0 -24 20 -24q18 0 39.5 13t41.5 32t36 40.5t24 38.5zM784 170q-13 -29 -46.5 -59.5t-76.5 -56t-90 -41.5t-87 -16
q-66 0 -66 70q0 5 0.5 11t1.5 11q-45 -45 -101 -68.5t-123 -23.5q-77 0 -77 73q0 8 2 18t8 28t18.5 48t33.5 78l159 357q34 77 87.5 112.5t140.5 35.5q54 0 84 -21t39 -45l27 60h149l-280 -627q-1 -3 -1 -6q0 -7 11 -7q18 0 41.5 10.5t46.5 27t42 36t27 36.5zM524 851l25 56
h320l-24 -56h-321z" />
    <glyph glyph-name="amacron" unicode="&#x101;" horiz-adv-x="480" 
d="M126 0zM418 329q2 3 2 6.5v6.5q0 5 -3.5 9.5t-13.5 4.5q-15 0 -23.5 -8t-15.5 -25l-91 -205q-9 -18 -9 -34t14 -16q23 0 44 44zM684 172q-15 -31 -49 -62.5t-77 -56.5t-90 -40.5t-86 -15.5q-18 0 -28.5 10.5t-13.5 27.5q-21 -18 -47.5 -28t-72.5 -10q-41 0 -67.5 20.5
t-26.5 62.5q0 26 12 65t35 83q30 60 57.5 98.5t54.5 60.5t54 30.5t56 8.5q41 0 58.5 -11.5t28.5 -28.5l10 23h119l-105 -235q-11 -25 -15.5 -35.5t-4.5 -18.5q0 -15 17 -15t40 11t45 27t40 34.5t25 33.5zM328 530l25 56h320l-24 -56h-321z" />
    <glyph glyph-name="Abreve" unicode="&#x102;" horiz-adv-x="579" 
d="M119 0zM617 552q8 17 12 34.5t4 33.5q0 26 -11.5 44t-34.5 18q-10 0 -18 -3t-15.5 -10.5t-15.5 -21t-18 -35.5l-172 -383q-24 -55 -34 -81.5t-10 -36.5q0 -24 20 -24q18 0 39.5 13t41.5 32t36 40.5t24 38.5zM784 170q-13 -29 -46.5 -59.5t-76.5 -56t-90 -41.5t-87 -16
q-66 0 -66 70q0 5 0.5 11t1.5 11q-45 -45 -101 -68.5t-123 -23.5q-77 0 -77 73q0 8 2 18t8 28t18.5 48t33.5 78l159 357q34 77 87.5 112.5t140.5 35.5q54 0 84 -21t39 -45l27 60h149l-280 -627q-1 -3 -1 -6q0 -7 11 -7q18 0 41.5 10.5t46.5 27t42 36t27 36.5zM871 1001
q-9 -30 -24 -62.5t-39.5 -59.5t-61 -44.5t-88.5 -17.5q-35 0 -58 8t-36.5 22t-19 32.5t-5.5 39.5q0 20 3.5 41t9.5 41h73q-11 -38 -11 -65q0 -23 12.5 -37t46.5 -14q27 0 46.5 12t33.5 29.5t22.5 37.5t13.5 37h82z" />
    <glyph glyph-name="abreve" unicode="&#x103;" horiz-adv-x="480" 
d="M126 0zM418 329q2 3 2 6.5v6.5q0 5 -3.5 9.5t-13.5 4.5q-15 0 -23.5 -8t-15.5 -25l-91 -205q-9 -18 -9 -34t14 -16q23 0 44 44zM684 172q-15 -31 -49 -62.5t-77 -56.5t-90 -40.5t-86 -15.5q-18 0 -28.5 10.5t-13.5 27.5q-21 -18 -47.5 -28t-72.5 -10q-41 0 -67.5 20.5
t-26.5 62.5q0 26 12 65t35 83q30 60 57.5 98.5t54.5 60.5t54 30.5t56 8.5q41 0 58.5 -11.5t28.5 -28.5l10 23h119l-105 -235q-11 -25 -15.5 -35.5t-4.5 -18.5q0 -15 17 -15t40 11t45 27t40 34.5t25 33.5zM685 680q-9 -30 -24 -62.5t-39.5 -59.5t-61 -44.5t-88.5 -17.5
q-35 0 -58 8t-36.5 22t-19 32.5t-5.5 39.5q0 20 3.5 41t9.5 41h73q-11 -38 -11 -65q0 -23 12.5 -37t46.5 -14q27 0 46.5 12t33.5 29.5t22.5 37.5t13.5 37h82z" />
    <glyph glyph-name="Aogonek" unicode="&#x104;" horiz-adv-x="579" 
d="M562 -123q-38 -36 -79 -50t-82 -14q-38 0 -55.5 19t-17.5 42q0 16 6.5 33.5t22.5 34t43 31.5t68 25q-50 8 -50 69q0 5 0.5 11t1.5 11q-45 -45 -101 -68.5t-123 -23.5q-77 0 -77 73q0 8 2 18t8 28t18.5 48t33.5 78l159 357q34 77 87.5 112.5t140.5 35.5q54 0 84 -21
t39 -45l27 60h149l-280 -627q-1 -3 -1 -6q0 -7 11 -7q18 0 41.5 10.5t46.5 27t42 36t27 36.5l30 -41q-9 -20 -28.5 -40.5t-45.5 -40t-56.5 -37t-60.5 -31.5q-24 -11 -51 -24t-50 -27t-38.5 -28t-15.5 -26q0 -4 4 -6.5t17 -2.5q17 0 41 8.5t38 16.5zM617 552q8 17 12 34.5
t4 33.5q0 26 -11.5 44t-34.5 18q-10 0 -18 -3t-15.5 -10.5t-15.5 -21t-18 -35.5l-172 -383q-24 -55 -34 -81.5t-10 -36.5q0 -24 20 -24q18 0 39.5 13t41.5 32t36 40.5t24 38.5z" />
    <glyph glyph-name="aogonek" unicode="&#x105;" horiz-adv-x="480" 
d="M491 -123q-38 -36 -79 -50t-82 -14q-38 0 -55.5 19t-17.5 42q0 16 6.5 33.5t22 34t42 31t67.5 25.5q-3 -1 -6.5 -1h-6.5q-18 0 -28.5 10.5t-13.5 27.5q-21 -18 -47.5 -28t-72.5 -10q-41 0 -67.5 20.5t-26.5 62.5q0 26 12 65t35 83q30 60 57.5 98.5t54.5 60.5t54 30.5
t56 8.5q41 0 58.5 -11.5t28.5 -28.5l10 23h119l-105 -235q-11 -25 -15.5 -35.5t-4.5 -18.5q0 -15 17 -15t40 11t45 27t40 34.5t25 33.5l31 -39q-17 -35 -58 -69t-91 -62q-56 -30 -89 -50.5t-50.5 -34.5t-23 -23t-5.5 -17q0 -4 4 -6.5t17 -2.5q17 0 41 8.5t38 16.5zM418 329
q2 3 2 6.5v6.5q0 5 -3.5 9.5t-13.5 4.5q-15 0 -23.5 -8t-15.5 -25l-91 -205q-9 -18 -9 -34t14 -16q23 0 44 44z" />
    <glyph glyph-name="Cacute" unicode="&#x106;" horiz-adv-x="512" 
d="M136 0zM653 172q-13 -28 -40 -54t-62 -49q-53 -34 -111 -53t-123 -19q-24 0 -55 1.5t-59 10.5t-47.5 27.5t-19.5 53.5q0 10 2 23t7.5 31t15.5 44t27 64l143 319q22 48 49 81.5t61.5 54.5t77 30.5t95.5 9.5q76 0 111 -14t35 -51q0 -16 -4 -31l-169 -62q5 7 10 16.5t8.5 19
t6 18t2.5 13.5q0 15 -32 15q-19 0 -32 -8t-25 -35l-198 -444q-23 -51 -31 -72.5t-8 -26.5q0 -17 36 -17q45 0 92.5 11.5t88.5 31t72.5 45.5t44.5 55zM638 761l-40 38l152 202l82 -75z" />
    <glyph glyph-name="cacute" unicode="&#x107;" horiz-adv-x="428" 
d="M131 0zM632 172q-8 -19 -26 -39.5t-42 -38.5q-60 -46 -124 -71.5t-144 -25.5q-38 0 -68.5 3t-52 12t-33 25.5t-11.5 43.5q0 41 31 112l37 83q36 82 94 116t148 34q70 0 101.5 -12t31.5 -49q0 -11 -5 -28l-170 -61q11 14 19.5 33t8.5 34q0 13 -19 13q-23 0 -33 -21
l-98 -217q-7 -17 -7 -33q0 -14 12 -17t24 -3q46 0 98 14t100 42q28 16 54 38.5t43 51.5zM452 440l-40 38l152 202l82 -75z" />
    <glyph glyph-name="Cdotaccent" unicode="&#x10a;" horiz-adv-x="512" 
d="M136 0zM653 172q-13 -28 -40 -54t-62 -49q-53 -34 -111 -53t-123 -19q-24 0 -55 1.5t-59 10.5t-47.5 27.5t-19.5 53.5q0 10 2 23t7.5 31t15.5 44t27 64l143 319q22 48 49 81.5t61.5 54.5t77 30.5t95.5 9.5q76 0 111 -14t35 -51q0 -16 -4 -31l-169 -62q5 7 10 16.5t8.5 19
t6 18t2.5 13.5q0 15 -32 15q-19 0 -32 -8t-25 -35l-198 -444q-23 -51 -31 -72.5t-8 -26.5q0 -17 36 -17q45 0 92.5 11.5t88.5 31t72.5 45.5t44.5 55zM753 909q0 -19 -12.5 -34.5t-31 -26t-40.5 -16.5t-41 -6q-26 0 -46.5 11.5t-20.5 31.5q0 16 11 31.5t29 27.5t40 19t44 7
q26 0 47 -12t21 -33z" />
    <glyph glyph-name="cdotaccent" unicode="&#x10b;" horiz-adv-x="428" 
d="M131 0zM632 172q-8 -19 -26 -39.5t-42 -38.5q-60 -46 -124 -71.5t-144 -25.5q-38 0 -68.5 3t-52 12t-33 25.5t-11.5 43.5q0 41 31 112l37 83q36 82 94 116t148 34q70 0 101.5 -12t31.5 -49q0 -11 -5 -28l-170 -61q11 14 19.5 33t8.5 34q0 13 -19 13q-23 0 -33 -21
l-98 -217q-7 -17 -7 -33q0 -14 12 -17t24 -3q46 0 98 14t100 42q28 16 54 38.5t43 51.5zM592 588q0 -19 -12.5 -34.5t-31 -26t-40.5 -16.5t-41 -6q-26 0 -46.5 11.5t-20.5 31.5q0 16 11 31.5t29 27.5t40 19t44 7q26 0 47 -12t21 -33z" />
    <glyph glyph-name="Ccaron" unicode="&#x10c;" horiz-adv-x="512" 
d="M136 0zM653 172q-13 -28 -40 -54t-62 -49q-53 -34 -111 -53t-123 -19q-24 0 -55 1.5t-59 10.5t-47.5 27.5t-19.5 53.5q0 10 2 23t7.5 31t15.5 44t27 64l143 319q22 48 49 81.5t61.5 54.5t77 30.5t95.5 9.5q76 0 111 -14t35 -51q0 -16 -4 -31l-169 -62q5 7 10 16.5t8.5 19
t6 18t2.5 13.5q0 15 -32 15q-19 0 -32 -8t-25 -35l-198 -444q-23 -51 -31 -72.5t-8 -26.5q0 -17 36 -17q45 0 92.5 11.5t88.5 31t72.5 45.5t44.5 55zM586 786l-98 180l52 35l96 -105l147 105l36 -42l-161 -173h-72z" />
    <glyph glyph-name="ccaron" unicode="&#x10d;" horiz-adv-x="428" 
d="M131 0zM632 172q-8 -19 -26 -39.5t-42 -38.5q-60 -46 -124 -71.5t-144 -25.5q-38 0 -68.5 3t-52 12t-33 25.5t-11.5 43.5q0 41 31 112l37 83q36 82 94 116t148 34q70 0 101.5 -12t31.5 -49q0 -11 -5 -28l-170 -61q11 14 19.5 33t8.5 34q0 13 -19 13q-23 0 -33 -21
l-98 -217q-7 -17 -7 -33q0 -14 12 -17t24 -3q46 0 98 14t100 42q28 16 54 38.5t43 51.5zM417 465l-98 180l52 35l96 -105l147 105l36 -42l-161 -173h-72z" />
    <glyph glyph-name="Dcaron" unicode="&#x10e;" horiz-adv-x="562" 
d="M79 0zM651 246q-29 -65 -66 -112t-84.5 -77.5t-108 -45t-136.5 -14.5q-79 0 -122 0.5t-55 2.5l284 636q5 12 5 19q0 21 -41 21h-10q-31 0 -31 27q0 21 18 32.5t74 11.5q61 0 102 -8.5t56 -31.5q32 20 66 30t76 10q32 0 60 -6t48.5 -17.5t32 -27t11.5 -33.5q0 -11 -5 -28
t-22 -54zM630 566q10 22 15 35t7.5 21t3 11.5t0.5 5.5q0 39 -46 39q-31 0 -50 -15t-32 -46l-239 -535q2 -1 6 -1.5t12 -0.5q20 0 42.5 9.5t48 33.5t53 66t56.5 107zM571 786l-98 180l52 35l96 -105l147 105l36 -42l-161 -173h-72z" />
    <glyph glyph-name="dcaron" unicode="&#x10f;" horiz-adv-x="484" 
d="M132 0zM428 350q-5 8 -17 8t-21.5 -6.5t-17.5 -24.5l-98 -223q-8 -16 -8 -25q0 -14 12 -14q22 0 36 31zM687 172q-12 -28 -45 -58.5t-76 -56.5t-90.5 -43t-87.5 -17q-25 0 -35.5 9.5t-17.5 23.5q-11 -9 -22.5 -15t-25 -10t-30.5 -6t-39 -2q-35 0 -60.5 19.5t-25.5 61.5
q0 20 7 48.5t23 63.5l17 37q49 107 106 153t114 46q22 0 35.5 -3.5t21.5 -8.5l148 330h166l-275 -604q-5 -11 -5 -21q0 -14 15 -14q14 0 35 8.5t43 23t42 34t32 40.5zM780 732l73 145l83 -54l-108 -124z" />
    <glyph glyph-name="Dcroat" unicode="&#x110;" horiz-adv-x="562" 
d="M79 0zM651 246q-29 -65 -66 -112t-84.5 -77.5t-108 -45t-136.5 -14.5q-79 0 -122 0.5t-55 2.5l159 357h-54l25 56h54l100 223q5 12 5 19q0 21 -41 21h-10q-31 0 -31 27q0 21 18 32.5t74 11.5q61 0 102 -8.5t56 -31.5q32 20 66 30t76 10q32 0 60 -6t48.5 -17.5t32 -27
t11.5 -33.5q0 -11 -5 -28t-22 -54zM630 566q10 22 15 35t7.5 21t3 11.5t0.5 5.5q0 39 -46 39q-31 0 -50 -15t-32 -46l-91 -204h79l-24 -56h-80l-123 -275q2 -1 6 -1.5t12 -0.5q20 0 42.5 9.5t48 33.5t53 66t56.5 107z" />
    <glyph glyph-name="dmacron" unicode="&#x111;" horiz-adv-x="484" 
d="M687 172q-12 -28 -45 -58.5t-76 -56.5t-90.5 -43t-87.5 -17q-25 0 -35.5 9.5t-17.5 23.5q-11 -9 -22.5 -15t-25 -10t-30.5 -6t-39 -2q-35 0 -60.5 19.5t-25.5 61.5q0 20 7 48.5t23 63.5l17 37q23 54 50 91.5t55.5 61.5t57.5 35t57 11q22 0 35.5 -3.5t21.5 -8.5l52 116
h-189l25 56h189l71 158h166l-72 -158h62l-24 -56h-64l-177 -390q-5 -11 -5 -21q0 -14 15 -14q14 0 35 8.5t43 23t42 34t32 40.5zM428 350q-5 8 -17 8t-21.5 -6.5t-17.5 -24.5l-98 -223q-8 -16 -8 -25q0 -14 12 -14q22 0 36 31z" />
    <glyph glyph-name="Emacron" unicode="&#x112;" horiz-adv-x="533" 
d="M143 0zM659 172q-11 -25 -33.5 -48t-51.5 -44q-55 -38 -117.5 -60.5t-132.5 -22.5q-23 0 -54.5 1.5t-59.5 10.5t-47.5 27.5t-19.5 53.5q0 48 19.5 98.5t55 94.5t84 76.5t105.5 44.5q-45 15 -63.5 44t-18.5 64q0 57 24 100.5t65.5 73.5t96 45.5t116.5 15.5q39 0 66 -3
t43 -10.5t23 -20t7 -31.5q0 -7 -1 -15t-3 -16l-170 -62q5 7 10 16.5t9 19t6.5 18t2.5 13.5q0 15 -32 15q-16 0 -34.5 -14t-34 -37t-26 -51.5t-10.5 -57.5q0 -12 3 -24.5t11.5 -24t24 -22.5t39.5 -20l-19 -42q-33 -11 -59.5 -24t-47.5 -28t-38.5 -32.5t-33.5 -36.5
q-15 -18 -26.5 -37.5t-20 -39t-13 -37t-4.5 -31.5q0 -21 14 -33t45 -12q35 0 76.5 11.5t80 31t69 45.5t44.5 56zM473 851l25 56h320l-24 -56h-321z" />
    <glyph glyph-name="emacron" unicode="&#x113;" horiz-adv-x="424" 
d="M132 0zM323 223q22 2 41.5 12t33.5 26t22 37t8 45q0 13 -19 13q-12 0 -21.5 -7.5t-20.5 -31.5zM628 172q-11 -23 -33 -47t-53 -45q-57 -41 -114 -62t-131 -21q-40 0 -70.5 2.5t-51.5 11.5t-32 25.5t-11 44.5q0 41 31 112l37 83q18 41 39 69.5t49.5 46.5t66 26t88.5 8
q39 0 64.5 -4.5t39.5 -12.5t19.5 -20t5.5 -27q0 -25 -7.5 -57t-30.5 -62q-16 -21 -43.5 -34.5t-60.5 -21.5t-66.5 -12t-61.5 -5q-12 -26 -18.5 -44.5t-6.5 -30.5q0 -27 37 -27q41 0 84 11t81.5 30.5t69.5 45.5t48 56zM310 530l25 56h320l-24 -56h-321z" />
    <glyph glyph-name="Ebreve" unicode="&#x114;" horiz-adv-x="533" 
d="M143 0zM659 172q-11 -25 -33.5 -48t-51.5 -44q-55 -38 -117.5 -60.5t-132.5 -22.5q-23 0 -54.5 1.5t-59.5 10.5t-47.5 27.5t-19.5 53.5q0 48 19.5 98.5t55 94.5t84 76.5t105.5 44.5q-45 15 -63.5 44t-18.5 64q0 57 24 100.5t65.5 73.5t96 45.5t116.5 15.5q39 0 66 -3
t43 -10.5t23 -20t7 -31.5q0 -7 -1 -15t-3 -16l-170 -62q5 7 10 16.5t9 19t6.5 18t2.5 13.5q0 15 -32 15q-16 0 -34.5 -14t-34 -37t-26 -51.5t-10.5 -57.5q0 -12 3 -24.5t11.5 -24t24 -22.5t39.5 -20l-19 -42q-33 -11 -59.5 -24t-47.5 -28t-38.5 -32.5t-33.5 -36.5
q-15 -18 -26.5 -37.5t-20 -39t-13 -37t-4.5 -31.5q0 -21 14 -33t45 -12q35 0 76.5 11.5t80 31t69 45.5t44.5 56zM854 1001q-9 -30 -24 -62.5t-39.5 -59.5t-61 -44.5t-88.5 -17.5q-35 0 -58 8t-36.5 22t-19 32.5t-5.5 39.5q0 20 3.5 41t9.5 41h73q-11 -38 -11 -65
q0 -23 12.5 -37t46.5 -14q27 0 46.5 12t33.5 29.5t22.5 37.5t13.5 37h82z" />
    <glyph glyph-name="ebreve" unicode="&#x115;" horiz-adv-x="424" 
d="M132 0zM323 223q22 2 41.5 12t33.5 26t22 37t8 45q0 13 -19 13q-12 0 -21.5 -7.5t-20.5 -31.5zM628 172q-11 -23 -33 -47t-53 -45q-57 -41 -114 -62t-131 -21q-40 0 -70.5 2.5t-51.5 11.5t-32 25.5t-11 44.5q0 41 31 112l37 83q18 41 39 69.5t49.5 46.5t66 26t88.5 8
q39 0 64.5 -4.5t39.5 -12.5t19.5 -20t5.5 -27q0 -25 -7.5 -57t-30.5 -62q-16 -21 -43.5 -34.5t-60.5 -21.5t-66.5 -12t-61.5 -5q-12 -26 -18.5 -44.5t-6.5 -30.5q0 -27 37 -27q41 0 84 11t81.5 30.5t69.5 45.5t48 56zM674 680q-9 -30 -24 -62.5t-39.5 -59.5t-61 -44.5
t-88.5 -17.5q-35 0 -58 8t-36.5 22t-19 32.5t-5.5 39.5q0 20 3.5 41t9.5 41h73q-11 -38 -11 -65q0 -23 12.5 -37t46.5 -14q27 0 46.5 12t33.5 29.5t22.5 37.5t13.5 37h82z" />
    <glyph glyph-name="Edotaccent" unicode="&#x116;" horiz-adv-x="533" 
d="M143 0zM659 172q-11 -25 -33.5 -48t-51.5 -44q-55 -38 -117.5 -60.5t-132.5 -22.5q-23 0 -54.5 1.5t-59.5 10.5t-47.5 27.5t-19.5 53.5q0 48 19.5 98.5t55 94.5t84 76.5t105.5 44.5q-45 15 -63.5 44t-18.5 64q0 57 24 100.5t65.5 73.5t96 45.5t116.5 15.5q39 0 66 -3
t43 -10.5t23 -20t7 -31.5q0 -7 -1 -15t-3 -16l-170 -62q5 7 10 16.5t9 19t6.5 18t2.5 13.5q0 15 -32 15q-16 0 -34.5 -14t-34 -37t-26 -51.5t-10.5 -57.5q0 -12 3 -24.5t11.5 -24t24 -22.5t39.5 -20l-19 -42q-33 -11 -59.5 -24t-47.5 -28t-38.5 -32.5t-33.5 -36.5
q-15 -18 -26.5 -37.5t-20 -39t-13 -37t-4.5 -31.5q0 -21 14 -33t45 -12q35 0 76.5 11.5t80 31t69 45.5t44.5 56zM755 909q0 -19 -12.5 -34.5t-31 -26t-40.5 -16.5t-41 -6q-26 0 -46.5 11.5t-20.5 31.5q0 16 11 31.5t29 27.5t40 19t44 7q26 0 47 -12t21 -33z" />
    <glyph glyph-name="edotaccent" unicode="&#x117;" horiz-adv-x="424" 
d="M132 0zM323 223q22 2 41.5 12t33.5 26t22 37t8 45q0 13 -19 13q-12 0 -21.5 -7.5t-20.5 -31.5zM628 172q-11 -23 -33 -47t-53 -45q-57 -41 -114 -62t-131 -21q-40 0 -70.5 2.5t-51.5 11.5t-32 25.5t-11 44.5q0 41 31 112l37 83q18 41 39 69.5t49.5 46.5t66 26t88.5 8
q39 0 64.5 -4.5t39.5 -12.5t19.5 -20t5.5 -27q0 -25 -7.5 -57t-30.5 -62q-16 -21 -43.5 -34.5t-60.5 -21.5t-66.5 -12t-61.5 -5q-12 -26 -18.5 -44.5t-6.5 -30.5q0 -27 37 -27q41 0 84 11t81.5 30.5t69.5 45.5t48 56zM588 588q0 -19 -12.5 -34.5t-31 -26t-40.5 -16.5t-41 -6
q-26 0 -46.5 11.5t-20.5 31.5q0 16 11 31.5t29 27.5t40 19t44 7q26 0 47 -12t21 -33z" />
    <glyph glyph-name="Eogonek" unicode="&#x118;" horiz-adv-x="533" 
d="M437 -123q-38 -36 -79 -50t-82 -14q-38 0 -55 19t-17 42q0 16 6 33t22 33.5t42 31t67 25.5h-17q-23 0 -54.5 1.5t-59.5 10.5t-47.5 27.5t-19.5 53.5q0 48 19.5 98.5t55 94.5t84 76.5t105.5 44.5q-45 15 -63.5 44t-18.5 64q0 57 24 100.5t65.5 73.5t96 45.5t116.5 15.5
q39 0 66 -3t43 -10.5t23 -20t7 -31.5q0 -7 -1 -15t-3 -16l-170 -62q5 7 10 16.5t9 19t6.5 18t2.5 13.5q0 15 -32 15q-16 0 -34.5 -14t-34 -37t-26 -51.5t-10.5 -57.5q0 -12 3 -24.5t11.5 -24t24 -22.5t39.5 -20l-19 -42q-61 -20 -106.5 -53t-76 -70.5t-45.5 -75.5t-15 -67
q0 -21 14 -33t45 -12q35 0 76.5 11.5t80 31t69 45.5t44.5 56l31 -39q-14 -33 -51.5 -66.5t-81.5 -55.5q-65 -32 -106.5 -53.5t-65 -36t-32.5 -24.5t-9 -20q0 -4 4 -6.5t17 -2.5q9 0 19.5 2.5t21.5 6t21 8t17 8.5z" />
    <glyph glyph-name="eogonek" unicode="&#x119;" horiz-adv-x="424" 
d="M410 -123q-38 -36 -79 -50t-81 -14q-38 0 -55.5 19t-17.5 42q0 16 6 33t22 33.5t42 31t67 25.5h-17q-40 0 -70.5 2.5t-51.5 11.5t-32 25.5t-11 44.5q0 41 31 112l37 83q18 41 39 69.5t49.5 46.5t66 26t88.5 8q39 0 64.5 -4.5t39.5 -12.5t19.5 -20t5.5 -27q0 -25 -7.5 -57
t-30.5 -62q-16 -21 -43.5 -34.5t-60.5 -21.5t-66.5 -12t-61.5 -5q-12 -26 -18.5 -44.5t-6.5 -30.5q0 -27 37 -27q41 0 84 11t81.5 30.5t69.5 45.5t48 56l31 -39q-9 -19 -26 -38t-39 -37t-47 -34.5t-49 -28.5q-56 -29 -91 -46.5t-55 -29t-27.5 -21t-7.5 -21.5q0 -4 4 -6.5
t17 -2.5q9 0 19.5 2.5t21.5 6t21 8t17 8.5zM323 223q22 2 41.5 12t33.5 26t22 37t8 45q0 13 -19 13q-13 0 -22 -7.5t-20 -31.5z" />
    <glyph glyph-name="Ecaron" unicode="&#x11a;" horiz-adv-x="533" 
d="M143 0zM659 172q-11 -25 -33.5 -48t-51.5 -44q-55 -38 -117.5 -60.5t-132.5 -22.5q-23 0 -54.5 1.5t-59.5 10.5t-47.5 27.5t-19.5 53.5q0 48 19.5 98.5t55 94.5t84 76.5t105.5 44.5q-45 15 -63.5 44t-18.5 64q0 57 24 100.5t65.5 73.5t96 45.5t116.5 15.5q39 0 66 -3
t43 -10.5t23 -20t7 -31.5q0 -7 -1 -15t-3 -16l-170 -62q5 7 10 16.5t9 19t6.5 18t2.5 13.5q0 15 -32 15q-16 0 -34.5 -14t-34 -37t-26 -51.5t-10.5 -57.5q0 -12 3 -24.5t11.5 -24t24 -22.5t39.5 -20l-19 -42q-33 -11 -59.5 -24t-47.5 -28t-38.5 -32.5t-33.5 -36.5
q-15 -18 -26.5 -37.5t-20 -39t-13 -37t-4.5 -31.5q0 -21 14 -33t45 -12q35 0 76.5 11.5t80 31t69 45.5t44.5 56zM594 786l-98 180l52 35l96 -105l147 105l36 -42l-161 -173h-72z" />
    <glyph glyph-name="ecaron" unicode="&#x11b;" horiz-adv-x="424" 
d="M132 0zM323 223q22 2 41.5 12t33.5 26t22 37t8 45q0 13 -19 13q-12 0 -21.5 -7.5t-20.5 -31.5zM628 172q-11 -23 -33 -47t-53 -45q-57 -41 -114 -62t-131 -21q-40 0 -70.5 2.5t-51.5 11.5t-32 25.5t-11 44.5q0 41 31 112l37 83q18 41 39 69.5t49.5 46.5t66 26t88.5 8
q39 0 64.5 -4.5t39.5 -12.5t19.5 -20t5.5 -27q0 -25 -7.5 -57t-30.5 -62q-16 -21 -43.5 -34.5t-60.5 -21.5t-66.5 -12t-61.5 -5q-12 -26 -18.5 -44.5t-6.5 -30.5q0 -27 37 -27q41 0 84 11t81.5 30.5t69.5 45.5t48 56zM416 465l-98 180l52 35l96 -105l147 105l36 -42
l-161 -173h-72z" />
    <glyph glyph-name="Gbreve" unicode="&#x11e;" horiz-adv-x="543" 
d="M153 0zM747 172q-12 -26 -39 -53t-62.5 -49.5t-75 -39.5t-75.5 -24q-22 -55 -48.5 -92t-56 -59.5t-61.5 -32t-63 -9.5q-50 0 -81.5 22.5t-31.5 65.5q0 35 16.5 65t46.5 54t71 42t90 30q6 10 13.5 26t12.5 26q-17 -10 -45 -18t-61 -8q-61 0 -94 23.5t-33 68.5q0 41 27 103
l119 270q20 46 47 77.5t61.5 50.5t77 27.5t93.5 8.5q76 0 111 -14t35 -51q0 -16 -4 -31l-170 -62q5 7 10 16.5t9 19t6.5 18t2.5 13.5q0 15 -32 15q-19 0 -32 -8t-25 -35l-60 -133l214 -118q-28 -72 -61 -142.5t-65 -135.5q40 5 63 13.5t43 22.5q26 17 47 38t29 38zM423 444
l-99 -212q-3 -8 -5 -14.5t-2 -12.5q0 -21 27 -21q25 0 46.5 7.5t41.5 21.5q20 41 41 88t39 95zM339 8q-21 -6 -39.5 -16.5t-31.5 -23.5t-20.5 -27.5t-7.5 -29.5q0 -9 7 -12.5t15 -3.5q9 0 15.5 4t11.5 11q16 21 27.5 43t22.5 55zM835 1001q-9 -30 -24 -62.5t-39.5 -59.5
t-61 -44.5t-88.5 -17.5q-35 0 -58 8t-36.5 22t-19 32.5t-5.5 39.5q0 20 3.5 41t9.5 41h73q-11 -38 -11 -65q0 -23 12.5 -37t46.5 -14q27 0 46.5 12t33.5 29.5t22.5 37.5t13.5 37h82z" />
    <glyph glyph-name="gbreve" unicode="&#x11f;" horiz-adv-x="485" 
d="M80 0zM283 28q-25 -17 -41.5 -30.5t-27.5 -33.5q-14 -25 -19 -37t-5 -19q0 -13 17 -13q16 0 25 17q11 19 23 47t28 69zM424 328q3 7 3 14q0 14 -18 14q-15 0 -21.5 -5t-11.5 -16l-76 -172q-8 -18 -8 -30q0 -14 12 -14q26 0 40 30zM688 172q-11 -24 -36 -50t-55.5 -47
t-61.5 -35t-54 -14q-17 0 -31 8l-41 -95q-55 -126 -216 -126q-113 0 -113 73q0 27 12 51t32.5 43.5t47.5 34t56 21.5q-73 14 -73 92q0 21 5.5 46t19.5 54q28 64 56 103t56.5 60t59 28t65.5 7q28 0 47 -10.5t27 -29.5l9 23h117l-113 -253q-12 -24 -12 -36q0 -15 18 -15
q16 0 38 11t44 27t40 34.5t26 33.5zM688 680q-9 -30 -24 -62.5t-39.5 -59.5t-61 -44.5t-88.5 -17.5q-35 0 -58 8t-36.5 22t-19 32.5t-5.5 39.5q0 20 3.5 41t9.5 41h73q-11 -38 -11 -65q0 -23 12.5 -37t46.5 -14q27 0 46.5 12t33.5 29.5t22.5 37.5t13.5 37h82z" />
    <glyph glyph-name="Gdotaccent" unicode="&#x120;" horiz-adv-x="543" 
d="M153 0zM747 172q-12 -26 -39 -53t-62.5 -49.5t-75 -39.5t-75.5 -24q-22 -55 -48.5 -92t-56 -59.5t-61.5 -32t-63 -9.5q-50 0 -81.5 22.5t-31.5 65.5q0 35 16.5 65t46.5 54t71 42t90 30q6 10 13.5 26t12.5 26q-17 -10 -45 -18t-61 -8q-61 0 -94 23.5t-33 68.5q0 41 27 103
l119 270q20 46 47 77.5t61.5 50.5t77 27.5t93.5 8.5q76 0 111 -14t35 -51q0 -16 -4 -31l-170 -62q5 7 10 16.5t9 19t6.5 18t2.5 13.5q0 15 -32 15q-19 0 -32 -8t-25 -35l-60 -133l214 -118q-28 -72 -61 -142.5t-65 -135.5q40 5 63 13.5t43 22.5q26 17 47 38t29 38zM423 444
l-99 -212q-3 -8 -5 -14.5t-2 -12.5q0 -21 27 -21q25 0 46.5 7.5t41.5 21.5q20 41 41 88t39 95zM339 8q-21 -6 -39.5 -16.5t-31.5 -23.5t-20.5 -27.5t-7.5 -29.5q0 -9 7 -12.5t15 -3.5q9 0 15.5 4t11.5 11q16 21 27.5 43t22.5 55zM735 909q0 -19 -12.5 -34.5t-31 -26
t-40.5 -16.5t-41 -6q-26 0 -46.5 11.5t-20.5 31.5q0 16 11 31.5t29 27.5t40 19t44 7q26 0 47 -12t21 -33z" />
    <glyph glyph-name="gdotaccent" unicode="&#x121;" horiz-adv-x="485" 
d="M80 0zM283 28q-25 -17 -41.5 -30.5t-27.5 -33.5q-14 -25 -19 -37t-5 -19q0 -13 17 -13q16 0 25 17q11 19 23 47t28 69zM424 328q3 7 3 14q0 14 -18 14q-15 0 -21.5 -5t-11.5 -16l-76 -172q-8 -18 -8 -30q0 -14 12 -14q26 0 40 30zM688 172q-11 -24 -36 -50t-55.5 -47
t-61.5 -35t-54 -14q-17 0 -31 8l-41 -95q-55 -126 -216 -126q-113 0 -113 73q0 27 12 51t32.5 43.5t47.5 34t56 21.5q-73 14 -73 92q0 21 5.5 46t19.5 54q28 64 56 103t56.5 60t59 28t65.5 7q28 0 47 -10.5t27 -29.5l9 23h117l-113 -253q-12 -24 -12 -36q0 -15 18 -15
q16 0 38 11t44 27t40 34.5t26 33.5zM588 588q0 -19 -12.5 -34.5t-31 -26t-40.5 -16.5t-41 -6q-26 0 -46.5 11.5t-20.5 31.5q0 16 11 31.5t29 27.5t40 19t44 7q26 0 47 -12t21 -33z" />
    <glyph glyph-name="Gcommaaccent" unicode="&#x122;" horiz-adv-x="543" 
d="M153 0zM747 172q-12 -26 -39 -53t-62.5 -49.5t-75 -39.5t-75.5 -24q-22 -55 -48.5 -92t-56 -59.5t-61.5 -32t-63 -9.5q-50 0 -81.5 22.5t-31.5 65.5q0 35 16.5 65t46.5 54t71 42t90 30q6 10 13.5 26t12.5 26q-17 -10 -45 -18t-61 -8q-61 0 -94 23.5t-33 68.5q0 41 27 103
l119 270q20 46 47 77.5t61.5 50.5t77 27.5t93.5 8.5q76 0 111 -14t35 -51q0 -16 -4 -31l-170 -62q5 7 10 16.5t9 19t6.5 18t2.5 13.5q0 15 -32 15q-19 0 -32 -8t-25 -35l-60 -133l214 -118q-28 -72 -61 -142.5t-65 -135.5q40 5 63 13.5t43 22.5q26 17 47 38t29 38zM423 444
l-99 -212q-3 -8 -5 -14.5t-2 -12.5q0 -21 27 -21q25 0 46.5 7.5t41.5 21.5q20 41 41 88t39 95zM339 8q-21 -6 -39.5 -16.5t-31.5 -23.5t-20.5 -27.5t-7.5 -29.5q0 -9 7 -12.5t15 -3.5q9 0 15.5 4t11.5 11q16 21 27.5 43t22.5 55zM731.011 907.99l-72.9961 -144.991
l-82.9941 53.9971l107.993 123.992z" />
    <glyph glyph-name="gcommaaccent" unicode="&#x123;" horiz-adv-x="485" 
d="M80 0zM283 28q-25 -17 -41.5 -30.5t-27.5 -33.5q-14 -25 -19 -37t-5 -19q0 -13 17 -13q16 0 25 17q11 19 23 47t28 69zM424 328q3 7 3 14q0 14 -18 14q-15 0 -21.5 -5t-11.5 -16l-76 -172q-8 -18 -8 -30q0 -14 12 -14q26 0 40 30zM688 172q-11 -24 -36 -50t-55.5 -47
t-61.5 -35t-54 -14q-17 0 -31 8l-41 -95q-55 -126 -216 -126q-113 0 -113 73q0 27 12 51t32.5 43.5t47.5 34t56 21.5q-73 14 -73 92q0 21 5.5 46t19.5 54q28 64 56 103t56.5 60t59 28t65.5 7q28 0 47 -10.5t27 -29.5l9 23h117l-113 -253q-12 -24 -12 -36q0 -15 18 -15
q16 0 38 11t44 27t40 34.5t26 33.5zM578.011 580.99l-72.9961 -144.991l-82.9941 53.9971l107.993 123.992z" />
    <glyph glyph-name="Hbar" unicode="&#x126;" horiz-adv-x="586" 
d="M789 170q-13 -29 -46.5 -59.5t-76.5 -56t-90 -41.5t-87 -16q-32 0 -55 20.5t-23 49.5q0 14 8 30l116 260h-123l-159 -357h-173l231 523h-59l24 56h60l26 57q5 12 5 19q0 21 -41 21h-10q-31 0 -31 27q0 21 18 32.5t74 11.5q77 0 121.5 -14.5t44.5 -55.5q0 -11 -2.5 -23.5
t-9.5 -27.5l-21 -47h124l74 165h166l-74 -165h58l-24 -56h-59l-184 -409q-1 -3 -1 -6q0 -7 12 -7q18 0 41.5 10.5t46.5 27t41.5 36t26.5 36.5zM609 523h-124l-49 -110h124z" />
    <glyph glyph-name="hbar" unicode="&#x127;" horiz-adv-x="498" 
d="M702 172q-12 -29 -45 -59.5t-76 -56.5t-89.5 -42.5t-86.5 -16.5q-41 0 -56.5 21t-15.5 47q0 11 2 22.5t8 24.5q23 54 46.5 100t43.5 99q5 13 6 17t1 7q0 13 -15 13q-26 0 -37 -25l-143 -323h-166l236 530h-63l25 56h63l71 158h166l-71 -158h188l-24 -56h-189l-58 -128
q23 13 43 18.5t39 5.5q45 0 64.5 -17t19.5 -49q0 -20 -4.5 -39t-13.5 -43.5t-22.5 -56t-32.5 -74.5q-3 -9 -5.5 -16t-2.5 -11q0 -15 18 -15q14 0 36 11t44 27t40 34.5t25 33.5z" />
    <glyph glyph-name="Imacron" unicode="&#x12a;" horiz-adv-x="276" 
d="M80 0zM80 0l282 636q5 12 5 19q0 21 -41 21h-10q-31 0 -31 27q0 21 18 32.5t74 11.5q77 0 121.5 -14.5t44.5 -55.5q0 -11 -2.5 -23.5t-9.5 -27.5l-278 -626h-173zM335 851l25 56h320l-24 -56h-321z" />
    <glyph glyph-name="imacron" unicode="&#x12b;" horiz-adv-x="287" 
d="M116 0zM491 172q-13 -29 -46.5 -60t-77 -56.5t-91 -42t-87.5 -16.5q-32 0 -52.5 17.5t-20.5 47.5q0 24 13 50l149 334l126 -69l-106 -239q-5 -12 -5 -18q0 -15 17 -15t40 11t45 27t40 34.5t25 33.5zM225 530l25 56h320l-24 -56h-321z" />
    <glyph glyph-name="Ibreve" unicode="&#x12c;" horiz-adv-x="276" 
d="M80 0zM80 0l282 636q5 12 5 19q0 21 -41 21h-10q-31 0 -31 27q0 21 18 32.5t74 11.5q77 0 121.5 -14.5t44.5 -55.5q0 -11 -2.5 -23.5t-9.5 -27.5l-278 -626h-173zM709 1001q-9 -30 -24 -62.5t-39.5 -59.5t-61 -44.5t-88.5 -17.5q-35 0 -58 8t-36.5 22t-19 32.5t-5.5 39.5
q0 20 3.5 41t9.5 41h73q-11 -38 -11 -65q0 -23 12.5 -37t46.5 -14q27 0 46.5 12t33.5 29.5t22.5 37.5t13.5 37h82z" />
    <glyph glyph-name="ibreve" unicode="&#x12d;" horiz-adv-x="287" 
d="M116 0zM491 172q-13 -29 -46.5 -60t-77 -56.5t-91 -42t-87.5 -16.5q-32 0 -52.5 17.5t-20.5 47.5q0 24 13 50l149 334l126 -69l-106 -239q-5 -12 -5 -18q0 -15 17 -15t40 11t45 27t40 34.5t25 33.5zM596 680q-9 -30 -24 -62.5t-39.5 -59.5t-61 -44.5t-88.5 -17.5
q-35 0 -58 8t-36.5 22t-19 32.5t-5.5 39.5q0 20 3.5 41t9.5 41h73q-11 -38 -11 -65q0 -23 12.5 -37t46.5 -14q27 0 46.5 12t33.5 29.5t22.5 37.5t13.5 37h82z" />
    <glyph glyph-name="Iogonek" unicode="&#x12e;" horiz-adv-x="276" 
d="M261 -123q-38 -36 -78.5 -50t-81.5 -14q-38 0 -55.5 19t-17.5 42q0 16 7 34t24 35t45.5 32t72.5 25h-97l282 636q5 12 5 19q0 21 -41 21h-10q-31 0 -31 27q0 21 18 32.5t74 11.5q77 0 121.5 -14.5t44.5 -55.5q0 -11 -2.5 -23.5t-9.5 -27.5l-278 -626q-35 -16 -57.5 -28
t-35.5 -22t-18 -18t-5 -16q0 -4 4 -6.5t17 -2.5q9 0 19.5 2.5t21.5 6t21 8t17 8.5z" />
    <glyph glyph-name="iogonek" unicode="&#x12f;" horiz-adv-x="287" 
d="M271 -123q-38 -36 -79 -50t-82 -14q-38 0 -55.5 19t-17.5 42q0 16 6.5 33.5t22.5 34t43 31t68 25.5q-27 3 -44 20t-17 44q0 23 13 50l149 334l126 -69l-106 -239q-5 -12 -5 -18q0 -15 17 -15t40 11t45 27t40 34.5t25 33.5l31 -39q-16 -34 -57.5 -69.5t-93.5 -62.5
q-16 -11 -48 -28t-64.5 -35.5t-56.5 -35t-24 -25.5q0 -4 4 -6.5t17 -2.5q17 0 41 8.5t38 16.5zM507 588q0 -19 -12.5 -34.5t-31 -26t-40.5 -16.5t-41 -6q-26 0 -46.5 11.5t-20.5 31.5q0 16 11 31.5t29 27.5t40 19t45 7q26 0 46.5 -12t20.5 -33z" />
    <glyph glyph-name="Idotaccent" unicode="&#x130;" horiz-adv-x="276" 
d="M80 0zM80 0l282 636q5 12 5 19q0 21 -41 21h-10q-31 0 -31 27q0 21 18 32.5t74 11.5q77 0 121.5 -14.5t44.5 -55.5q0 -11 -2.5 -23.5t-9.5 -27.5l-278 -626h-173zM615 909q0 -19 -12.5 -34.5t-31 -26t-40.5 -16.5t-41 -6q-26 0 -46.5 11.5t-20.5 31.5q0 16 11 31.5
t29 27.5t40 19t44 7q26 0 47 -12t21 -33z" />
    <glyph glyph-name="dotlessi" unicode="&#x131;" horiz-adv-x="287" 
d="M491 172q-13 -29 -46.5 -60t-77 -56.5t-91 -42t-87.5 -16.5q-32 0 -52.5 17.5t-20.5 47.5q0 24 13 50l149 334l126 -69l-106 -239q-5 -12 -5 -18q0 -15 17 -15t40 11t45 27t40 34.5t25 33.5z" />
    <glyph glyph-name="IJ" unicode="&#x132;" horiz-adv-x="643" 
d="M80 0zM80 0l282 636q5 12 5 19q0 21 -41 21h-10q-31 0 -31 27q0 21 18 32.5t74 11.5q77 0 121.5 -14.5t44.5 -55.5q0 -11 -2.5 -23.5t-9.5 -27.5l-278 -626h-173zM728 636q5 12 5 19q0 21 -40 21h-84q-33 0 -33 29q0 11 5.5 19.5t20.5 13.5q8 2 18 4t25 3t36.5 1.5
t52.5 0.5q84 0 130 -14.5t46 -55.5q0 -24 -13 -51l-273 -612q-27 -60 -53 -98.5t-54.5 -61.5t-60 -32t-69.5 -9q-64 0 -93 20.5t-29 50.5q0 19 10 52.5t29 74t46.5 83.5t61.5 81t75 67t87 42zM537 197q-18 -6 -38.5 -28.5t-41 -53.5t-39.5 -67.5t-34 -70.5
q-15 -32 -19.5 -47.5t-4.5 -21.5q0 -12 13 -12q19 0 32 20q10 15 26 46t34.5 70t37.5 82.5t34 82.5z" />
    <glyph glyph-name="ij" unicode="&#x133;" horiz-adv-x="565" 
d="M768 172q-12 -27 -38 -54t-60 -49.5t-72.5 -39t-75.5 -23.5l-30 -67q-12 -28 -32.5 -51.5t-47 -40t-57 -25.5t-62.5 -9q-62 0 -86.5 20t-24.5 57q0 34 13 61t33 50q-11 -2 -20 -3t-19 -1q-32 0 -52.5 17.5t-20.5 47.5q0 23 13 50l149 334l126 -69l-106 -239
q-5 -12 -5 -18q0 -15 17 -15q15 0 34.5 8.5t39 21.5t37 28.5t28.5 30.5l113 252l126 -69l-122 -275q28 1 55.5 12.5t51 28t41 35t24.5 33.5zM380 23q-20 -10 -39 -23.5t-34 -29.5t-24 -32t-9 -30q0 -13 17 -13q18 0 40 27.5t49 100.5zM298 511l51 116h457l-50 -116h-458z
" />
    <glyph glyph-name="Kcommaaccent" unicode="&#x136;" horiz-adv-x="626" 
d="M79 0zM768 170q-14 -31 -48 -62t-77.5 -55.5t-90 -40t-84.5 -15.5q-32 0 -52 21t-20 47q0 27 15.5 64t36.5 76q15 28 24.5 47t15 32t7 22t1.5 17q0 33 -46 33q-11 0 -25 -1t-16 -2l-157 -353h-173l282 636q5 12 5 19q0 21 -41 21h-10q-31 0 -31 27q0 21 18 32.5t74 11.5
q77 0 121.5 -14.5t44.5 -55.5q0 -11 -2.5 -23.5t-9.5 -27.5l-86 -193q3 -1 13.5 -2.5t25.5 -1.5q24 0 42.5 20.5t33.5 51.5t29 67t29 68q15 31 33 52t40 34t49.5 19t63.5 6q18 0 29 -3t16.5 -8.5t7 -12.5t1.5 -14q0 -19 -9 -26t-25 -7q-14 0 -25 -7.5t-25 -33.5
q-23 -43 -36.5 -83t-31 -72.5t-44 -54t-74.5 -28.5q32 -12 46 -32t14 -46q0 -20 -8 -44t-22 -50q-14 -27 -22.5 -45t-13 -29t-6 -18t-1.5 -11q0 -17 18 -17q17 0 39 11t43.5 27t39 34.5t24.5 33.5l31 -39zM234 -154l73 145l83 -54l-108 -124z" />
    <glyph glyph-name="kcommaaccent" unicode="&#x137;" horiz-adv-x="504" 
d="M79 0zM708 172q-15 -31 -49.5 -62.5t-79.5 -56.5t-95.5 -40.5t-97.5 -15.5q-30 0 -42 17.5t-12 36.5q0 17 7 36.5t15 38.5t15 36.5t7 30.5q0 12 -15 12q-12 0 -22 -6t-15 -19l-78 -180h-167l332 744h165l-164 -369q24 26 57.5 38.5t86.5 12.5q32 0 52 -11.5t20 -34.5
q0 -34 -35.5 -69t-107.5 -59q25 -2 39 -13t14 -31q0 -8 -4 -20t-9.5 -24.5t-9.5 -24t-4 -17.5q0 -17 18 -17q17 0 39.5 11t44 27t39.5 34.5t25 33.5zM358 266q17 1 36 5.5t35.5 12t29 18t17.5 24.5l2 6q0 12 -15 12q-19 0 -47.5 -19.5t-57.5 -58.5zM213 -154l73 145l83 -54
l-108 -124z" />
    <glyph glyph-name="Lacute" unicode="&#x139;" horiz-adv-x="765" 
d="M91 0zM948 133q-44 -43 -75.5 -69.5t-60.5 -41.5t-59.5 -20t-71.5 -5q-74 0 -136.5 28.5t-131.5 72.5q-30 -32 -61 -51.5t-60 -30.5t-56 -15t-51 -4q-38 0 -66 19.5t-28 66.5q0 29 10 55.5t32 46.5t55.5 32t81.5 12h28.5t27.5 -1q31 53 56 108t57 112q18 34 34 59.5
t31 47t30 41t32 40.5q-28 30 -58.5 42.5t-75.5 12.5q-21 0 -36.5 -4.5t-27 -9.5t-20 -9.5t-14.5 -4.5q-9 0 -15.5 6.5t-6.5 14.5q0 16 13.5 28t33.5 20t44.5 11.5t47.5 3.5q65 0 104 -16t64 -38q31 29 68 45t84 16q51 0 76.5 -26.5t25.5 -66.5q0 -53 -31.5 -87t-85.5 -34
q-53 0 -91 16q-17 -34 -35 -73.5t-39.5 -85t-47.5 -96.5t-59 -107q33 -14 63 -36.5t61.5 -43.5t68.5 -36.5t85 -15.5q64 0 142 83zM282 157q-14 3 -28 3q-17 0 -33.5 -4.5t-29.5 -13.5t-20.5 -22t-7.5 -30q0 -18 24 -18q18 0 42.5 22t52.5 63zM702 616q18 -13 46 -13
q23 0 37 13t14 30q0 11 -6.5 18.5t-15.5 7.5q-23 0 -41 -14.5t-34 -41.5zM641 761l-40 38l152 202l82 -75z" />
    <glyph glyph-name="lacute" unicode="&#x13a;" horiz-adv-x="360" 
d="M131 0zM560 614q8 18 10.5 25.5t2.5 12.5q0 10 -15 10q-19 0 -27 -18l-125 -276q23 8 48.5 40t45.5 77zM564 172q-15 -32 -47 -63t-75 -56t-94 -40.5t-105 -15.5q-51 0 -81.5 27.5t-30.5 69.5q0 12 2.5 24.5t8.5 25.5l212 476q31 68 83 97.5t134 29.5q47 0 72.5 -16
t25.5 -48q0 -11 -4 -25.5t-16 -42.5l-59 -130q-66 -149 -223 -209l-60 -134q-6 -12 -6 -21q0 -12 18.5 -18.5t36.5 -6.5q24 0 50 10.5t50.5 27t45 37t31.5 40.5zM610 761l-40 38l152 202l82 -75z" />
    <glyph glyph-name="Lcommaaccent" unicode="&#x13b;" horiz-adv-x="765" 
d="M91 0zM948 133q-44 -43 -75.5 -69.5t-60.5 -41.5t-59.5 -20t-71.5 -5q-74 0 -136.5 28.5t-131.5 72.5q-30 -32 -61 -51.5t-60 -30.5t-56 -15t-51 -4q-38 0 -66 19.5t-28 66.5q0 29 10 55.5t32 46.5t55.5 32t81.5 12h28.5t27.5 -1q31 53 56 108t57 112q18 34 34 59.5
t31 47t30 41t32 40.5q-28 30 -58.5 42.5t-75.5 12.5q-21 0 -36.5 -4.5t-27 -9.5t-20 -9.5t-14.5 -4.5q-9 0 -15.5 6.5t-6.5 14.5q0 16 13.5 28t33.5 20t44.5 11.5t47.5 3.5q65 0 104 -16t64 -38q31 29 68 45t84 16q51 0 76.5 -26.5t25.5 -66.5q0 -53 -31.5 -87t-85.5 -34
q-53 0 -91 16q-17 -34 -35 -73.5t-39.5 -85t-47.5 -96.5t-59 -107q33 -14 63 -36.5t61.5 -43.5t68.5 -36.5t85 -15.5q64 0 142 83zM282 157q-14 3 -28 3q-17 0 -33.5 -4.5t-29.5 -13.5t-20.5 -22t-7.5 -30q0 -18 24 -18q18 0 42.5 22t52.5 63zM702 616q18 -13 46 -13
q23 0 37 13t14 30q0 11 -6.5 18.5t-15.5 7.5q-23 0 -41 -14.5t-34 -41.5zM305 -154l73 145l83 -54l-108 -124z" />
    <glyph glyph-name="lcommaaccent" unicode="&#x13c;" horiz-adv-x="360" 
d="M103 0zM560 614q8 18 10.5 25.5t2.5 12.5q0 10 -15 10q-19 0 -27 -18l-125 -276q23 8 48.5 40t45.5 77zM564 172q-15 -32 -47 -63t-75 -56t-94 -40.5t-105 -15.5q-51 0 -81.5 27.5t-30.5 69.5q0 12 2.5 24.5t8.5 25.5l212 476q31 68 83 97.5t134 29.5q47 0 72.5 -16
t25.5 -48q0 -11 -4 -25.5t-16 -42.5l-59 -130q-66 -149 -223 -209l-60 -134q-6 -12 -6 -21q0 -12 18.5 -18.5t36.5 -6.5q24 0 50 10.5t50.5 27t45 37t31.5 40.5zM103 -154l73 145l83 -54l-108 -124z" />
    <glyph glyph-name="Lcaron" unicode="&#x13d;" horiz-adv-x="765" 
d="M91 0zM948 133q-44 -43 -75.5 -69.5t-60.5 -41.5t-59.5 -20t-71.5 -5q-74 0 -136.5 28.5t-131.5 72.5q-30 -32 -61 -51.5t-60 -30.5t-56 -15t-51 -4q-38 0 -66 19.5t-28 66.5q0 29 10 55.5t32 46.5t55.5 32t81.5 12h28.5t27.5 -1q31 53 56 108t57 112q18 34 34 59.5
t31 47t30 41t32 40.5q-28 30 -58.5 42.5t-75.5 12.5q-21 0 -36.5 -4.5t-27 -9.5t-20 -9.5t-14.5 -4.5q-9 0 -15.5 6.5t-6.5 14.5q0 16 13.5 28t33.5 20t44.5 11.5t47.5 3.5q65 0 104 -16t64 -38q31 29 68 45t84 16q51 0 76.5 -26.5t25.5 -66.5q0 -53 -31.5 -87t-85.5 -34
q-53 0 -91 16q-17 -34 -35 -73.5t-39.5 -85t-47.5 -96.5t-59 -107q33 -14 63 -36.5t61.5 -43.5t68.5 -36.5t85 -15.5q64 0 142 83zM282 157q-14 3 -28 3q-17 0 -33.5 -4.5t-29.5 -13.5t-20.5 -22t-7.5 -30q0 -18 24 -18q18 0 42.5 22t52.5 63zM702 616q18 -13 46 -13
q23 0 37 13t14 30q0 11 -6.5 18.5t-15.5 7.5q-23 0 -41 -14.5t-34 -41.5zM866 732l73 145l83 -54l-108 -124z" />
    <glyph glyph-name="lcaron" unicode="&#x13e;" horiz-adv-x="360" 
d="M131 0zM560 614q8 18 10.5 25.5t2.5 12.5q0 10 -15 10q-19 0 -27 -18l-125 -276q23 8 48.5 40t45.5 77zM564 172q-15 -32 -47 -63t-75 -56t-94 -40.5t-105 -15.5q-51 0 -81.5 27.5t-30.5 69.5q0 12 2.5 24.5t8.5 25.5l212 476q31 68 83 97.5t134 29.5q47 0 72.5 -16
t25.5 -48q0 -11 -4 -25.5t-16 -42.5l-59 -130q-66 -149 -223 -209l-60 -134q-6 -12 -6 -21q0 -12 18.5 -18.5t36.5 -6.5q24 0 50 10.5t50.5 27t45 37t31.5 40.5zM664 732l73 145l83 -54l-108 -124z" />
    <glyph glyph-name="Ldot" unicode="&#x13f;" horiz-adv-x="765" 
d="M91 0zM948 133q-44 -43 -75.5 -69.5t-60.5 -41.5t-59.5 -20t-71.5 -5q-74 0 -136.5 28.5t-131.5 72.5q-30 -32 -61 -51.5t-60 -30.5t-56 -15t-51 -4q-38 0 -66 19.5t-28 66.5q0 29 10 55.5t32 46.5t55.5 32t81.5 12h28.5t27.5 -1q31 53 56 108t57 112q18 34 34 59.5
t31 47t30 41t32 40.5q-28 30 -58.5 42.5t-75.5 12.5q-21 0 -36.5 -4.5t-27 -9.5t-20 -9.5t-14.5 -4.5q-9 0 -15.5 6.5t-6.5 14.5q0 16 13.5 28t33.5 20t44.5 11.5t47.5 3.5q65 0 104 -16t64 -38q31 29 68 45t84 16q51 0 76.5 -26.5t25.5 -66.5q0 -53 -31.5 -87t-85.5 -34
q-53 0 -91 16q-17 -34 -35 -73.5t-39.5 -85t-47.5 -96.5t-59 -107q33 -14 63 -36.5t61.5 -43.5t68.5 -36.5t85 -15.5q64 0 142 83zM282 157q-14 3 -28 3q-17 0 -33.5 -4.5t-29.5 -13.5t-20.5 -22t-7.5 -30q0 -18 24 -18q18 0 42.5 22t52.5 63zM702 616q18 -13 46 -13
q23 0 37 13t14 30q0 11 -6.5 18.5t-15.5 7.5q-23 0 -41 -14.5t-34 -41.5zM781 373q0 -19 -12.5 -34.5t-31 -26t-40.5 -16.5t-41 -6q-26 0 -46.5 11.5t-20.5 31.5q0 16 11 31.5t29 27.5t40 19t44 7q26 0 47 -12t21 -33z" />
    <glyph glyph-name="ldot" unicode="&#x140;" horiz-adv-x="538" 
d="M131 0zM560 614q8 18 10.5 25.5t2.5 12.5q0 10 -15 10q-19 0 -27 -18l-125 -276q23 8 48.5 40t45.5 77zM564 172q-15 -32 -47 -63t-75 -56t-94 -40.5t-105 -15.5q-51 0 -81.5 27.5t-30.5 69.5q0 12 2.5 24.5t8.5 25.5l212 476q31 68 83 97.5t134 29.5q47 0 72.5 -16
t25.5 -48q0 -11 -4 -25.5t-16 -42.5l-59 -130q-66 -149 -223 -209l-60 -134q-6 -12 -6 -21q0 -12 18.5 -18.5t36.5 -6.5q24 0 50 10.5t50.5 27t45 37t31.5 40.5zM739 367q0 -19 -12.5 -34.5t-31 -26t-40.5 -16.5t-41 -6q-26 0 -46.5 11.5t-20.5 31.5q0 16 11 31.5t29 27.5
t40 19t44 7q26 0 47 -12t21 -33z" />
    <glyph glyph-name="Lslash" unicode="&#x141;" horiz-adv-x="770" 
d="M953 133q-44 -43 -75.5 -69.5t-60.5 -41.5t-59.5 -20t-72.5 -5q-37 0 -70.5 7.5t-65.5 21t-64.5 32t-66.5 40.5q-30 -32 -61 -51.5t-60 -30.5t-56.5 -15t-50.5 -4q-38 0 -66 19.5t-28 66.5q0 29 10 55.5t32 46.5t55.5 32t81.5 12h28.5t27.5 -1q18 31 34.5 64.5t33 67.5
t34 68.5t38.5 68.5l-83 19l10 50l103 -22q17 25 33.5 46.5t36.5 45.5q-28 30 -58.5 42.5t-75.5 12.5q-21 0 -36.5 -4.5t-27 -9.5t-20 -9.5t-14.5 -4.5q-10 0 -16 6.5t-6 14.5q0 16 13.5 28t33.5 20t44.5 11.5t47.5 3.5q65 0 103.5 -16t64.5 -38q30 29 67.5 45t84.5 16
q51 0 76 -26.5t25 -66.5q0 -53 -31 -87t-85 -34q-53 0 -91 16l-22 -43l138 -30l-10 -51l-150 32q-26 -57 -58.5 -124.5t-78.5 -145.5q33 -14 62.5 -36.5t61.5 -43.5t69 -36.5t85 -15.5q62 0 142 83zM287 157q-15 3 -28 3q-17 0 -33.5 -4.5t-29.5 -13.5t-20.5 -22t-7.5 -30
q0 -18 24 -18q18 0 42.5 22t52.5 63zM707 616q18 -13 46 -13q23 0 37 13t14 30q0 11 -6.5 18.5t-16.5 7.5q-41 0 -74 -56z" />
    <glyph glyph-name="lslash" unicode="&#x142;" horiz-adv-x="360" 
d="M564 172q-15 -32 -47 -63t-75 -56t-94 -40.5t-105 -15.5q-51 0 -81.5 27.5t-30.5 69.5q0 12 2.5 24.5t8.5 25.5l166 372l-106 -17l-8 52l139 22l21 47q31 68 83 97.5t134 29.5q47 0 72.5 -16t25.5 -48q0 -11 -3.5 -23t-12.5 -35l102 16l7 -52l-134 -22l-38 -82
q-66 -149 -223 -209l-60 -134q-6 -12 -6 -21q0 -12 18.5 -18.5t36.5 -6.5q24 0 50 10.5t50.5 27t45 37t31.5 40.5zM531 552l-45 -7l-80 -177q23 8 48.5 40t45.5 77zM560 614q8 18 10.5 25.5t2.5 12.5q0 10 -15 10q-19 0 -27 -18l-19 -42l45 8z" />
    <glyph glyph-name="Nacute" unicode="&#x143;" horiz-adv-x="584" 
d="M79 0zM788 170q-13 -30 -46.5 -60.5t-77 -55.5t-90.5 -41t-86 -16q-37 0 -57 18t-20 46q0 19 10 45l236 530q5 13 5 24q0 12 -15 12q-16 0 -37 -11t-42 -28t-40 -37.5t-29 -39.5l-247 -556h-173l282 636q5 12 5 19q0 21 -41 21h-10q-31 0 -31 27q0 21 18 32.5t74 11.5
q74 0 118 -13.5t47 -49.5q29 29 66 46t94 17q62 0 91 -21t29 -60q0 -34 -22 -83l-207 -465q-2 -3 -2 -8q0 -9 14 -9q16 0 39.5 10.5t46 27t41 36t26.5 36.5zM584 761l-40 38l152 202l82 -75z" />
    <glyph glyph-name="nacute" unicode="&#x144;" horiz-adv-x="502" 
d="M79 0zM706 172q-13 -30 -47 -61t-77.5 -56.5t-91 -41.5t-86.5 -16q-35 0 -54 17.5t-19 46.5q0 18 12.5 50t30 70t36.5 76t31 68q3 9 4 14t1 9q0 12 -14 12q-13 0 -23 -6.5t-15 -18.5l-148 -335h-167l198 446l105 -55q25 24 61 29.5t70 5.5q38 0 58.5 -20t20.5 -55
q0 -19 -8 -44.5t-20 -53.5t-25.5 -56.5t-23.5 -53.5q-7 -14 -7 -23q0 -15 18 -15q16 0 39 11t45 27t40 34.5t25 33.5zM408 440l-40 38l152 202l82 -75z" />
    <glyph glyph-name="Ncommaaccent" unicode="&#x145;" horiz-adv-x="584" 
d="M79 0zM788 170q-13 -30 -46.5 -60.5t-77 -55.5t-90.5 -41t-86 -16q-37 0 -57 18t-20 46q0 19 10 45l236 530q5 13 5 24q0 12 -15 12q-16 0 -37 -11t-42 -28t-40 -37.5t-29 -39.5l-247 -556h-173l282 636q5 12 5 19q0 21 -41 21h-10q-31 0 -31 27q0 21 18 32.5t74 11.5
q74 0 118 -13.5t47 -49.5q29 29 66 46t94 17q62 0 91 -21t29 -60q0 -34 -22 -83l-207 -465q-2 -3 -2 -8q0 -9 14 -9q16 0 39.5 10.5t46 27t41 36t26.5 36.5zM243 -154l73 145l83 -54l-108 -124z" />
    <glyph glyph-name="ncommaaccent" unicode="&#x146;" horiz-adv-x="502" 
d="M79 0zM706 172q-13 -30 -47 -61t-77.5 -56.5t-91 -41.5t-86.5 -16q-35 0 -54 17.5t-19 46.5q0 18 12.5 50t30 70t36.5 76t31 68q3 9 4 14t1 9q0 12 -14 12q-13 0 -23 -6.5t-15 -18.5l-148 -335h-167l198 446l105 -55q25 24 61 29.5t70 5.5q38 0 58.5 -20t20.5 -55
q0 -19 -8 -44.5t-20 -53.5t-25.5 -56.5t-23.5 -53.5q-7 -14 -7 -23q0 -15 18 -15q16 0 39 11t45 27t40 34.5t25 33.5zM205 -154l73 145l83 -54l-108 -124z" />
    <glyph glyph-name="Ncaron" unicode="&#x147;" horiz-adv-x="584" 
d="M79 0zM788 170q-13 -30 -46.5 -60.5t-77 -55.5t-90.5 -41t-86 -16q-37 0 -57 18t-20 46q0 19 10 45l236 530q5 13 5 24q0 12 -15 12q-16 0 -37 -11t-42 -28t-40 -37.5t-29 -39.5l-247 -556h-173l282 636q5 12 5 19q0 21 -41 21h-10q-31 0 -31 27q0 21 18 32.5t74 11.5
q74 0 118 -13.5t47 -49.5q29 29 66 46t94 17q62 0 91 -21t29 -60q0 -34 -22 -83l-207 -465q-2 -3 -2 -8q0 -9 14 -9q16 0 39.5 10.5t46 27t41 36t26.5 36.5zM541 786l-98 180l52 35l96 -105l147 105l36 -42l-161 -173h-72z" />
    <glyph glyph-name="ncaron" unicode="&#x148;" horiz-adv-x="502" 
d="M79 0zM706 172q-13 -30 -47 -61t-77.5 -56.5t-91 -41.5t-86.5 -16q-35 0 -54 17.5t-19 46.5q0 18 12.5 50t30 70t36.5 76t31 68q3 9 4 14t1 9q0 12 -14 12q-13 0 -23 -6.5t-15 -18.5l-148 -335h-167l198 446l105 -55q25 24 61 29.5t70 5.5q38 0 58.5 -20t20.5 -55
q0 -19 -8 -44.5t-20 -53.5t-25.5 -56.5t-23.5 -53.5q-7 -14 -7 -23q0 -15 18 -15q16 0 39 11t45 27t40 34.5t25 33.5zM405 465l-98 180l52 35l96 -105l147 105l36 -42l-161 -173h-72z" />
    <glyph glyph-name="Eng" unicode="&#x14a;" horiz-adv-x="584" 
d="M787 172q-12 -27 -38 -54t-60 -49.5t-72.5 -39t-75.5 -23.5l-29 -67q-13 -28 -35 -51.5t-49.5 -40t-59.5 -25.5t-65 -9q-62 0 -86 20t-24 57q0 33 12 60t32 50h-158l282 636q5 12 5 19q0 21 -41 21h-10q-31 0 -31 27q0 21 18 32.5t74 11.5q74 0 118 -13.5t47 -49.5
q29 29 66 46t94 17q62 0 91 -21t29 -60q0 -34 -22 -83l-213 -481q28 1 55.5 12.5t50.5 28t40.5 35t24.5 33.5zM657 636q5 13 5 24q0 12 -15 12q-16 0 -37 -11t-42 -28t-40 -37.5t-29 -39.5l-236 -532q34 28 76.5 47t80.5 33zM391 23q-20 -10 -39 -23.5t-34 -29.5t-24.5 -32
t-9.5 -30q0 -13 17 -13q18 0 40 27.5t50 100.5z" />
    <glyph glyph-name="eng" unicode="&#x14b;" horiz-adv-x="502" 
d="M700 172q-12 -27 -38 -54t-60 -49.5t-72.5 -39t-75.5 -23.5l-30 -67q-12 -28 -32.5 -51.5t-47 -40t-57 -25.5t-62.5 -9q-62 0 -86.5 20t-24.5 57q0 33 12 60t32 50h-79l198 446l105 -55q25 24 61 29.5t70 5.5q38 0 58.5 -20t20.5 -55q0 -30 -17 -73t-35 -85l-42 -91
q28 1 55.5 12.5t51 28t41 35t24.5 33.5zM441 325q3 9 4 14t1 9q0 12 -14 12q-13 0 -23 -6.5t-15 -18.5l-113 -254l60 23zM312 23q-20 -10 -39 -23.5t-34 -29.5t-24.5 -32t-9.5 -30q0 -13 18 -13t40 27.5t49 100.5z" />
    <glyph glyph-name="Omacron" unicode="&#x14c;" horiz-adv-x="589" 
d="M125 0zM624 565q7 15 9.5 27t2.5 23q0 26 -17 40.5t-37 14.5q-15 0 -30 -11t-26 -35l-205 -462q-7 -14 -7 -27q0 -32 51 -32q53 0 79 59zM754 643q7 17 7 32q0 22 -14 22q-24 0 -24 -23q0 -11 7 -20t24 -11zM917 607q-8 -10 -21 -19t-29 -15.5t-33 -10.5t-33 -4
q-5 0 -10 0.5t-10 1.5q-1 -10 -4 -21.5t-14 -34.5l-161 -361q-32 -72 -107 -109t-184 -37q-94 0 -140 24t-46 69q0 12 3.5 25t9.5 28l203 456q37 83 102 115.5t148 32.5q27 0 53 -5.5t43 -16.5q14 17 34.5 24t43.5 7q30 0 49 -14t19 -43q0 -37 -21 -67q5 -1 9.5 -1.5
t8.5 -0.5q26 0 49.5 9t46.5 23q1 1 4 1q6 0 6 -5q0 -2 -1 -5t-2 -5zM495 851l25 56h320l-24 -56h-321z" />
    <glyph glyph-name="omacron" unicode="&#x14d;" horiz-adv-x="428" 
d="M124 0zM414 299q-10 6 -14.5 17.5t-4.5 24.5q0 9 1 14q-10 -5 -17.5 -14.5t-16.5 -31.5l-92 -210q-5 -11 -5 -20q0 -19 17 -19q11 0 21.5 7.5t17.5 21.5zM512 344q3 5 5.5 13t2.5 16q0 10 -3.5 16.5t-12.5 6.5q-24 0 -24 -23q0 -29 32 -29zM718 329q-55 -58 -172 -70
q-34 -87 -66 -139t-66.5 -79t-73.5 -35.5t-85 -8.5q-73 0 -102 21.5t-29 58.5q0 36 25 89l46 100q21 45 43.5 76t47 49.5t51 26.5t55.5 8q17 0 26 -0.5t15 -2.5q36 33 89 33q34 0 50 -14t16 -40q0 -28 -18 -67l17.5 -3.5t14.5 -1.5q20 0 42.5 7.5t47.5 26.5zM328 530l25 56
h320l-24 -56h-321z" />
    <glyph glyph-name="Obreve" unicode="&#x14e;" horiz-adv-x="589" 
d="M125 0zM624 565q7 15 9.5 27t2.5 23q0 26 -17 40.5t-37 14.5q-15 0 -30 -11t-26 -35l-205 -462q-7 -14 -7 -27q0 -32 51 -32q53 0 79 59zM754 643q7 17 7 32q0 22 -14 22q-24 0 -24 -23q0 -11 7 -20t24 -11zM917 607q-8 -10 -21 -19t-29 -15.5t-33 -10.5t-33 -4
q-5 0 -10 0.5t-10 1.5q-1 -10 -4 -21.5t-14 -34.5l-161 -361q-32 -72 -107 -109t-184 -37q-94 0 -140 24t-46 69q0 12 3.5 25t9.5 28l203 456q37 83 102 115.5t148 32.5q27 0 53 -5.5t43 -16.5q14 17 34.5 24t43.5 7q30 0 49 -14t19 -43q0 -37 -21 -67q5 -1 9.5 -1.5
t8.5 -0.5q26 0 49.5 9t46.5 23q1 1 4 1q6 0 6 -5q0 -2 -1 -5t-2 -5zM867 1001q-9 -30 -24 -62.5t-39.5 -59.5t-61 -44.5t-88.5 -17.5q-35 0 -58 8t-36.5 22t-19 32.5t-5.5 39.5q0 20 3.5 41t9.5 41h73q-11 -38 -11 -65q0 -23 12.5 -37t46.5 -14q27 0 46.5 12t33.5 29.5
t22.5 37.5t13.5 37h82z" />
    <glyph glyph-name="obreve" unicode="&#x14f;" horiz-adv-x="428" 
d="M124 0zM414 299q-10 6 -14.5 17.5t-4.5 24.5q0 9 1 14q-10 -5 -17.5 -14.5t-16.5 -31.5l-92 -210q-5 -11 -5 -20q0 -19 17 -19q11 0 21.5 7.5t17.5 21.5zM512 344q3 5 5.5 13t2.5 16q0 10 -3.5 16.5t-12.5 6.5q-24 0 -24 -23q0 -29 32 -29zM718 329q-55 -58 -172 -70
q-34 -87 -66 -139t-66.5 -79t-73.5 -35.5t-85 -8.5q-73 0 -102 21.5t-29 58.5q0 36 25 89l46 100q21 45 43.5 76t47 49.5t51 26.5t55.5 8q17 0 26 -0.5t15 -2.5q36 33 89 33q34 0 50 -14t16 -40q0 -28 -18 -67l17.5 -3.5t14.5 -1.5q20 0 42.5 7.5t47.5 26.5zM678 680
q-9 -30 -24 -62.5t-39.5 -59.5t-61 -44.5t-88.5 -17.5q-35 0 -58 8t-36.5 22t-19 32.5t-5.5 39.5q0 20 3.5 41t9.5 41h73q-11 -38 -11 -65q0 -23 12.5 -37t46.5 -14q27 0 46.5 12t33.5 29.5t22.5 37.5t13.5 37h82z" />
    <glyph glyph-name="Ohungarumlaut" unicode="&#x150;" horiz-adv-x="589" 
d="M125 0zM624 565q7 15 9.5 27t2.5 23q0 26 -17 40.5t-37 14.5q-15 0 -30 -11t-26 -35l-205 -462q-7 -14 -7 -27q0 -32 51 -32q53 0 79 59zM754 643q7 17 7 32q0 22 -14 22q-24 0 -24 -23q0 -11 7 -20t24 -11zM917 607q-8 -10 -21 -19t-29 -15.5t-33 -10.5t-33 -4
q-5 0 -10 0.5t-10 1.5q-1 -10 -4 -21.5t-14 -34.5l-161 -361q-32 -72 -107 -109t-184 -37q-94 0 -140 24t-46 69q0 12 3.5 25t9.5 28l203 456q37 83 102 115.5t148 32.5q27 0 53 -5.5t43 -16.5q14 17 34.5 24t43.5 7q30 0 49 -14t19 -43q0 -37 -21 -67q5 -1 9.5 -1.5
t8.5 -0.5q26 0 49.5 9t46.5 23q1 1 4 1q6 0 6 -5q0 -2 -1 -5t-2 -5zM717 761l-40 38l153 202l81 -75zM506 761l-40 38l152 202l82 -75z" />
    <glyph glyph-name="ohungarumlaut" unicode="&#x151;" horiz-adv-x="428" 
d="M124 0zM414 299q-10 6 -14.5 17.5t-4.5 24.5q0 9 1 14q-10 -5 -17.5 -14.5t-16.5 -31.5l-92 -210q-5 -11 -5 -20q0 -19 17 -19q11 0 21.5 7.5t17.5 21.5zM512 344q3 5 5.5 13t2.5 16q0 10 -3.5 16.5t-12.5 6.5q-24 0 -24 -23q0 -29 32 -29zM718 329q-55 -58 -172 -70
q-34 -87 -66 -139t-66.5 -79t-73.5 -35.5t-85 -8.5q-73 0 -102 21.5t-29 58.5q0 36 25 89l46 100q21 45 43.5 76t47 49.5t51 26.5t55.5 8q17 0 26 -0.5t15 -2.5q36 33 89 33q34 0 50 -14t16 -40q0 -28 -18 -67l17.5 -3.5t14.5 -1.5q20 0 42.5 7.5t47.5 26.5zM587 440l-40 38
l153 202l81 -75zM376 440l-40 38l152 202l82 -75z" />
    <glyph glyph-name="OE" unicode="&#x152;" horiz-adv-x="1005" 
d="M1131 172q-14 -34 -49.5 -65.5t-82 -56t-99.5 -39t-103 -14.5q-24 0 -55 1.5t-59.5 10.5t-48 27.5t-19.5 53.5q0 48 20 98.5t55 94.5t83.5 76.5t105.5 44.5q-45 15 -63 44t-18 64q0 11 1 23t3 23h-1q-5 0 -10 0.5t-10 1.5q-1 -10 -4 -21.5t-14 -34.5l-161 -361
q-32 -72 -107 -109t-184 -37q-94 0 -140 24t-46 69q0 12 3.5 25t9.5 28l203 456q37 83 102 115.5t148 32.5q27 0 53 -5.5t43 -16.5q14 17 34.5 24t43.5 7q30 0 49 -14t19 -43q0 -37 -21 -67q5 -1 9.5 -1.5t8.5 -0.5h2q38 57 109.5 87t157.5 30q79 0 109 -14t30 -51
q0 -16 -3 -31l-170 -62q5 7 10 16.5t8.5 19t6 18t2.5 13.5q0 15 -32 15q-15 0 -33.5 -14t-34.5 -37t-26.5 -51.5t-10.5 -57.5q0 -24 15 -48.5t63 -42.5l-18 -42q-61 -20 -107 -53t-76.5 -70.5t-45.5 -75.5t-15 -67q0 -21 14 -33t45 -12q35 0 77 11.5t80.5 31t69 45.5
t43.5 56zM624 565q7 15 9.5 27t2.5 23q0 26 -17 40.5t-37 14.5q-15 0 -30 -11t-26 -35l-205 -462q-7 -14 -7 -27q0 -32 51 -32q53 0 79 59zM754 643q7 17 7 32q0 22 -14 22q-24 0 -24 -23q0 -11 7 -20t24 -11z" />
    <glyph glyph-name="oe" unicode="&#x153;" horiz-adv-x="626" 
d="M829 172q-11 -23 -33 -47t-52 -45q-58 -41 -115 -62t-131 -21q-48 0 -72.5 9t-38.5 23q-20 -14 -54 -23t-78 -9q-73 0 -102 21.5t-29 58.5q0 36 25 89l46 100q21 45 43.5 76t47.5 49.5t52.5 26.5t57.5 8q45 0 75 -9.5t42 -21.5q22 14 52.5 22.5t78.5 8.5q40 0 65 -4.5
t39.5 -12.5t20 -20t5.5 -27q0 -25 -8 -57t-31 -62q-15 -21 -41 -34.5t-57 -21.5t-63 -12t-60 -5q-25 -51 -25 -75q0 -27 36 -27q41 0 82.5 11t78.5 30.5t66.5 45.5t46.5 56zM414 299q5 11 8 20.5t3 17.5t-4.5 13t-18.5 5q-12 0 -21 -11.5t-19 -34.5l-92 -210q-5 -11 -5 -20
q0 -19 17 -19q11 0 21.5 7.5t17.5 21.5zM524 223q23 2 42.5 12t33.5 26t22 37t8 45q0 13 -19 13q-14 0 -22.5 -7.5t-20.5 -31.5z" />
    <glyph glyph-name="Racute" unicode="&#x154;" horiz-adv-x="563" 
d="M79 0zM786 172q-14 -32 -48.5 -63.5t-77 -56.5t-87 -40t-80.5 -15q-37 0 -58.5 18t-21.5 45q0 28 10.5 56t35.5 73q15 27 24 47t14.5 36.5t7.5 29.5t2 27q0 23 -21.5 34t-65.5 15l-168 -378h-173l282 636q5 12 5 19q0 21 -41 21h-10q-31 0 -31 27q0 21 18 32.5t74 11.5
q62 0 103 -9t56 -32q25 19 58.5 30t95.5 11t92 -21.5t30 -68.5q0 -39 -20.5 -80.5t-54 -77.5t-75 -62t-83.5 -33q42 -6 68.5 -21t26.5 -50q0 -21 -11 -50.5t-33 -71.5q-24 -44 -31 -62.5t-7 -29.5q0 -14 19 -14q17 0 39 11t43.5 27t38.5 34.5t25 33.5zM439 420
q43 10 80 29.5t64.5 46.5t43 61.5t15.5 75.5q0 23 -11.5 34t-29.5 11q-19 0 -39.5 -14t-34.5 -47zM558 761l-40 38l152 202l82 -75z" />
    <glyph glyph-name="racute" unicode="&#x155;" horiz-adv-x="431" 
d="M70 0zM635 172q-13 -29 -46.5 -60t-77 -56.5t-91 -42t-87.5 -16.5q-36 0 -54 18t-18 50q0 13 5.5 31.5t14 39t19 42t20.5 40.5q21 39 27 55.5t6 21.5q0 7 -19 15l-21 9q-13 -35 -32.5 -67.5t-45.5 -61.5q-29 -33 -51.5 -55t-40.5 -35t-32.5 -18.5t-26.5 -5.5l-14 35
q11 9 21 25q42 73 73.5 154t59.5 162l244 -138q15 -9 21.5 -19t6.5 -19q0 -12 -9 -31.5t-20.5 -42t-20.5 -45t-9 -38.5q0 -14 16 -14q17 0 39.5 10.5t45 26.5t40.5 34.5t26 34.5zM372 440l-40 38l152 202l82 -75z" />
    <glyph glyph-name="Rcommaaccent" unicode="&#x156;" horiz-adv-x="563" 
d="M79 0zM786 172q-14 -32 -48.5 -63.5t-77 -56.5t-87 -40t-80.5 -15q-37 0 -58.5 18t-21.5 45q0 28 10.5 56t35.5 73q15 27 24 47t14.5 36.5t7.5 29.5t2 27q0 23 -21.5 34t-65.5 15l-168 -378h-173l282 636q5 12 5 19q0 21 -41 21h-10q-31 0 -31 27q0 21 18 32.5t74 11.5
q62 0 103 -9t56 -32q25 19 58.5 30t95.5 11t92 -21.5t30 -68.5q0 -39 -20.5 -80.5t-54 -77.5t-75 -62t-83.5 -33q42 -6 68.5 -21t26.5 -50q0 -21 -11 -50.5t-33 -71.5q-24 -44 -31 -62.5t-7 -29.5q0 -14 19 -14q17 0 39 11t43.5 27t38.5 34.5t25 33.5zM439 420
q43 10 80 29.5t64.5 46.5t43 61.5t15.5 75.5q0 23 -11.5 34t-29.5 11q-19 0 -39.5 -14t-34.5 -47zM251 -154l73 145l83 -54l-108 -124z" />
    <glyph glyph-name="rcommaaccent" unicode="&#x157;" horiz-adv-x="431" 
d="M70 0zM635 172q-13 -29 -46.5 -60t-77 -56.5t-91 -42t-87.5 -16.5q-36 0 -54 18t-18 50q0 13 5.5 31.5t14 39t19 42t20.5 40.5q21 39 27 55.5t6 21.5q0 7 -19 15l-21 9q-13 -35 -32.5 -67.5t-45.5 -61.5q-29 -33 -51.5 -55t-40.5 -35t-32.5 -18.5t-26.5 -5.5l-14 35
q11 9 21 25q42 73 73.5 154t59.5 162l244 -138q15 -9 21.5 -19t6.5 -19q0 -12 -9 -31.5t-20.5 -42t-20.5 -45t-9 -38.5q0 -14 16 -14q17 0 39.5 10.5t45 26.5t40.5 34.5t26 34.5zM93 -154l73 145l83 -54l-108 -124z" />
    <glyph glyph-name="Rcaron" unicode="&#x158;" horiz-adv-x="563" 
d="M79 0zM786 172q-14 -32 -48.5 -63.5t-77 -56.5t-87 -40t-80.5 -15q-37 0 -58.5 18t-21.5 45q0 28 10.5 56t35.5 73q15 27 24 47t14.5 36.5t7.5 29.5t2 27q0 23 -21.5 34t-65.5 15l-168 -378h-173l282 636q5 12 5 19q0 21 -41 21h-10q-31 0 -31 27q0 21 18 32.5t74 11.5
q62 0 103 -9t56 -32q25 19 58.5 30t95.5 11t92 -21.5t30 -68.5q0 -39 -20.5 -80.5t-54 -77.5t-75 -62t-83.5 -33q42 -6 68.5 -21t26.5 -50q0 -21 -11 -50.5t-33 -71.5q-24 -44 -31 -62.5t-7 -29.5q0 -14 19 -14q17 0 39 11t43.5 27t38.5 34.5t25 33.5zM439 420
q43 10 80 29.5t64.5 46.5t43 61.5t15.5 75.5q0 23 -11.5 34t-29.5 11q-19 0 -39.5 -14t-34.5 -47zM554 786l-98 180l52 35l96 -105l147 105l36 -42l-161 -173h-72z" />
    <glyph glyph-name="rcaron" unicode="&#x159;" horiz-adv-x="431" 
d="M70 0zM635 172q-13 -29 -46.5 -60t-77 -56.5t-91 -42t-87.5 -16.5q-36 0 -54 18t-18 50q0 13 5.5 31.5t14 39t19 42t20.5 40.5q21 39 27 55.5t6 21.5q0 7 -19 15l-21 9q-13 -35 -32.5 -67.5t-45.5 -61.5q-29 -33 -51.5 -55t-40.5 -35t-32.5 -18.5t-26.5 -5.5l-14 35
q11 9 21 25q42 73 73.5 154t59.5 162l244 -138q15 -9 21.5 -19t6.5 -19q0 -12 -9 -31.5t-20.5 -42t-20.5 -45t-9 -38.5q0 -14 16 -14q17 0 39.5 10.5t45 26.5t40.5 34.5t26 34.5zM314 465l-98 180l52 35l96 -105l147 105l36 -42l-161 -173h-72z" />
    <glyph glyph-name="Sacute" unicode="&#x15a;" horiz-adv-x="577" 
d="M152 0zM708 362q-5 -5 -14.5 -7.5t-33.5 -4.5q2 -13 4 -26.5t2 -27.5q0 -53 -25.5 -106.5t-70.5 -96t-106.5 -69.5t-134.5 -27q-39 0 -71.5 8t-56 23t-36.5 38t-13 53q0 52 24.5 99t65.5 85t93.5 65t108.5 40q-2 15 -3 32t-1 40q0 44 19 85t51 76q-34 31 -63.5 41
t-47.5 10q-14 0 -25.5 -2.5t-25.5 -9.5q-14 -8 -23 -12.5t-16 -4.5t-14 5.5t-7 16.5q0 15 10.5 27t28 19.5t40 11.5t46.5 4q45 0 80.5 -14t70.5 -43q41 29 87.5 43t94.5 14q46 0 74.5 -19t28.5 -56q0 -31 -12.5 -55.5t-33 -41.5t-46 -26t-50.5 -9q-49 0 -86 18
q-5 -14 -7 -29.5t-2 -31.5q0 -17 8 -37.5t19 -45.5q14 -1 29 -1h32q19 0 34 6zM466 327q-35 -12 -68 -30t-58.5 -42t-40.5 -54.5t-15 -67.5q0 -26 15 -45.5t41 -19.5q37 0 64.5 16.5t45.5 40.5t27 51t9 48q0 10 -0.5 20t-3 22t-6.5 26.5t-10 34.5zM654 620q14 -8 28.5 -12.5
t30.5 -4.5q10 0 20 4t18 10t13.5 13.5t5.5 14.5q0 11 -7.5 19t-21.5 8q-23 0 -46 -14t-41 -38zM610 761l-40 38l152 202l82 -75z" />
    <glyph glyph-name="sacute" unicode="&#x15b;" horiz-adv-x="442" 
d="M118 0zM645 172q-22 -39 -59 -71t-82.5 -55.5t-96.5 -36t-101 -12.5q-30 0 -55.5 9t-44 25t-29 36t-10.5 43v11q-7 -8 -21 -17t-23 -15q-5 17 -5 26q0 19 18.5 43t36.5 53q17 27 32 46.5t30.5 36.5t32.5 32.5t37 33.5q-1 7 -1.5 11.5t-0.5 13.5q0 31 9.5 59.5t26.5 49.5
t40.5 33.5t51.5 12.5q26 0 42 -10.5t16 -39.5q0 -9 -2 -20t-9.5 -24.5t-21.5 -30.5t-37 -38q81 -102 81 -158q0 -51 -24.5 -88t-77.5 -57q26 4 56.5 15.5t60.5 29t56 41t43 51.5zM329 289q-16 -11 -35.5 -28.5t-36.5 -44.5q-17 -26 -22.5 -46t-5.5 -38q0 -17 8.5 -24.5
t29.5 -7.5q17 0 32 9t25.5 23t16.5 31.5t6 34.5q0 29 -5 53t-13 38zM392 429q21 14 26 24t5 18q0 10 -9 10q-24 0 -24 -30q0 -3 0.5 -10.5t1.5 -11.5zM493 531l-40 38l152 202l82 -75z" />
    <glyph glyph-name="Scedilla" unicode="&#x15e;" horiz-adv-x="577" 
d="M150 0zM708 362q-5 -5 -14.5 -7.5t-33.5 -4.5q2 -13 4 -26.5t2 -27.5q0 -53 -25.5 -106.5t-70.5 -96t-106.5 -69.5t-134.5 -27q-39 0 -71.5 8t-56 23t-36.5 38t-13 53q0 52 24.5 99t65.5 85t93.5 65t108.5 40q-2 15 -3 32t-1 40q0 44 19 85t51 76q-34 31 -63.5 41
t-47.5 10q-14 0 -25.5 -2.5t-25.5 -9.5q-14 -8 -23 -12.5t-16 -4.5t-14 5.5t-7 16.5q0 15 10.5 27t28 19.5t40 11.5t46.5 4q45 0 80.5 -14t70.5 -43q41 29 87.5 43t94.5 14q46 0 74.5 -19t28.5 -56q0 -31 -12.5 -55.5t-33 -41.5t-46 -26t-50.5 -9q-49 0 -86 18
q-5 -14 -7 -29.5t-2 -31.5q0 -17 8 -37.5t19 -45.5q14 -1 29 -1h32q19 0 34 6zM466 327q-35 -12 -68 -30t-58.5 -42t-40.5 -54.5t-15 -67.5q0 -26 15 -45.5t41 -19.5q37 0 64.5 16.5t45.5 40.5t27 51t9 48q0 10 -0.5 20t-3 22t-6.5 26.5t-10 34.5zM654 620q14 -8 28.5 -12.5
t30.5 -4.5q10 0 20 4t18 10t13.5 13.5t5.5 14.5q0 11 -7.5 19t-21.5 8q-23 0 -46 -14t-41 -38zM150 -154l73 145l83 -54l-108 -124z" />
    <glyph glyph-name="scedilla" unicode="&#x15f;" horiz-adv-x="442" 
d="M118 0zM645 172q-22 -39 -59 -71t-82.5 -55.5t-96.5 -36t-101 -12.5q-30 0 -55.5 9t-44 25t-29 36t-10.5 43v11q-7 -8 -21 -17t-23 -15q-5 17 -5 26q0 19 18.5 43t36.5 53q17 27 32 46.5t30.5 36.5t32.5 32.5t37 33.5q-1 7 -1.5 11.5t-0.5 13.5q0 31 9.5 59.5t26.5 49.5
t40.5 33.5t51.5 12.5q26 0 42 -10.5t16 -39.5q0 -9 -2 -20t-9.5 -24.5t-21.5 -30.5t-37 -38q81 -102 81 -158q0 -51 -24.5 -88t-77.5 -57q26 4 56.5 15.5t60.5 29t56 41t43 51.5zM329 289q-16 -11 -35.5 -28.5t-36.5 -44.5q-17 -26 -22.5 -46t-5.5 -38q0 -17 8.5 -24.5
t29.5 -7.5q17 0 32 9t25.5 23t16.5 31.5t6 34.5q0 29 -5 53t-13 38zM392 429q21 14 26 24t5 18q0 10 -9 10q-24 0 -24 -30q0 -3 0.5 -10.5t1.5 -11.5zM131 -154l73 145l83 -54l-108 -124z" />
    <glyph glyph-name="Scaron" unicode="&#x160;" horiz-adv-x="577" 
d="M152 0zM708 362q-5 -5 -14.5 -7.5t-33.5 -4.5q2 -13 4 -26.5t2 -27.5q0 -53 -25.5 -106.5t-70.5 -96t-106.5 -69.5t-134.5 -27q-39 0 -71.5 8t-56 23t-36.5 38t-13 53q0 52 24.5 99t65.5 85t93.5 65t108.5 40q-2 15 -3 32t-1 40q0 44 19 85t51 76q-34 31 -63.5 41
t-47.5 10q-14 0 -25.5 -2.5t-25.5 -9.5q-14 -8 -23 -12.5t-16 -4.5t-14 5.5t-7 16.5q0 15 10.5 27t28 19.5t40 11.5t46.5 4q45 0 80.5 -14t70.5 -43q41 29 87.5 43t94.5 14q46 0 74.5 -19t28.5 -56q0 -31 -12.5 -55.5t-33 -41.5t-46 -26t-50.5 -9q-49 0 -86 18
q-5 -14 -7 -29.5t-2 -31.5q0 -17 8 -37.5t19 -45.5q14 -1 29 -1h32q19 0 34 6zM466 327q-35 -12 -68 -30t-58.5 -42t-40.5 -54.5t-15 -67.5q0 -26 15 -45.5t41 -19.5q37 0 64.5 16.5t45.5 40.5t27 51t9 48q0 10 -0.5 20t-3 22t-6.5 26.5t-10 34.5zM654 620q14 -8 28.5 -12.5
t30.5 -4.5q10 0 20 4t18 10t13.5 13.5t5.5 14.5q0 11 -7.5 19t-21.5 8q-23 0 -46 -14t-41 -38zM694 786l-98 180l52 35l96 -105l147 105l36 -42l-161 -173h-72z" />
    <glyph glyph-name="scaron" unicode="&#x161;" horiz-adv-x="442" 
d="M118 0zM645 172q-22 -39 -59 -71t-82.5 -55.5t-96.5 -36t-101 -12.5q-30 0 -55.5 9t-44 25t-29 36t-10.5 43v11q-7 -8 -21 -17t-23 -15q-5 17 -5 26q0 19 18.5 43t36.5 53q17 27 32 46.5t30.5 36.5t32.5 32.5t37 33.5q-1 7 -1.5 11.5t-0.5 13.5q0 31 9.5 59.5t26.5 49.5
t40.5 33.5t51.5 12.5q26 0 42 -10.5t16 -39.5q0 -9 -2 -20t-9.5 -24.5t-21.5 -30.5t-37 -38q81 -102 81 -158q0 -51 -24.5 -88t-77.5 -57q26 4 56.5 15.5t60.5 29t56 41t43 51.5zM329 289q-16 -11 -35.5 -28.5t-36.5 -44.5q-17 -26 -22.5 -46t-5.5 -38q0 -17 8.5 -24.5
t29.5 -7.5q17 0 32 9t25.5 23t16.5 31.5t6 34.5q0 29 -5 53t-13 38zM392 429q21 14 26 24t5 18q0 10 -9 10q-24 0 -24 -30q0 -3 0.5 -10.5t1.5 -11.5zM415 570l-98 180l52 35l96 -105l147 105l36 -42l-161 -173h-72z" />
    <glyph glyph-name="Tcedilla" unicode="&#x162;" horiz-adv-x="586" 
d="M138 0zM175 0l272 623q8 21 8 31q0 25 -37 25h-101q-27 0 -27 32q0 33 31 33h567q-28 -30 -44 -48.5t-25.5 -32t-15 -25t-11.5 -27.5h-72q8 20 17 38t21 30h-136q0 -2 0.5 -5t0.5 -7q-1 -14 -6.5 -42t-26.5 -76l-235 -549h-180zM138 -154l73 145l83 -54l-108 -124z" />
    <glyph glyph-name="tcedilla" unicode="&#x163;" horiz-adv-x="289" 
d="M56 0zM492 172q-13 -30 -46.5 -61t-76.5 -56.5t-90 -41.5t-87 -16q-34 0 -53.5 21t-19.5 50q0 9 2.5 21.5t8.5 24.5l108 243h-43l25 56h42l139 309l170 11l-142 -320h45l-25 -56h-45l-104 -232q-5 -10 -5 -16q0 -8 10 -8q18 0 41.5 11t46.5 27.5t42 36t27 35.5zM56 -154
l73 145l83 -54l-108 -124z" />
    <glyph glyph-name="Tcaron" unicode="&#x164;" horiz-adv-x="586" 
d="M175 0zM175 0l272 623q8 21 8 31q0 25 -37 25h-101q-27 0 -27 32q0 33 31 33h567q-28 -30 -44 -48.5t-25.5 -32t-15 -25t-11.5 -27.5h-72q8 20 17 38t21 30h-136q0 -2 0.5 -5t0.5 -7q-1 -14 -6.5 -42t-26.5 -76l-235 -549h-180zM539 786l-98 180l52 35l96 -105l147 105
l36 -42l-161 -173h-72z" />
    <glyph glyph-name="tcaron" unicode="&#x165;" horiz-adv-x="289" 
d="M119 0zM492 172q-13 -30 -46.5 -61t-76.5 -56.5t-90 -41.5t-87 -16q-34 0 -53.5 21t-19.5 50q0 9 2.5 21.5t8.5 24.5l108 243h-43l25 56h42l139 309l170 11l-142 -320h45l-25 -56h-45l-104 -232q-5 -10 -5 -16q0 -8 10 -8q18 0 41.5 11t46.5 27.5t42 36t27 35.5zM595 732
l73 145l83 -54l-108 -124z" />
    <glyph glyph-name="Tbar" unicode="&#x166;" horiz-adv-x="586" 
d="M175 0l196 448h-119l25 56h119l51 119q8 21 8 31q0 25 -37 25h-101q-27 0 -27 32q0 33 31 33h567q-28 -30 -44 -48.5t-25.5 -32t-15 -25t-11.5 -27.5h-72q8 20 17 38t21 30h-136q0 -2 0.5 -5t0.5 -7q-1 -14 -6.5 -42t-26.5 -76l-19 -45h138l-24 -56h-138l-192 -448h-180z
" />
    <glyph glyph-name="tbar" unicode="&#x167;" horiz-adv-x="289" 
d="M492 172q-13 -30 -46.5 -61t-76.5 -56.5t-90 -41.5t-87 -16q-34 0 -53.5 21t-19.5 50q0 9 2.5 21.5t8.5 24.5l42 95h-38l25 56h38l41 92h-43l25 56h42l139 309l170 11l-142 -320h45l-25 -56h-45l-42 -92h49l-24 -56h-50l-37 -84q-5 -10 -5 -16q0 -8 10 -8q18 0 41.5 11
t46.5 27.5t42 36t27 35.5z" />
    <glyph glyph-name="Utilde" unicode="&#x168;" 
d="M124 0zM789 170q-13 -29 -46 -59.5t-74.5 -56t-85.5 -41.5t-78 -16q-46 0 -65.5 21.5t-19.5 53.5v12q-45 -42 -99.5 -64.5t-119.5 -22.5q-77 0 -77 73q0 31 18 73l220 493q5 12 5 19q0 21 -41 21h-10q-31 0 -31 27q0 21 18 32.5t74 11.5q77 0 121.5 -14.5t44.5 -55.5
q0 -11 -2.5 -23.5t-9.5 -27.5l-232 -523q-4 -7 -4 -13q0 -10 12 -10q11 0 38 11q41 20 70 46t47 58l245 549h166l-281 -628q-2 -5 -2 -8q0 -7 12 -7q18 0 41.5 10.5t46.5 27t41.5 36t26.5 36.5zM829 901q-6 -19 -18.5 -34t-28 -25.5t-33.5 -16.5t-35 -6q-27 0 -44.5 7.5
t-32.5 16t-30 16t-36 7.5q-17 0 -39.5 -10t-45.5 -38l-20 39q15 30 48.5 54.5t79.5 24.5q28 0 45 -7.5t30 -16t25 -16t30 -7.5t40.5 10.5t46.5 42.5z" />
    <glyph glyph-name="utilde" unicode="&#x169;" horiz-adv-x="486" 
d="M128 0zM689 172q-12 -27 -44.5 -58t-73.5 -57t-84 -43t-76 -17q-29 0 -44 12t-20 26q-17 -14 -50.5 -26t-79.5 -12t-67.5 20t-21.5 56q0 41 25 97l106 239h150l-130 -291q-8 -19 -8 -34q0 -16 14 -16q22 0 42 44l148 334l127 -69l-106 -239q-4 -8 -4 -18q0 -15 18 -15
q16 0 38.5 11t44.5 27t40 34.5t26 33.5zM647 580q-6 -19 -18.5 -34t-28 -25.5t-33.5 -16.5t-35 -6q-27 0 -44.5 7.5t-32.5 16t-30 16t-36 7.5q-17 0 -39.5 -10t-45.5 -38l-20 39q15 30 48.5 54.5t79.5 24.5q28 0 45 -7.5t30 -16t25 -16t30 -7.5t40.5 10.5t46.5 42.5z" />
    <glyph glyph-name="Umacron" unicode="&#x16a;" 
d="M124 0zM789 170q-13 -29 -46 -59.5t-74.5 -56t-85.5 -41.5t-78 -16q-46 0 -65.5 21.5t-19.5 53.5v12q-45 -42 -99.5 -64.5t-119.5 -22.5q-77 0 -77 73q0 31 18 73l220 493q5 12 5 19q0 21 -41 21h-10q-31 0 -31 27q0 21 18 32.5t74 11.5q77 0 121.5 -14.5t44.5 -55.5
q0 -11 -2.5 -23.5t-9.5 -27.5l-232 -523q-4 -7 -4 -13q0 -10 12 -10q11 0 38 11q41 20 70 46t47 58l245 549h166l-281 -628q-2 -5 -2 -8q0 -7 12 -7q18 0 41.5 10.5t46.5 27t41.5 36t26.5 36.5zM493 851l25 56h320l-24 -56h-321z" />
    <glyph glyph-name="umacron" unicode="&#x16b;" horiz-adv-x="486" 
d="M128 0zM689 172q-12 -27 -44.5 -58t-73.5 -57t-84 -43t-76 -17q-29 0 -44 12t-20 26q-17 -14 -50.5 -26t-79.5 -12t-67.5 20t-21.5 56q0 41 25 97l106 239h150l-130 -291q-8 -19 -8 -34q0 -16 14 -16q22 0 42 44l148 334l127 -69l-106 -239q-4 -8 -4 -18q0 -15 18 -15
q16 0 38.5 11t44.5 27t40 34.5t26 33.5zM308 530l25 56h320l-24 -56h-321z" />
    <glyph glyph-name="Ubreve" unicode="&#x16c;" 
d="M124 0zM789 170q-13 -29 -46 -59.5t-74.5 -56t-85.5 -41.5t-78 -16q-46 0 -65.5 21.5t-19.5 53.5v12q-45 -42 -99.5 -64.5t-119.5 -22.5q-77 0 -77 73q0 31 18 73l220 493q5 12 5 19q0 21 -41 21h-10q-31 0 -31 27q0 21 18 32.5t74 11.5q77 0 121.5 -14.5t44.5 -55.5
q0 -11 -2.5 -23.5t-9.5 -27.5l-232 -523q-4 -7 -4 -13q0 -10 12 -10q11 0 38 11q41 20 70 46t47 58l245 549h166l-281 -628q-2 -5 -2 -8q0 -7 12 -7q18 0 41.5 10.5t46.5 27t41.5 36t26.5 36.5zM848 1001q-9 -30 -24 -62.5t-39.5 -59.5t-61 -44.5t-88.5 -17.5q-35 0 -58 8
t-36.5 22t-19 32.5t-5.5 39.5q0 20 3.5 41t9.5 41h73q-11 -38 -11 -65q0 -23 12.5 -37t46.5 -14q27 0 46.5 12t33.5 29.5t22.5 37.5t13.5 37h82z" />
    <glyph glyph-name="ubreve" unicode="&#x16d;" horiz-adv-x="486" 
d="M128 0zM689 172q-12 -27 -44.5 -58t-73.5 -57t-84 -43t-76 -17q-29 0 -44 12t-20 26q-17 -14 -50.5 -26t-79.5 -12t-67.5 20t-21.5 56q0 41 25 97l106 239h150l-130 -291q-8 -19 -8 -34q0 -16 14 -16q22 0 42 44l148 334l127 -69l-106 -239q-4 -8 -4 -18q0 -15 18 -15
q16 0 38.5 11t44.5 27t40 34.5t26 33.5zM675 680q-9 -30 -24 -62.5t-39.5 -59.5t-61 -44.5t-88.5 -17.5q-35 0 -58 8t-36.5 22t-19 32.5t-5.5 39.5q0 20 3.5 41t9.5 41h73q-11 -38 -11 -65q0 -23 12.5 -37t46.5 -14q27 0 46.5 12t33.5 29.5t22.5 37.5t13.5 37h82z" />
    <glyph glyph-name="Uring" unicode="&#x16e;" 
d="M124 0zM789 170q-13 -29 -46 -59.5t-74.5 -56t-85.5 -41.5t-78 -16q-46 0 -65.5 21.5t-19.5 53.5v12q-45 -42 -99.5 -64.5t-119.5 -22.5q-77 0 -77 73q0 31 18 73l220 493q5 12 5 19q0 21 -41 21h-10q-31 0 -31 27q0 21 18 32.5t74 11.5q77 0 121.5 -14.5t44.5 -55.5
q0 -11 -2.5 -23.5t-9.5 -27.5l-232 -523q-4 -7 -4 -13q0 -10 12 -10q11 0 38 11q41 20 70 46t47 58l245 549h166l-281 -628q-2 -5 -2 -8q0 -7 12 -7q18 0 41.5 10.5t46.5 27t41.5 36t26.5 36.5zM632 755q-22 0 -39.5 8t-30 22t-19 32.5t-6.5 39.5q0 25 10 50.5t27 46.5
t41 34t53 13q45 0 70.5 -30.5t25.5 -72.5q0 -30 -12 -56.5t-31 -45.5t-42.5 -30t-46.5 -11zM640 812q12 0 24 6t22 16.5t16.5 25t6.5 31.5q0 22 -12.5 38t-35.5 16q-14 0 -27 -7t-22.5 -18.5t-15.5 -26t-6 -29.5q0 -20 13.5 -36t36.5 -16z" />
    <glyph glyph-name="uring" unicode="&#x16f;" horiz-adv-x="486" 
d="M128 0zM689 172q-12 -27 -44.5 -58t-73.5 -57t-84 -43t-76 -17q-29 0 -44 12t-20 26q-17 -14 -50.5 -26t-79.5 -12t-67.5 20t-21.5 56q0 41 25 97l106 239h150l-130 -291q-8 -19 -8 -34q0 -16 14 -16q22 0 42 44l148 334l127 -69l-106 -239q-4 -8 -4 -18q0 -15 18 -15
q16 0 38.5 11t44.5 27t40 34.5t26 33.5zM437 444q-22 0 -39.5 8t-30 22t-19 32.5t-6.5 39.5q0 25 10 50.5t27 46.5t41 34t53 13q45 0 70.5 -30.5t25.5 -72.5q0 -30 -12 -56.5t-31 -45.5t-42.5 -30t-46.5 -11zM445 501q12 0 24 6t22 16.5t16.5 25t6.5 31.5q0 22 -12.5 38
t-35.5 16q-14 0 -27 -7t-22.5 -18.5t-15.5 -26t-6 -29.5q0 -20 13.5 -36t36.5 -16z" />
    <glyph glyph-name="Uhungarumlaut" unicode="&#x170;" 
d="M124 0zM789 170q-13 -29 -46 -59.5t-74.5 -56t-85.5 -41.5t-78 -16q-46 0 -65.5 21.5t-19.5 53.5v12q-45 -42 -99.5 -64.5t-119.5 -22.5q-77 0 -77 73q0 31 18 73l220 493q5 12 5 19q0 21 -41 21h-10q-31 0 -31 27q0 21 18 32.5t74 11.5q77 0 121.5 -14.5t44.5 -55.5
q0 -11 -2.5 -23.5t-9.5 -27.5l-232 -523q-4 -7 -4 -13q0 -10 12 -10q11 0 38 11q41 20 70 46t47 58l245 549h166l-281 -628q-2 -5 -2 -8q0 -7 12 -7q18 0 41.5 10.5t46.5 27t41.5 36t26.5 36.5zM709 761l-40 38l153 202l81 -75zM498 761l-40 38l152 202l82 -75z" />
    <glyph glyph-name="uhungarumlaut" unicode="&#x171;" horiz-adv-x="486" 
d="M128 0zM689 172q-12 -27 -44.5 -58t-73.5 -57t-84 -43t-76 -17q-29 0 -44 12t-20 26q-17 -14 -50.5 -26t-79.5 -12t-67.5 20t-21.5 56q0 41 25 97l106 239h150l-130 -291q-8 -19 -8 -34q0 -16 14 -16q22 0 42 44l148 334l127 -69l-106 -239q-4 -8 -4 -18q0 -15 18 -15
q16 0 38.5 11t44.5 27t40 34.5t26 33.5zM559 440l-40 38l153 202l81 -75zM348 440l-40 38l152 202l82 -75z" />
    <glyph glyph-name="Uogonek" unicode="&#x172;" 
d="M569 -123q-38 -36 -78.5 -50t-81.5 -14q-38 0 -55.5 19t-17.5 42q0 16 6.5 34t23 34.5t44.5 31.5t70 25q-32 6 -46 25.5t-14 46.5v13q-45 -42 -99.5 -64.5t-119.5 -22.5q-77 0 -77 73q0 31 18 73l220 493q5 12 5 19q0 21 -41 21h-10q-31 0 -31 27q0 21 18 32.5t74 11.5
q77 0 121.5 -14.5t44.5 -55.5q0 -11 -2.5 -23.5t-9.5 -27.5l-232 -523q-2 -4 -3 -7t-1 -6q0 -10 12 -10q11 0 38 11q41 20 70 46t47 58l245 549h166l-281 -628q-2 -5 -2 -8q0 -7 12 -7q18 0 41.5 10.5t46.5 27t41.5 36t26.5 36.5l31 -41q-9 -19 -26 -39t-40.5 -38.5
t-50.5 -35.5t-55 -30q-27 -13 -57.5 -28.5t-56 -30.5t-42 -29t-16.5 -23q0 -4 4 -6.5t18 -2.5q9 0 19.5 2.5t21.5 6t20.5 8t16.5 8.5z" />
    <glyph glyph-name="uogonek" unicode="&#x173;" horiz-adv-x="486" 
d="M472 -123q-38 -36 -78.5 -50t-81.5 -14q-38 0 -55.5 19t-17.5 42q0 16 7 34t23.5 35t45 32t72.5 25q-17 5 -27 14.5t-13 20.5q-17 -14 -50.5 -26t-79.5 -12t-67.5 20t-21.5 56q0 41 25 97l106 239h150l-130 -291q-8 -19 -8 -34q0 -16 14 -16q22 0 42 44l148 334l127 -69
l-106 -239q-4 -8 -4 -18q0 -15 18 -15q16 0 38.5 11t44.5 27t40 34.5t26 33.5l30 -39q-8 -18 -25.5 -37.5t-41 -39t-50.5 -37t-55 -31.5q-54 -28 -87.5 -45.5t-51.5 -29.5t-24 -20t-6 -16q0 -4 4 -6.5t18 -2.5q9 0 19.5 2.5t21.5 6t20.5 8t16.5 8.5z" />
    <glyph glyph-name="Wcircumflex" unicode="&#x174;" horiz-adv-x="883" 
d="M122 0zM424 76q-116 -79 -210 -79q-48 0 -70 21t-22 52q0 13 3.5 27.5t9.5 29.5l228 509q5 12 5 19q0 21 -41 21h-10q-31 0 -31 27q0 21 18 32.5t74 11.5q77 0 121.5 -14.5t44.5 -55.5q0 -23 -12 -51l-227 -507q-4 -8 -5 -13.5t-1 -10.5q0 -14 14 -14t35 11
q32 17 62 49.5t58 74.5q76 115 131.5 245t108.5 283h165q-30 -80 -61 -157.5t-64 -154t-69 -154.5t-76 -159q-7 -15 -7 -24q0 -14 15 -14q6 0 14.5 2.5t19.5 8.5q32 17 62.5 49.5t57.5 74.5q39 58 71.5 119t61 126.5t55 135.5t52.5 147h166q-30 -81 -62.5 -161t-73 -155
t-93 -145t-122.5 -131q-88 -77 -166 -116t-142 -39q-49 0 -68.5 21t-19.5 52v6zM917 786l-97 104l-147 -104l-35 41l161 174h72l98 -181z" />
    <glyph glyph-name="wcircumflex" unicode="&#x175;" horiz-adv-x="629" 
d="M133 0zM717 346q6 15 6 28q0 22 -15 22q-24 0 -24 -23q0 -12 7 -19t26 -8zM922 329q-32 -31 -78.5 -46.5t-107.5 -22.5q-6 -36 -23 -82t-48.5 -86t-78 -67.5t-111.5 -27.5q-53 0 -79 11t-33 28q-20 -16 -54.5 -27.5t-69.5 -11.5q-54 0 -80 23.5t-26 63.5q0 23 8 50.5
t22 58.5l113 253l119 -69l-117 -259q-4 -9 -6.5 -18t-2.5 -16q0 -16 15 -16q23 0 43 44l109 242l116 -70l-74 -166q-8 -16 -8 -34q0 -16 14 -16q17 0 39 25t42.5 61t35 75.5t16.5 69.5q-12 9 -15.5 20t-3.5 28q0 22 9 42t25 35t38 24t48 9q35 0 56.5 -16t21.5 -49
q0 -19 -22 -57q6 -1 13 -1.5t14 -0.5q23 0 42.5 7t43.5 22zM645 465l-97 104l-147 -104l-35 41l161 174h72l98 -181z" />
    <glyph glyph-name="Ycircumflex" unicode="&#x176;" 
d="M168 0zM784 172q-12 -26 -39 -53t-62 -49.5t-74.5 -39.5t-75.5 -24q-22 -55 -49 -92t-56.5 -59.5t-61 -32t-63.5 -9.5q-50 0 -81.5 22.5t-31.5 65.5q0 35 16.5 65t46.5 54t71 42t91 30l39 91q-87 -75 -209 -75q-77 0 -77 71q0 31 18 73l171 384q5 12 5 19q0 21 -40 21
h-11q-31 0 -31 27q0 10 4 18.5t14.5 14t28 8.5t45.5 3q77 0 122 -14.5t45 -55.5q0 -22 -13 -51l-183 -415q-4 -7 -4 -12q0 -11 12 -11t38 12q80 38 117 103l196 441h166l-297 -645q40 5 63.5 13.5t43.5 22.5q25 17 46.5 38t29.5 38zM376 8q-21 -6 -39 -16.5t-31.5 -23.5
t-21 -27.5t-7.5 -29.5q0 -9 7 -12.5t16 -3.5q16 0 26 15q17 21 28.5 43t21.5 55zM733 786l-97 104l-147 -104l-35 41l161 174h72l98 -181z" />
    <glyph glyph-name="ycircumflex" unicode="&#x177;" horiz-adv-x="486" 
d="M79 0zM689 172q-11 -24 -36 -50t-56 -47t-63 -35t-55 -14q-16 0 -30 8l-41 -95q-53 -126 -216 -126q-113 0 -113 73q0 27 12 51t32.5 43.5t47.5 34t57 21.5q-74 14 -74 92q0 20 6.5 47t18.5 53l97 218l118 -69l-95 -214q-8 -18 -8 -30q0 -14 12 -14q26 0 40 30l141 316
l118 -88l-99 -221q-11 -22 -11 -36q0 -15 17 -15q16 0 38.5 11t45 27t40.5 34.5t26 33.5zM282 28q-25 -17 -41.5 -30.5t-27.5 -33.5q-14 -25 -19 -37t-5 -19q0 -13 17 -13q16 0 25 17q11 19 23 47t28 69zM567 465l-97 104l-147 -104l-35 41l161 174h72l98 -181z" />
    <glyph glyph-name="Ydieresis" unicode="&#x178;" 
d="M168 0zM784 172q-12 -26 -39 -53t-62 -49.5t-74.5 -39.5t-75.5 -24q-22 -55 -49 -92t-56.5 -59.5t-61 -32t-63.5 -9.5q-50 0 -81.5 22.5t-31.5 65.5q0 35 16.5 65t46.5 54t71 42t91 30l39 91q-87 -75 -209 -75q-77 0 -77 71q0 31 18 73l171 384q5 12 5 19q0 21 -40 21
h-11q-31 0 -31 27q0 10 4 18.5t14.5 14t28 8.5t45.5 3q77 0 122 -14.5t45 -55.5q0 -22 -13 -51l-183 -415q-4 -7 -4 -12q0 -11 12 -11t38 12q80 38 117 103l196 441h166l-297 -645q40 5 63.5 13.5t43.5 22.5q25 17 46.5 38t29.5 38zM376 8q-21 -6 -39 -16.5t-31.5 -23.5
t-21 -27.5t-7.5 -29.5q0 -9 7 -12.5t16 -3.5q16 0 26 15q17 21 28.5 43t21.5 55zM864 909q0 -19 -12 -34.5t-30.5 -26t-40.5 -16.5t-41 -6q-26 0 -47 11.5t-21 31.5q0 16 11 31.5t29 27.5t40.5 19t44.5 7q26 0 46.5 -12t20.5 -33zM644 909q0 -19 -12.5 -34.5t-31 -26
t-40.5 -16.5t-41 -6q-26 0 -46.5 11.5t-20.5 31.5q0 16 11 31.5t29 27.5t40 19t44 7q26 0 47 -12t21 -33z" />
    <glyph glyph-name="Zacute" unicode="&#x179;" horiz-adv-x="685" 
d="M113 0zM875 133q-45 -44 -78 -70.5t-61.5 -41t-55 -19.5t-58.5 -5q-24 0 -45.5 7t-44 20t-49 31t-59.5 39q-21 -31 -46.5 -50t-52 -29.5t-52 -14t-45.5 -3.5q-19 0 -39.5 5t-37 17.5t-27.5 33t-11 51.5q0 23 7 45.5t24 40t44.5 28.5t69.5 11q28 0 49.5 -2.5t33.5 -5.5
q22 31 48 69t58 89t71 117.5t89 153.5q2 3 3.5 7.5t1.5 9.5t-3 8.5t-11 3.5h-235q-13 0 -20 10t-7 22q0 13 7.5 23t22.5 10h436q9 0 16.5 -7t7.5 -16q0 -3 -1.5 -8t-3.5 -7q-81 -133 -137 -222.5t-95 -149.5t-64 -95.5t-43 -60.5q30 -17 57 -37.5t52 -38t48.5 -29
t46.5 -11.5q36 0 71 22t73 61zM297 155q-23 5 -44 5q-38 0 -57 -14.5t-19 -37.5q0 -22 8.5 -29t22.5 -7q16 0 37 16.5t52 66.5zM598 761l-40 38l152 202l82 -75z" />
    <glyph glyph-name="zacute" unicode="&#x17a;" horiz-adv-x="442" 
d="M107 0zM645 172q-14 -32 -56 -71t-106 -68q-31 -15 -64.5 -25.5t-75.5 -10.5q-38 0 -72.5 1.5t-67.5 1.5q-30 0 -55 -0.5t-33 -2.5l-8 34q35 39 77.5 78t85 77t81.5 73t66 65q-12 1 -29 1.5t-34 1.5t-32.5 1.5t-25.5 0.5q-17 0 -34.5 -5.5t-34.5 -14.5l-8 17
q8 53 30.5 84.5t57.5 31.5q16 0 39 -3.5t49.5 -8t56 -8t59.5 -3.5q21 0 43 2.5t45 4.5l15 -17q-37 -40 -81.5 -82t-88.5 -81t-82 -72.5t-62 -57.5q9 2 21.5 4t33.5 2q22 0 52 -2.5t65 -2.5q19 0 37.5 5.5t43.5 23.5q22 16 37 31.5t24 33.5zM433 440l-40 38l152 202l82 -75z
" />
    <glyph glyph-name="Zdotaccent" unicode="&#x17b;" horiz-adv-x="685" 
d="M113 0zM875 133q-45 -44 -78 -70.5t-61.5 -41t-55 -19.5t-58.5 -5q-24 0 -45.5 7t-44 20t-49 31t-59.5 39q-21 -31 -46.5 -50t-52 -29.5t-52 -14t-45.5 -3.5q-19 0 -39.5 5t-37 17.5t-27.5 33t-11 51.5q0 23 7 45.5t24 40t44.5 28.5t69.5 11q28 0 49.5 -2.5t33.5 -5.5
q22 31 48 69t58 89t71 117.5t89 153.5q2 3 3.5 7.5t1.5 9.5t-3 8.5t-11 3.5h-235q-13 0 -20 10t-7 22q0 13 7.5 23t22.5 10h436q9 0 16.5 -7t7.5 -16q0 -3 -1.5 -8t-3.5 -7q-81 -133 -137 -222.5t-95 -149.5t-64 -95.5t-43 -60.5q30 -17 57 -37.5t52 -38t48.5 -29
t46.5 -11.5q36 0 71 22t73 61zM297 155q-23 5 -44 5q-38 0 -57 -14.5t-19 -37.5q0 -22 8.5 -29t22.5 -7q16 0 37 16.5t52 66.5zM747 909q0 -19 -12.5 -34.5t-31 -26t-40.5 -16.5t-41 -6q-26 0 -46.5 11.5t-20.5 31.5q0 16 11 31.5t29 27.5t40 19t44 7q26 0 47 -12t21 -33z
" />
    <glyph glyph-name="zdotaccent" unicode="&#x17c;" horiz-adv-x="442" 
d="M107 0zM645 172q-14 -32 -56 -71t-106 -68q-31 -15 -64.5 -25.5t-75.5 -10.5q-38 0 -72.5 1.5t-67.5 1.5q-30 0 -55 -0.5t-33 -2.5l-8 34q35 39 77.5 78t85 77t81.5 73t66 65q-12 1 -29 1.5t-34 1.5t-32.5 1.5t-25.5 0.5q-17 0 -34.5 -5.5t-34.5 -14.5l-8 17
q8 53 30.5 84.5t57.5 31.5q16 0 39 -3.5t49.5 -8t56 -8t59.5 -3.5q21 0 43 2.5t45 4.5l15 -17q-37 -40 -81.5 -82t-88.5 -81t-82 -72.5t-62 -57.5q9 2 21.5 4t33.5 2q22 0 52 -2.5t65 -2.5q19 0 37.5 5.5t43.5 23.5q22 16 37 31.5t24 33.5zM572 588q0 -19 -12.5 -34.5
t-31 -26t-40.5 -16.5t-41 -6q-26 0 -46.5 11.5t-20.5 31.5q0 16 11 31.5t29 27.5t40 19t44 7q26 0 47 -12t21 -33z" />
    <glyph glyph-name="Zcaron" unicode="&#x17d;" horiz-adv-x="685" 
d="M113 0zM875 133q-45 -44 -78 -70.5t-61.5 -41t-55 -19.5t-58.5 -5q-24 0 -45.5 7t-44 20t-49 31t-59.5 39q-21 -31 -46.5 -50t-52 -29.5t-52 -14t-45.5 -3.5q-19 0 -39.5 5t-37 17.5t-27.5 33t-11 51.5q0 23 7 45.5t24 40t44.5 28.5t69.5 11q28 0 49.5 -2.5t33.5 -5.5
q22 31 48 69t58 89t71 117.5t89 153.5q2 3 3.5 7.5t1.5 9.5t-3 8.5t-11 3.5h-235q-13 0 -20 10t-7 22q0 13 7.5 23t22.5 10h436q9 0 16.5 -7t7.5 -16q0 -3 -1.5 -8t-3.5 -7q-81 -133 -137 -222.5t-95 -149.5t-64 -95.5t-43 -60.5q30 -17 57 -37.5t52 -38t48.5 -29
t46.5 -11.5q36 0 71 22t73 61zM297 155q-23 5 -44 5q-38 0 -57 -14.5t-19 -37.5q0 -22 8.5 -29t22.5 -7q16 0 37 16.5t52 66.5zM567 786l-98 180l52 35l96 -105l147 105l36 -42l-161 -173h-72z" />
    <glyph glyph-name="zcaron" unicode="&#x17e;" horiz-adv-x="442" 
d="M107 0zM645 172q-14 -32 -56 -71t-106 -68q-31 -15 -64.5 -25.5t-75.5 -10.5q-38 0 -72.5 1.5t-67.5 1.5q-30 0 -55 -0.5t-33 -2.5l-8 34q35 39 77.5 78t85 77t81.5 73t66 65q-12 1 -29 1.5t-34 1.5t-32.5 1.5t-25.5 0.5q-17 0 -34.5 -5.5t-34.5 -14.5l-8 17
q8 53 30.5 84.5t57.5 31.5q16 0 39 -3.5t49.5 -8t56 -8t59.5 -3.5q21 0 43 2.5t45 4.5l15 -17q-37 -40 -81.5 -82t-88.5 -81t-82 -72.5t-62 -57.5q9 2 21.5 4t33.5 2q22 0 52 -2.5t65 -2.5q19 0 37.5 5.5t43.5 23.5q22 16 37 31.5t24 33.5zM406 465l-98 180l52 35l96 -105
l147 105l36 -42l-161 -173h-72z" />
    <glyph glyph-name="Scommaaccent" unicode="&#x218;" horiz-adv-x="577" 
d="M150 0zM708 362q-5 -5 -14.5 -7.5t-33.5 -4.5q2 -13 4 -26.5t2 -27.5q0 -53 -25.5 -106.5t-70.5 -96t-106.5 -69.5t-134.5 -27q-39 0 -71.5 8t-56 23t-36.5 38t-13 53q0 52 24.5 99t65.5 85t93.5 65t108.5 40q-2 15 -3 32t-1 40q0 44 19 85t51 76q-34 31 -63.5 41
t-47.5 10q-14 0 -25.5 -2.5t-25.5 -9.5q-14 -8 -23 -12.5t-16 -4.5t-14 5.5t-7 16.5q0 15 10.5 27t28 19.5t40 11.5t46.5 4q45 0 80.5 -14t70.5 -43q41 29 87.5 43t94.5 14q46 0 74.5 -19t28.5 -56q0 -31 -12.5 -55.5t-33 -41.5t-46 -26t-50.5 -9q-49 0 -86 18
q-5 -14 -7 -29.5t-2 -31.5q0 -17 8 -37.5t19 -45.5q14 -1 29 -1h32q19 0 34 6zM466 327q-35 -12 -68 -30t-58.5 -42t-40.5 -54.5t-15 -67.5q0 -26 15 -45.5t41 -19.5q37 0 64.5 16.5t45.5 40.5t27 51t9 48q0 10 -0.5 20t-3 22t-6.5 26.5t-10 34.5zM654 620q14 -8 28.5 -12.5
t30.5 -4.5q10 0 20 4t18 10t13.5 13.5t5.5 14.5q0 11 -7.5 19t-21.5 8q-23 0 -46 -14t-41 -38zM150 -154l73 145l83 -54l-108 -124z" />
    <glyph glyph-name="scommaaccent" unicode="&#x219;" horiz-adv-x="442" 
d="M118 0zM645 172q-22 -39 -59 -71t-82.5 -55.5t-96.5 -36t-101 -12.5q-30 0 -55.5 9t-44 25t-29 36t-10.5 43v11q-7 -8 -21 -17t-23 -15q-5 17 -5 26q0 19 18.5 43t36.5 53q17 27 32 46.5t30.5 36.5t32.5 32.5t37 33.5q-1 7 -1.5 11.5t-0.5 13.5q0 31 9.5 59.5t26.5 49.5
t40.5 33.5t51.5 12.5q26 0 42 -10.5t16 -39.5q0 -9 -2 -20t-9.5 -24.5t-21.5 -30.5t-37 -38q81 -102 81 -158q0 -51 -24.5 -88t-77.5 -57q26 4 56.5 15.5t60.5 29t56 41t43 51.5zM329 289q-16 -11 -35.5 -28.5t-36.5 -44.5q-17 -26 -22.5 -46t-5.5 -38q0 -17 8.5 -24.5
t29.5 -7.5q17 0 32 9t25.5 23t16.5 31.5t6 34.5q0 29 -5 53t-13 38zM392 429q21 14 26 24t5 18q0 10 -9 10q-24 0 -24 -30q0 -3 0.5 -10.5t1.5 -11.5zM131 -154l73 145l83 -54l-108 -124z" />
    <glyph glyph-name="uni021A" unicode="&#x21a;" horiz-adv-x="586" 
d="M138 0zM175 0l272 623q8 21 8 31q0 25 -37 25h-101q-27 0 -27 32q0 33 31 33h567q-28 -30 -44 -48.5t-25.5 -32t-15 -25t-11.5 -27.5h-72q8 20 17 38t21 30h-136q0 -2 0.5 -5t0.5 -7q-1 -14 -6.5 -42t-26.5 -76l-235 -549h-180zM138 -154l73 145l83 -54l-108 -124z" />
    <glyph glyph-name="uni021B" unicode="&#x21b;" horiz-adv-x="289" 
d="M56 0zM492 172q-13 -30 -46.5 -61t-76.5 -56.5t-90 -41.5t-87 -16q-34 0 -53.5 21t-19.5 50q0 9 2.5 21.5t8.5 24.5l108 243h-43l25 56h42l139 309l170 11l-142 -320h45l-25 -56h-45l-104 -232q-5 -10 -5 -16q0 -8 10 -8q18 0 41.5 11t46.5 27.5t42 36t27 35.5zM56 -154
l73 145l83 -54l-108 -124z" />
    <glyph glyph-name="circumflex" unicode="&#x2c6;" horiz-adv-x="321" 
d="M455 465l-97 104l-147 -104l-35 41l161 174h72l98 -181z" />
    <glyph glyph-name="caron" unicode="&#x2c7;" horiz-adv-x="321" 
d="M274 465l-98 180l52 35l96 -105l147 105l36 -42l-161 -173h-72z" />
    <glyph glyph-name="breve" unicode="&#x2d8;" horiz-adv-x="322" 
d="M508 680q-9 -30 -24 -62.5t-39.5 -59.5t-61 -44.5t-88.5 -17.5q-35 0 -58 8t-36.5 22t-19 32.5t-5.5 39.5q0 20 3.5 41t9.5 41h73q-11 -38 -11 -65q0 -23 12.5 -37t46.5 -14q27 0 46.5 12t33.5 29.5t22.5 37.5t13.5 37h82z" />
    <glyph glyph-name="dotaccent" unicode="&#x2d9;" horiz-adv-x="181" 
d="M368 588q0 -19 -12.5 -34.5t-31 -26t-40.5 -16.5t-41 -6q-26 0 -46.5 11.5t-20.5 31.5q0 16 11 31.5t29 27.5t40 19t44 7q26 0 47 -12t21 -33z" />
    <glyph glyph-name="ring" unicode="&#x2da;" horiz-adv-x="217" 
d="M271 434q-22 0 -39.5 8t-30 22t-19 32.5t-6.5 39.5q0 25 10 50.5t27 46.5t41 34t53 13q45 0 70.5 -30.5t25.5 -72.5q0 -30 -12 -56.5t-31 -45.5t-42.5 -30t-46.5 -11zM279 491q12 0 24 6t22 16.5t16.5 25t6.5 31.5q0 22 -12.5 38t-35.5 16q-14 0 -27 -7t-22.5 -18.5
t-15.5 -26t-6 -29.5q0 -20 13.5 -36t36.5 -16z" />
    <glyph glyph-name="ogonek" unicode="&#x2db;" horiz-adv-x="350" 
d="M407 -123q-38 -36 -79 -50t-81 -14q-38 0 -55.5 19t-17.5 42q0 16 6.5 34t23.5 35t46 32t73 25h76q-35 -16 -57.5 -28t-35.5 -22t-18 -18t-5 -16q0 -4 4 -6.5t17 -2.5q9 0 19.5 2.5t21.5 6t21 8t17 8.5z" />
    <glyph glyph-name="tilde" unicode="&#x2dc;" horiz-adv-x="363" 
d="M543 580q-6 -19 -18.5 -34t-28 -25.5t-33.5 -16.5t-35 -6q-27 0 -44.5 7.5t-32.5 16t-30 16t-36 7.5q-17 0 -39.5 -10t-45.5 -38l-20 39q15 30 48.5 54.5t79.5 24.5q28 0 45 -7.5t30 -16t25 -16t30 -7.5t40.5 10.5t46.5 42.5z" />
    <glyph glyph-name="hungarumlaut" unicode="&#x2dd;" horiz-adv-x="435" 
d="M427 440l-40 38l153 202l81 -75zM216 440l-40 38l152 202l82 -75z" />
    <glyph glyph-name="Wgrave" unicode="&#x1e80;" horiz-adv-x="883" 
d="M122 0zM424 76q-116 -79 -210 -79q-48 0 -70 21t-22 52q0 13 3.5 27.5t9.5 29.5l228 509q5 12 5 19q0 21 -41 21h-10q-31 0 -31 27q0 21 18 32.5t74 11.5q77 0 121.5 -14.5t44.5 -55.5q0 -23 -12 -51l-227 -507q-4 -8 -5 -13.5t-1 -10.5q0 -14 14 -14t35 11
q32 17 62 49.5t58 74.5q76 115 131.5 245t108.5 283h165q-30 -80 -61 -157.5t-64 -154t-69 -154.5t-76 -159q-7 -15 -7 -24q0 -14 15 -14q6 0 14.5 2.5t19.5 8.5q32 17 62.5 49.5t57.5 74.5q39 58 71.5 119t61 126.5t55 135.5t52.5 147h166q-30 -81 -62.5 -161t-73 -155
t-93 -145t-122.5 -131q-88 -77 -166 -116t-142 -39q-49 0 -68.5 21t-19.5 52v6zM776 761l-158 172l95 68l113 -208z" />
    <glyph glyph-name="wgrave" unicode="&#x1e81;" horiz-adv-x="629" 
d="M133 0zM717 346q6 15 6 28q0 22 -15 22q-24 0 -24 -23q0 -12 7 -19t26 -8zM922 329q-32 -31 -78.5 -46.5t-107.5 -22.5q-6 -36 -23 -82t-48.5 -86t-78 -67.5t-111.5 -27.5q-53 0 -79 11t-33 28q-20 -16 -54.5 -27.5t-69.5 -11.5q-54 0 -80 23.5t-26 63.5q0 23 8 50.5
t22 58.5l113 253l119 -69l-117 -259q-4 -9 -6.5 -18t-2.5 -16q0 -16 15 -16q23 0 43 44l109 242l116 -70l-74 -166q-8 -16 -8 -34q0 -16 14 -16q17 0 39 25t42.5 61t35 75.5t16.5 69.5q-12 9 -15.5 20t-3.5 28q0 22 9 42t25 35t38 24t48 9q35 0 56.5 -16t21.5 -49
q0 -19 -22 -57q6 -1 13 -1.5t14 -0.5q23 0 42.5 7t43.5 22zM471 440l-158 172l95 68l113 -208z" />
    <glyph glyph-name="Wacute" unicode="&#x1e82;" horiz-adv-x="883" 
d="M122 0zM424 76q-116 -79 -210 -79q-48 0 -70 21t-22 52q0 13 3.5 27.5t9.5 29.5l228 509q5 12 5 19q0 21 -41 21h-10q-31 0 -31 27q0 21 18 32.5t74 11.5q77 0 121.5 -14.5t44.5 -55.5q0 -23 -12 -51l-227 -507q-4 -8 -5 -13.5t-1 -10.5q0 -14 14 -14t35 11
q32 17 62 49.5t58 74.5q76 115 131.5 245t108.5 283h165q-30 -80 -61 -157.5t-64 -154t-69 -154.5t-76 -159q-7 -15 -7 -24q0 -14 15 -14q6 0 14.5 2.5t19.5 8.5q32 17 62.5 49.5t57.5 74.5q39 58 71.5 119t61 126.5t55 135.5t52.5 147h166q-30 -81 -62.5 -161t-73 -155
t-93 -145t-122.5 -131q-88 -77 -166 -116t-142 -39q-49 0 -68.5 21t-19.5 52v6zM825 761l-40 38l152 202l82 -75z" />
    <glyph glyph-name="wacute" unicode="&#x1e83;" horiz-adv-x="629" 
d="M133 0zM717 346q6 15 6 28q0 22 -15 22q-24 0 -24 -23q0 -12 7 -19t26 -8zM922 329q-32 -31 -78.5 -46.5t-107.5 -22.5q-6 -36 -23 -82t-48.5 -86t-78 -67.5t-111.5 -27.5q-53 0 -79 11t-33 28q-20 -16 -54.5 -27.5t-69.5 -11.5q-54 0 -80 23.5t-26 63.5q0 23 8 50.5
t22 58.5l113 253l119 -69l-117 -259q-4 -9 -6.5 -18t-2.5 -16q0 -16 15 -16q23 0 43 44l109 242l116 -70l-74 -166q-8 -16 -8 -34q0 -16 14 -16q17 0 39 25t42.5 61t35 75.5t16.5 69.5q-12 9 -15.5 20t-3.5 28q0 22 9 42t25 35t38 24t48 9q35 0 56.5 -16t21.5 -49
q0 -19 -22 -57q6 -1 13 -1.5t14 -0.5q23 0 42.5 7t43.5 22zM538 440l-40 38l152 202l82 -75z" />
    <glyph glyph-name="Wdieresis" unicode="&#x1e84;" horiz-adv-x="883" 
d="M122 0zM424 76q-116 -79 -210 -79q-48 0 -70 21t-22 52q0 13 3.5 27.5t9.5 29.5l228 509q5 12 5 19q0 21 -41 21h-10q-31 0 -31 27q0 21 18 32.5t74 11.5q77 0 121.5 -14.5t44.5 -55.5q0 -23 -12 -51l-227 -507q-4 -8 -5 -13.5t-1 -10.5q0 -14 14 -14t35 11
q32 17 62 49.5t58 74.5q76 115 131.5 245t108.5 283h165q-30 -80 -61 -157.5t-64 -154t-69 -154.5t-76 -159q-7 -15 -7 -24q0 -14 15 -14q6 0 14.5 2.5t19.5 8.5q32 17 62.5 49.5t57.5 74.5q39 58 71.5 119t61 126.5t55 135.5t52.5 147h166q-30 -81 -62.5 -161t-73 -155
t-93 -145t-122.5 -131q-88 -77 -166 -116t-142 -39q-49 0 -68.5 21t-19.5 52v6zM1021 909q0 -19 -12 -34.5t-30.5 -26t-40.5 -16.5t-41 -6q-26 0 -47 11.5t-21 31.5q0 16 11 31.5t29 27.5t40.5 19t44.5 7q26 0 46.5 -12t20.5 -33zM801 909q0 -19 -12.5 -34.5t-31 -26
t-40.5 -16.5t-41 -6q-26 0 -46.5 11.5t-20.5 31.5q0 16 11 31.5t29 27.5t40 19t44 7q26 0 47 -12t21 -33z" />
    <glyph glyph-name="wdieresis" unicode="&#x1e85;" horiz-adv-x="629" 
d="M133 0zM717 346q6 15 6 28q0 22 -15 22q-24 0 -24 -23q0 -12 7 -19t26 -8zM922 329q-32 -31 -78.5 -46.5t-107.5 -22.5q-6 -36 -23 -82t-48.5 -86t-78 -67.5t-111.5 -27.5q-53 0 -79 11t-33 28q-20 -16 -54.5 -27.5t-69.5 -11.5q-54 0 -80 23.5t-26 63.5q0 23 8 50.5
t22 58.5l113 253l119 -69l-117 -259q-4 -9 -6.5 -18t-2.5 -16q0 -16 15 -16q23 0 43 44l109 242l116 -70l-74 -166q-8 -16 -8 -34q0 -16 14 -16q17 0 39 25t42.5 61t35 75.5t16.5 69.5q-12 9 -15.5 20t-3.5 28q0 22 9 42t25 35t38 24t48 9q35 0 56.5 -16t21.5 -49
q0 -19 -22 -57q6 -1 13 -1.5t14 -0.5q23 0 42.5 7t43.5 22zM770 588q0 -19 -12 -34.5t-30.5 -26t-40.5 -16.5t-41 -6q-26 0 -47 11.5t-21 31.5q0 16 11 31.5t29 27.5t40.5 19t44.5 7q26 0 46.5 -12t20.5 -33zM550 588q0 -19 -12.5 -34.5t-31 -26t-40.5 -16.5t-41 -6
q-26 0 -46.5 11.5t-20.5 31.5q0 16 11 31.5t29 27.5t40 19t44 7q26 0 47 -12t21 -33z" />
    <glyph glyph-name="Ygrave" unicode="&#x1ef2;" 
d="M168 0zM784 172q-12 -26 -39 -53t-62 -49.5t-74.5 -39.5t-75.5 -24q-22 -55 -49 -92t-56.5 -59.5t-61 -32t-63.5 -9.5q-50 0 -81.5 22.5t-31.5 65.5q0 35 16.5 65t46.5 54t71 42t91 30l39 91q-87 -75 -209 -75q-77 0 -77 71q0 31 18 73l171 384q5 12 5 19q0 21 -40 21
h-11q-31 0 -31 27q0 10 4 18.5t14.5 14t28 8.5t45.5 3q77 0 122 -14.5t45 -55.5q0 -22 -13 -51l-183 -415q-4 -7 -4 -12q0 -11 12 -11t38 12q80 38 117 103l196 441h166l-297 -645q40 5 63.5 13.5t43.5 22.5q25 17 46.5 38t29.5 38zM376 8q-21 -6 -39 -16.5t-31.5 -23.5
t-21 -27.5t-7.5 -29.5q0 -9 7 -12.5t16 -3.5q16 0 26 15q17 21 28.5 43t21.5 55zM611 761l-158 172l95 68l113 -208z" />
    <glyph glyph-name="ygrave" unicode="&#x1ef3;" horiz-adv-x="486" 
d="M79 0zM689 172q-11 -24 -36 -50t-56 -47t-63 -35t-55 -14q-16 0 -30 8l-41 -95q-53 -126 -216 -126q-113 0 -113 73q0 27 12 51t32.5 43.5t47.5 34t57 21.5q-74 14 -74 92q0 20 6.5 47t18.5 53l97 218l118 -69l-95 -214q-8 -18 -8 -30q0 -14 12 -14q26 0 40 30l141 316
l118 -88l-99 -221q-11 -22 -11 -36q0 -15 17 -15q16 0 38.5 11t45 27t40.5 34.5t26 33.5zM282 28q-25 -17 -41.5 -30.5t-27.5 -33.5q-14 -25 -19 -37t-5 -19q0 -13 17 -13q16 0 25 17q11 19 23 47t28 69zM409 440l-158 172l95 68l113 -208z" />
    <glyph glyph-name="endash" unicode="&#x2013;" horiz-adv-x="416" 
d="M185 357l25 56h369l-24 -56h-370z" />
    <glyph glyph-name="emdash" unicode="&#x2014;" horiz-adv-x="627" 
d="M185 357l25 56h580l-24 -56h-581z" />
    <glyph glyph-name="quoteleft" unicode="&#x2018;" horiz-adv-x="310" 
d="M428 550q-34 11 -52.5 31.5t-18.5 47.5q0 28 11 50t29 37t42.5 23t51.5 8q26 0 46.5 -11.5t20.5 -31.5q0 -18 -11 -34t-28 -28t-37.5 -18.5t-38.5 -6.5q-5 0 -9.5 0.5t-9.5 1.5q-1 -3 -1.5 -5.5t-0.5 -5.5q0 -13 6 -20.5t23 -11.5z" />
    <glyph glyph-name="quoteright" unicode="&#x2019;" horiz-adv-x="310" 
d="M375 578q23 7 41.5 17t26.5 27q-5 -1 -10 -1.5t-10 -0.5q-26 0 -42 11.5t-16 32.5q0 18 11.5 33t30 26t41 17.5t43.5 6.5q26 0 46.5 -11t20.5 -37q0 -27 -14.5 -47t-39.5 -40q-25 -19 -54.5 -33t-67.5 -23z" />
    <glyph glyph-name="quotesinglbase" unicode="&#x201a;" horiz-adv-x="310" 
d="M184 -44q23 6 41.5 16.5t26.5 27.5q-5 -1 -10 -1.5t-10 -0.5q-26 0 -42 11t-16 33q0 18 11.5 33t30 26t41 17.5t43.5 6.5q26 0 46.5 -11t20.5 -37q0 -27 -14.5 -47t-39.5 -40q-49 -38 -122 -56z" />
    <glyph glyph-name="quotedblleft" unicode="&#x201c;" horiz-adv-x="524" 
d="M357 550zM428 550q-34 11 -52.5 31.5t-18.5 47.5q0 28 11 50t29 37t42.5 23t51.5 8q26 0 46.5 -11.5t20.5 -31.5q0 -18 -11 -34t-28 -28t-37.5 -18.5t-38.5 -6.5q-5 0 -9.5 0.5t-9.5 1.5q-1 -3 -1.5 -5.5t-0.5 -5.5q0 -13 6 -20.5t23 -11.5zM642 550q-34 11 -52.5 31.5
t-18.5 47.5q0 28 11 50t29 37t42.5 23t51.5 8q26 0 46.5 -11.5t20.5 -31.5q0 -18 -11 -34t-28 -28t-37.5 -18.5t-38.5 -6.5q-5 0 -9.5 0.5t-9.5 1.5q-1 -3 -1.5 -5.5t-0.5 -5.5q0 -13 6 -20.5t23 -11.5z" />
    <glyph glyph-name="quotedblright" unicode="&#x201d;" horiz-adv-x="524" 
d="M365 556zM375 578q23 7 41.5 17t26.5 27q-5 -1 -10 -1.5t-10 -0.5q-26 0 -42 11.5t-16 32.5q0 18 11.5 33t30 26t41 17.5t43.5 6.5q26 0 46.5 -11t20.5 -37q0 -27 -14.5 -47t-39.5 -40q-25 -19 -54.5 -33t-67.5 -23zM589 578q23 7 41.5 17t26.5 27q-5 -1 -10 -1.5
t-10 -0.5q-26 0 -42 11.5t-16 32.5q0 18 11.5 33t30 26t41 17.5t43.5 6.5q26 0 46.5 -11t20.5 -37q0 -27 -14.5 -47t-39.5 -40q-25 -19 -54.5 -33t-67.5 -23z" />
    <glyph glyph-name="quotedblbase" unicode="&#x201e;" horiz-adv-x="524" 
d="M174 0zM184 -44q23 6 41.5 16.5t26.5 27.5q-5 -1 -10 -1.5t-10 -0.5q-26 0 -42 11t-16 33q0 18 11.5 33t30 26t41 17.5t43.5 6.5q26 0 46.5 -11t20.5 -37q0 -27 -14.5 -47t-39.5 -40q-49 -38 -122 -56zM398 -44q23 6 41.5 16.5t26.5 27.5q-5 -1 -10 -1.5t-10 -0.5
q-26 0 -42 11t-16 33q0 18 11.5 33t30 26t41 17.5t43.5 6.5q26 0 46.5 -11t20.5 -37q0 -27 -14.5 -47t-39.5 -40q-49 -38 -122 -56z" />
    <glyph glyph-name="dagger" unicode="&#x2020;" horiz-adv-x="629" 
d="M324 0l229 544h-186l25 56h185l60 144h70l-61 -144h188l-24 -56h-188l-229 -544h-69z" />
    <glyph glyph-name="daggerdbl" unicode="&#x2021;" horiz-adv-x="629" 
d="M453 144l-60 -144h-69l60 144h-180l25 56h179l145 344h-186l25 56h185l60 144h70l-61 -144h188l-24 -56h-188l-145 -344h195l-24 -56h-195z" />
    <glyph glyph-name="bullet" unicode="&#x2022;" horiz-adv-x="428" 
d="M540 371q-2 -30 -13.5 -56.5t-29.5 -46t-40.5 -30.5t-46.5 -11q-46 0 -75 36t-29 91q0 33 10.5 62.5t28.5 51.5t41 35t49 13q24 0 43 -10.5t33 -29t21.5 -43.5t7.5 -53v-9z" />
    <glyph glyph-name="ellipsis" unicode="&#x2026;" horiz-adv-x="970" 
d="M174 0zM366 82q0 -19 -12.5 -34.5t-31.5 -27t-41 -17.5t-40 -6q-26 0 -46.5 11.5t-20.5 32.5q0 18 11.5 33t30 26.5t40.5 18t43 6.5q26 0 46.5 -11.5t20.5 -31.5zM696 82q0 -19 -12.5 -34.5t-31.5 -27t-41 -17.5t-40 -6q-26 0 -46.5 11.5t-20.5 32.5q0 18 11.5 33
t30 26.5t40.5 18t43 6.5q26 0 46.5 -11.5t20.5 -31.5zM1026 82q0 -19 -12.5 -34.5t-31.5 -27t-41 -17.5t-40 -6q-26 0 -46.5 11.5t-20.5 32.5q0 18 11.5 33t30 26.5t40.5 18t43 6.5q26 0 46.5 -11.5t20.5 -31.5z" />
    </font>
</defs>
</svg>
