<?xml version="1.0" standalone="no"?>
<!DOCTYPE svg PUBLIC "-//W3C//DTD SVG 1.1//EN" "http://www.w3.org/Graphics/SVG/1.1/DTD/svg11.dtd" >
<svg xmlns="http://www.w3.org/2000/svg" xmlns:xlink="http://www.w3.org/1999/xlink" version="1.1">
<metadata>
Created by FontForge 20170731 at Fri Jul 20 05:07:02 2012
 By Aleksey,,,
(c) 2010-2012 Typodermic Fonts Inc. See attached license agreement. If agreement is missing visit typodermicfonts.com for more info.
</metadata>
<defs>
<font id="HemiHeadRg-BoldItalic" horiz-adv-x="675" >
  <font-face 
    font-family="Hemi Head Rg"
    font-weight="400"
    font-style="italic"
    font-stretch="normal"
    units-per-em="1000"
    panose-1="2 11 7 3 4 2 2 8 2 4"
    ascent="744"
    descent="-256"
    x-height="506"
    cap-height="677"
    bbox="-147 -256 1201 944"
    underline-thickness="50"
    underline-position="-150"
    slope="-12"
    unicode-range="U+0017-FB02"
  />
<missing-glyph horiz-adv-x="934" 
d="M45 -256v1200h849v-1200h-849zM829 511q5 17 7.5 31.5t2.5 28.5q0 48 -26.5 79t-93.5 49l-405 107q-36 10 -67 10q-50 0 -80 -28t-45 -85l-31 -118l252 -68l9 36q6 27 29 27q4 0 14 -2l131 -35q25 -7 25 -27v-7.5t-2 -8.5l-18 -69q-6 -22 -23 -22q-2 0 -12 2l-108 29
q-13 2 -24.5 4.5t-22.5 2.5q-43 0 -69 -25t-38 -70l-38 -140l230 -62l15 54q3 10 8 16t14 6q8 0 13 -1l137 -36q22 -6 43 -6q48 0 75.5 30.5t40.5 79.5zM406 74l-232 63l-51 -190l233 -61z" />
    <glyph glyph-name="copyright" unicode="&#x28;C&#x29;" horiz-adv-x="684" 
d="M189 0q-64 0 -93.5 20.5t-29.5 68.5q0 22 6 52l84 395q8 39 22 65.5t35 43.5t50.5 24.5t68.5 7.5h304q63 0 92.5 -20.5t29.5 -68.5q0 -22 -6 -52l-84 -395q-8 -39 -21.5 -65.5t-34.5 -43.5t-50.5 -24.5t-68.5 -7.5h-304zM666 547q1 5 1.5 10t0.5 10q0 19 -10.5 26.5
t-31.5 7.5h-315q-28 0 -42.5 -12t-20.5 -42l-89 -417q-2 -6 -2 -11v-10q0 -34 42 -34h315q26 0 41 12.5t22 42.5zM344 209q-26 0 -37 9t-11 28v10t2 10l33 154q6 29 22.5 43t47.5 14h132l-16 -73h-88q-17 0 -21 -19l-17 -83q-1 -3 -1 -7q0 -10 14 -10h89l-16 -76h-133z" />
    <glyph glyph-name="registered" unicode="&#x28;R&#x29;" horiz-adv-x="684" 
d="M189 0q-64 0 -93.5 20.5t-29.5 68.5q0 22 6 52l84 395q8 39 22 65.5t35 43.5t50.5 24.5t68.5 7.5h304q63 0 92.5 -20.5t29.5 -68.5q0 -22 -6 -52l-84 -395q-8 -39 -21.5 -65.5t-34.5 -43.5t-50.5 -24.5t-68.5 -7.5h-304zM666 547q1 5 1.5 10t0.5 10q0 19 -10.5 26.5
t-31.5 7.5h-315q-28 0 -42.5 -12t-20.5 -42l-89 -417q-2 -6 -2 -11v-10q0 -34 42 -34h315q26 0 41 12.5t22 42.5zM427 209l15 71v4q0 10 -17 10h-67l-18 -85h-77l37 176h77l-6 -31h62q13 0 17 4.5t6 12.5l6 27q1 2 1 7q0 9 -13 9h-144l14 63h189q38 0 38 -30q0 -5 -2 -15
l-12 -59q-5 -23 -17 -32.5t-26 -11.5q14 -2 23 -7.5t9 -17.5q0 -6 -1 -9l-18 -86h-76z" />
    <glyph glyph-name="uni2117" unicode="&#x28;P&#x29;" horiz-adv-x="684" 
d="M189 0q-64 0 -93.5 20.5t-29.5 68.5q0 22 6 52l84 395q8 39 22 65.5t35 43.5t50.5 24.5t68.5 7.5h304q63 0 92 -20t29 -68q0 -23 -6 -53l-84 -395q-8 -39 -21.5 -65.5t-34.5 -43.5t-50 -24.5t-68 -7.5h-304zM665 546q1 5 1.5 10t0.5 10q0 36 -42 36h-315q-27 0 -42 -13
t-21 -43l-89 -416q-3 -12 -3 -21q0 -35 43 -35h315q26 0 41 12.5t22 43.5zM360 269l-14 -64h-76l35 166h76l-8 -39h66q9 0 12.5 3.5t5.5 12.5l11 50q0 2 0.5 3.5t0.5 3.5q0 10 -12 10h-142l13 62h185q21 0 30 -7t9 -22q0 -4 -0.5 -8.5t-1.5 -9.5l-24 -114
q-5 -24 -17.5 -35.5t-39.5 -11.5h-109z" />
    <glyph glyph-name=".notdef" horiz-adv-x="934" 
d="M45 -256v1200h849v-1200h-849zM829 511q5 17 7.5 31.5t2.5 28.5q0 48 -26.5 79t-93.5 49l-405 107q-36 10 -67 10q-50 0 -80 -28t-45 -85l-31 -118l252 -68l9 36q6 27 29 27q4 0 14 -2l131 -35q25 -7 25 -27v-7.5t-2 -8.5l-18 -69q-6 -22 -23 -22q-2 0 -12 2l-108 29
q-13 2 -24.5 4.5t-22.5 2.5q-43 0 -69 -25t-38 -70l-38 -140l230 -62l15 54q3 10 8 16t14 6q8 0 13 -1l137 -36q22 -6 43 -6q48 0 75.5 30.5t40.5 79.5zM406 74l-232 63l-51 -190l233 -61z" />
    <glyph glyph-name=".null" horiz-adv-x="230" 
 />
    <glyph glyph-name="nonmarkingreturn" horiz-adv-x="168" 
 />
    <glyph glyph-name="uni0017" horiz-adv-x="276" 
 />
    <glyph glyph-name="space" unicode=" " horiz-adv-x="276" 
 />
    <glyph glyph-name="exclam" unicode="!" horiz-adv-x="260" 
d="M66 0l32 151h128l-32 -151h-128zM110 211l99 466h128l-99 -466h-128z" />
    <glyph glyph-name="quotedbl" unicode="&#x22;" horiz-adv-x="397" 
d="M141 409zM141 409l66 309h101l-66 -309h-101zM326 409l66 309h101l-66 -309h-101z" />
    <glyph glyph-name="numbersign" unicode="#" horiz-adv-x="538" 
d="M324 0l39 184h-111l-39 -184h-82l39 184h-98l15 72h98l35 165h-98l15 72h98l39 184h82l-39 -184h111l39 184h82l-39 -184h97l-15 -72h-97l-35 -165h97l-15 -72h-97l-39 -184h-82zM413 421h-111l-35 -165h111z" />
    <glyph glyph-name="dollar" unicode="$" horiz-adv-x="533" 
d="M238 0l19 93h-183l21 99h275q21 0 29 6.5t12 23.5l14 67q1 4 1 10q0 16 -21 16h-205q-35 0 -50.5 13.5t-15.5 36.5q0 10 3 22l26 124q9 45 34.5 66.5t78.5 21.5h89l16 78h99l-16 -78h143l-19 -90h-277q-17 0 -25 -6.5t-11 -22.5l-13 -59q-1 -4 -1.5 -6.5t-0.5 -5.5
q0 -8 5 -11.5t19 -3.5h205q35 0 50 -14t15 -37q0 -5 -0.5 -10t-1.5 -10l-30 -142q-10 -45 -35 -66.5t-77 -21.5h-54l-19 -93h-99z" />
    <glyph glyph-name="percent" unicode="%" horiz-adv-x="780" 
d="M130 0zM179 349q-26 0 -37.5 9t-11.5 27q0 9 3 23l47 220q6 30 21.5 44.5t49.5 14.5h161q26 0 37.5 -9t11.5 -29q0 -5 -0.5 -10t-1.5 -11l-47 -220q-7 -30 -23 -44.5t-49 -14.5h-161zM363 591v6q0 11 -14 11h-71q-15 0 -18 -16l-31 -146q-1 -2 -1 -6q0 -9 13 -9h71
q17 0 20 15zM147 0l551 677h80l-551 -677h-80zM511 -10q-26 0 -37.5 9t-11.5 27q0 9 3 23l47 220q6 30 21.5 44.5t49.5 14.5h161q26 0 37.5 -9t11.5 -29q0 -5 -0.5 -10t-1.5 -11l-47 -220q-7 -30 -23 -44.5t-49 -14.5h-161zM695 232v6q0 11 -14 11h-71q-15 0 -18 -16
l-31 -146q-1 -2 -1 -6q0 -9 13 -9h71q17 0 20 15z" />
    <glyph glyph-name="ampersand" unicode="&#x26;" horiz-adv-x="667" 
d="M546 0q-49 0 -79 9.5t-37 36.5q-15 -26 -40.5 -36t-56.5 -10h-168q-51 0 -73 18t-22 56q0 16 5 41l36 170q8 38 34.5 54.5t61.5 19.5q-29 3 -45 16.5t-16 42.5q0 11 3 26l25 118q12 58 45.5 86.5t96.5 28.5h321l-25 -118h-266q-19 0 -27.5 -8.5t-13.5 -30.5l-20 -93
q-1 -4 -1.5 -7t-0.5 -6q0 -11 6.5 -14.5t21.5 -3.5h166l15 71h120l-15 -71h129l-22 -102h-129l-27 -128q-3 -11 -3 -18q0 -12 8 -15.5t25 -3.5h85l-27 -129h-90zM455 294h-166q-19 0 -27.5 -7.5t-12.5 -25.5l-20 -93q-2 -5 -2 -9.5v-7.5q0 -22 28 -22h165z" />
    <glyph glyph-name="quotesingle" unicode="'" horiz-adv-x="212" 
d="M141 409l66 309h101l-66 -309h-101z" />
    <glyph glyph-name="parenleft" unicode="(" horiz-adv-x="379" 
d="M313 -145q-96 2 -150 41t-54 127q0 33 9 77l100 473q13 65 40 111t65.5 75.5t87.5 43.5t107 16l-16 -75q-42 -3 -74 -13t-55.5 -30t-39 -51t-25.5 -77l-100 -473q-4 -19 -6 -34.5t-2 -29.5q0 -55 31.5 -78t97.5 -28z" />
    <glyph glyph-name="parenright" unicode=")" horiz-adv-x="380" 
d="M19 -70q42 3 73.5 13t55 29.5t39 50.5t25.5 77l100 473q8 38 8 64q0 55 -31.5 78.5t-96.5 28.5l16 75q97 -2 150 -41.5t53 -127.5q0 -18 -2.5 -38t-7.5 -43l-98 -465q-14 -66 -40.5 -112.5t-65 -76.5t-87.5 -44.5t-107 -15.5z" />
    <glyph glyph-name="asterisk" unicode="*" horiz-adv-x="539" 
d="M479 246l-115 167l-115 -168l-62 47l123 159l-194 57l24 75l191 -69l-7 203h78l-6 -202l191 68l24 -74l-193 -57l124 -160z" />
    <glyph glyph-name="plus" unicode="+" horiz-adv-x="632" 
d="M290 88l47 218h-217l18 87h217l46 217h88l-46 -217h217l-18 -87h-217l-47 -218h-88z" />
    <glyph glyph-name="comma" unicode="," horiz-adv-x="259" 
d="M10 -98l96 249h128l-112 -249h-112z" />
    <glyph glyph-name="hyphen" unicode="-" horiz-adv-x="385" 
d="M95 302l18 84h322l-18 -84h-322z" />
    <glyph glyph-name="period" unicode="." horiz-adv-x="239" 
d="M56 0l32 151h128l-32 -151h-128z" />
    <glyph glyph-name="slash" unicode="/" horiz-adv-x="413" 
d="M25 -29l416 747h92l-416 -747h-92z" />
    <glyph glyph-name="zero" unicode="0" horiz-adv-x="650" 
d="M166 0q-51 0 -73.5 18t-22.5 55q0 19 6 45l93 441q13 60 44 89t96 29h318q51 0 73 -18t22 -56q0 -10 -1.5 -20.5t-3.5 -23.5l-93 -441q-13 -60 -44 -89t-96 -29h-318zM563 506q1 5 1.5 9t0.5 8q0 13 -7.5 18t-26.5 5h-187q-20 0 -29 -8.5t-14 -30.5l-72 -338
q-2 -10 -2 -14q0 -20 29 -20h187q24 0 34 8t14 26z" />
    <glyph glyph-name="one" unicode="1" horiz-adv-x="311" 
d="M114 0l116 548h-92l27 129h235l-143 -677h-143z" />
    <glyph glyph-name="two" unicode="2" horiz-adv-x="649" 
d="M56 0l55 260q7 34 18 58.5t28.5 40t43 22.5t60.5 7h241q21 0 29.5 9t13.5 30l19 90q3 10 3 19q0 20 -31 20h-191q-20 0 -30 -8t-15 -31l-10 -49h-137l20 94q12 58 45.5 86.5t96.5 28.5h308q51 0 73 -18t22 -55q0 -17 -5 -45l-36 -172q-11 -55 -42 -82.5t-88 -27.5h-256
q-20 0 -28.5 -8.5t-14.5 -35.5l-23 -106h396l-26 -127h-539z" />
    <glyph glyph-name="three" unicode="3" horiz-adv-x="632" 
d="M154 0q-51 0 -73.5 18t-22.5 56q0 16 5 41l22 105h139l-12 -59q-1 -5 -1.5 -8.5t-0.5 -6.5q0 -21 30 -21h191q20 0 29.5 8t14.5 28l22 106q1 4 1 11q0 18 -31 18h-148l22 100h148q20 0 28 7t12 24l20 94q1 5 1.5 8.5t0.5 7.5q0 19 -29 19h-189q-20 0 -29.5 -7.5
t-13.5 -27.5l-11 -53h-137l20 94q12 58 45.5 86.5t97.5 28.5h295q53 0 76 -19t23 -57q0 -20 -4 -39l-27 -127q-9 -42 -33.5 -61.5t-60.5 -23.5q29 -3 47.5 -15t18.5 -39q0 -5 -0.5 -10t-1.5 -10l-34 -161q-12 -58 -43 -86.5t-96 -28.5h-311z" />
    <glyph glyph-name="four" unicode="4" horiz-adv-x="621" 
d="M368 0l27 131h-336l25 117l367 429h192l-91 -430h90l-25 -116h-90l-27 -131h-132zM485 552l-266 -305h201z" />
    <glyph glyph-name="five" unicode="5" horiz-adv-x="650" 
d="M170 0q-51 0 -73 18t-22 56q0 16 5 41l22 105h140l-13 -61q-1 -5 -1.5 -9t-0.5 -8q0 -10 5.5 -13.5t20.5 -3.5h190q23 0 30.5 7t12.5 27l24 113q1 5 1.5 8.5t0.5 6.5q0 18 -26 18h-366l79 372h521l-27 -129h-378l-28 -131h302q41 0 59.5 -17.5t18.5 -49.5q0 -14 -3 -29
l-43 -203q-13 -60 -44 -89t-96 -29h-311z" />
    <glyph glyph-name="six" unicode="6" horiz-adv-x="642" 
d="M166 0q-52 0 -74 17.5t-22 55.5q0 19 6 45l93 441q13 60 44 89t96 29h306q52 0 75 -19t23 -57q0 -20 -4 -39l-20 -94h-136l10 49q1 5 1.5 9t0.5 8q0 12 -7.5 16.5t-26.5 4.5h-191q-21 0 -29.5 -7.5t-13.5 -30.5l-25 -118h308q41 0 59.5 -17t18.5 -48q0 -8 -1 -15.5
t-3 -15.5l-39 -185q-13 -60 -43.5 -89t-96.5 -29h-309zM512 262q1 5 1 13q0 20 -28 20h-235l-26 -125q-3 -14 -3 -22q0 -13 7 -17.5t21 -4.5h198q21 0 31 9t15 35z" />
    <glyph glyph-name="seven" unicode="7" horiz-adv-x="550" 
d="M80 0l393 548h-329l27 129h485l-21 -102l-399 -575h-156z" />
    <glyph glyph-name="eight" unicode="8" horiz-adv-x="644" 
d="M166 0q-51 0 -73.5 18t-22.5 56q0 16 5 41l34 161q8 38 34.5 54.5t61.5 19.5q-29 3 -45 16.5t-16 42.5q0 11 3 26l27 127q12 58 45.5 86.5t97.5 28.5h295q53 0 76 -19t23 -57q0 -20 -4 -39l-27 -127q-9 -42 -33.5 -61.5t-60.5 -23.5q29 -3 47.5 -15t18.5 -39
q0 -5 -0.5 -10t-1.5 -10l-34 -161q-12 -58 -43 -86.5t-96 -28.5h-311zM561 521q1 5 1.5 8t0.5 6q0 20 -30 20h-189q-20 0 -29 -7t-13 -27l-20 -96q-1 -4 -1.5 -7t-0.5 -6q0 -18 29 -18h191q20 0 28.5 7t12.5 24zM509 268q1 4 1 11q0 11 -6.5 15t-23.5 4h-191q-20 0 -30 -6.5
t-13 -23.5l-22 -107q-1 -5 -1.5 -8.5t-0.5 -6.5q0 -21 30 -21h191q20 0 30 8t14 28z" />
    <glyph glyph-name="nine" unicode="9" horiz-adv-x="648" 
d="M171 0q-52 0 -75 18.5t-23 56.5q0 9 1.5 19t3.5 21l22 102h138l-12 -54q-2 -5 -2 -9.5v-8.5q0 -12 7.5 -16t26.5 -4h190q21 0 29.5 7.5t13.5 30.5l24 113h-308q-41 0 -59.5 17t-18.5 48q0 16 4 31l39 187q13 60 44 89t96 29h310q51 0 73 -18t22 -55q0 -17 -5 -45
l-93 -441q-13 -60 -44 -89t-96 -29h-308zM564 508q3 13 3 22q0 13 -7 17.5t-21 4.5h-199q-21 0 -30.5 -9t-14.5 -35l-20 -95q-2 -10 -2 -14q0 -19 29 -19h235z" />
    <glyph glyph-name="colon" unicode=":" horiz-adv-x="252" 
d="M62 0l32 151h128l-32 -151h-128zM137 356l32 151h128l-32 -151h-128z" />
    <glyph glyph-name="semicolon" unicode=";" horiz-adv-x="263" 
d="M146 356l32 151h128l-32 -151h-128zM7 -98l96 249h128l-112 -249h-112z" />
    <glyph glyph-name="less" unicode="&#x3c;" horiz-adv-x="632" 
d="M118 299l14 64l569 224l-20 -95l-414 -161l346 -161l-20 -94z" />
    <glyph glyph-name="equal" unicode="=" horiz-adv-x="632" 
d="M94 187l19 87h522l-19 -87h-522zM145 424l18 88h522l-18 -88h-522z" />
    <glyph glyph-name="greater" unicode="&#x3e;" horiz-adv-x="632" 
d="M71 76l20 94l414 161l-346 161l20 95l475 -224l-14 -64z" />
    <glyph glyph-name="question" unicode="?" horiz-adv-x="627" 
d="M429 287q-16 0 -22 -5.5t-10 -22.5l-11 -48h-126l20 93q9 42 35.5 65t72.5 23h107q23 0 31 7t13 29l19 87q1 5 1.5 9.5t0.5 8.5q0 12 -7.5 17t-25.5 5h-195q-20 0 -29 -8.5t-14 -29.5l-10 -49h-137l20 94q12 58 45.5 86.5t96.5 28.5h312q52 0 74 -18t22 -55q0 -17 -5 -45
l-33 -158q-12 -57 -40 -85.5t-85 -28.5h-120zM215 0l32 151h128l-32 -151h-128z" />
    <glyph glyph-name="at" unicode="@" horiz-adv-x="618" 
d="M101 -171q-39 0 -55.5 13t-16.5 42q0 17 4 36l125 588q10 48 33.5 69.5t73.5 21.5h342q38 0 54.5 -13t16.5 -41q0 -14 -5 -37l-80 -377q-10 -48 -32.5 -69.5t-72.5 -21.5h-154q-39 0 -56 13.5t-17 42.5q0 8 1 16.5t3 18.5l40 186q11 49 36.5 70t70.5 21h101l-17 -79h-73
q-15 0 -22 -6.5t-11 -23.5l-31 -147q-3 -11 -3 -17q0 -16 22 -16h95q17 0 24.5 7t11.5 25l71 337q1 5 1.5 8.5t0.5 6.5q0 16 -21 16h-278q-17 0 -23.5 -7t-10.5 -24l-112 -527q-1 -5 -1.5 -9t-0.5 -7q0 -9 5 -12.5t19 -3.5h382l-21 -100h-419z" />
    <glyph glyph-name="A" unicode="A" horiz-adv-x="636" 
d="M466 0l-7 105h-244l-52 -105h-147l352 677h199l52 -677h-153zM433 541l-164 -324h185z" />
    <glyph glyph-name="B" unicode="B" horiz-adv-x="664" 
d="M56 0l106 503h152l-23 -109h212q22 0 30.5 7t12.5 24l17 82q3 10 3 18q0 12 -7 16.5t-24 4.5h-363l27 131h431q52 0 75 -18.5t23 -56.5q0 -9 -1.5 -19t-3.5 -21l-27 -127q-9 -42 -32 -61.5t-58 -23.5q29 -3 47.5 -15t18.5 -39q0 -5 -0.5 -10t-1.5 -10l-34 -161
q-12 -58 -43.5 -86.5t-95.5 -28.5h-441zM516 261q1 5 1.5 9t0.5 7q0 13 -8 17t-25 4h-214l-35 -165h214q23 0 32.5 7.5t14.5 31.5z" />
    <glyph glyph-name="C" unicode="C" horiz-adv-x="586" 
d="M165 0q-51 0 -73 18t-22 56q0 10 1 20.5t4 23.5l93 441q13 60 44.5 89t95.5 29h381l-28 -135h-306q-24 0 -32.5 -7.5t-13.5 -30.5l-71 -330q-1 -5 -1.5 -8.5t-0.5 -7.5q0 -11 7 -16t26 -5h308l-29 -137h-383z" />
    <glyph glyph-name="D" unicode="D" horiz-adv-x="676" 
d="M56 0l105 494h150l-77 -362h213q53 0 67 65l60 282q3 12 3 23q0 42 -43 42h-363l28 133h391q148 0 148 -120q0 -25 -6 -53l-71 -331q-18 -85 -71 -129t-143 -44h-391z" />
    <glyph glyph-name="E" unicode="E" horiz-adv-x="609" 
d="M51 0l105 495h157l-24 -110h249l-23 -108h-249l-30 -142h345l-28 -135h-502zM166 545l28 132h502l-28 -132h-502z" />
    <glyph glyph-name="F" unicode="F" horiz-adv-x="593" 
d="M269 269l-57 -269h-157l105 494h157l-24 -112h255l-24 -113h-255zM170 544l28 133h501l-28 -133h-501z" />
    <glyph glyph-name="G" unicode="G" horiz-adv-x="645" 
d="M166 0q-51 0 -73.5 18t-22.5 55q0 19 6 45l93 441q13 60 44 89t96 29h418l-28 -135h-352q-20 0 -27.5 -7t-12.5 -30l-73 -345q-2 -10 -2 -13q0 -10 6 -13.5t21 -3.5h217l33 154h-134l23 109h276l-83 -393h-425z" />
    <glyph glyph-name="H" unicode="H" horiz-adv-x="681" 
d="M624 0h-152l59 280h-265l-59 -280h-152l143 677h152l-57 -270h265l57 270h152z" />
    <glyph glyph-name="I" unicode="I" horiz-adv-x="270" 
d="M58 0l143 677h152l-143 -677h-152z" />
    <glyph glyph-name="J" unicode="J" horiz-adv-x="545" 
d="M28 0l29 137h273q23 0 30.5 7.5t12.5 28.5l79 372h-118l28 132h270l-118 -559q-13 -60 -44 -89t-95 -29h-347z" />
    <glyph glyph-name="K" unicode="K" horiz-adv-x="706" 
d="M500 0l51 241q3 15 3 24q0 14 -8.5 18.5t-30.5 4.5h-222l14 69l312 320h166l-277 -277h108q101 0 101 -89q0 -22 -6 -49l-55 -262h-156zM55 0l143 677h152l-143 -677h-152z" />
    <glyph glyph-name="L" unicode="L" horiz-adv-x="539" 
d="M508 0h-454l143 677h152l-114 -540h302z" />
    <glyph glyph-name="M" unicode="M" horiz-adv-x="810" 
d="M630 0l87 411l-251 -411h-119l-81 411l-87 -411h-126l143 677h164l88 -471l292 471h158l-143 -677h-125z" />
    <glyph glyph-name="N" unicode="N" horiz-adv-x="703" 
d="M545 0l-256 444l-94 -444h-141l143 677h143l222 -404l85 404h142l-143 -677h-101z" />
    <glyph glyph-name="O" unicode="O" horiz-adv-x="668" 
d="M166 0q-51 0 -73.5 18t-22.5 55q0 19 6 45l93 441q13 60 44 89t96 29h337q51 0 73 -18t22 -56q0 -10 -1.5 -21t-3.5 -23l-93 -441q-13 -60 -44.5 -89t-95.5 -29h-337zM573 506q1 5 1.5 9t0.5 7q0 23 -35 23h-189q-20 0 -28.5 -8t-13.5 -31l-72 -337q-2 -10 -2 -13
q0 -21 29 -21h189q24 0 34 8t14 26z" />
    <glyph glyph-name="P" unicode="P" horiz-adv-x="635" 
d="M254 218l-46 -218h-152l105 495h152l-33 -154h209q19 0 26.5 8t12.5 31l29 133q2 10 2 14q0 11 -6.5 14.5t-20.5 3.5h-361l28 132h424q51 0 73 -18t22 -56q0 -10 -1.5 -20.5t-3.5 -23.5l-47 -223q-13 -60 -44 -89t-96 -29h-272z" />
    <glyph glyph-name="Q" unicode="Q" horiz-adv-x="673" 
d="M446 -96l128 604q1 5 1.5 9t0.5 7q0 11 -7 15.5t-25 4.5h-197q-17 0 -25 -7.5t-13 -28.5l-64 -302q-1 -5 -1.5 -8t-0.5 -6q0 -18 25 -18h185l-28 -134h-251q-51 0 -73.5 18t-22.5 55q0 19 6 45l85 401q13 60 44 89t96 29h337q51 0 73 -18t22 -56q0 -10 -1.5 -21t-3.5 -23
l-139 -655h-151z" />
    <glyph glyph-name="R" unicode="R" horiz-adv-x="663" 
d="M459 0l46 221q1 5 1.5 8.5t0.5 6.5q0 16 -28 16h-219l-53 -252h-152l105 495h152l-28 -131h208q22 0 29.5 7t12.5 28l24 110q1 5 1.5 9t0.5 7q0 12 -7 16t-24 4h-359l28 132h430q52 0 75 -18.5t23 -56.5q0 -9 -1.5 -19t-3.5 -21l-31 -147q-11 -52 -40 -73.5t-64 -25.5
q32 -2 54 -14.5t22 -44.5v-10.5t-2 -11.5l-49 -235h-152z" />
    <glyph glyph-name="S" unicode="S" horiz-adv-x="646" 
d="M52 0l28 132h361q18 0 26.5 7t12.5 26l20 94q1 4 1 11q0 18 -26 18h-267q-41 0 -59.5 17.5t-18.5 49.5q0 12 3 29l37 175q13 60 44 89t97 29h421l-27 -129h-359q-16 0 -23 -7t-11 -25l-19 -89q-1 -4 -1.5 -7t-0.5 -6q0 -15 22 -15h271q42 0 60.5 -18t18.5 -50
q0 -13 -3 -28l-39 -185q-13 -60 -44 -89t-96 -29h-429z" />
    <glyph glyph-name="T" unicode="T" horiz-adv-x="533" 
d="M341 0h-152l115 544h-164l28 133h481l-28 -133h-165z" />
    <glyph glyph-name="U" unicode="U" 
d="M169 0q-52 0 -74 18t-22 56q0 10 1 21t4 23l118 559h152l-107 -506q-3 -12 -3 -18q0 -11 7 -14.5t23 -3.5h200q20 0 29 6.5t14 29.5l107 506h146l-118 -559q-13 -60 -44.5 -89t-95.5 -29h-337z" />
    <glyph glyph-name="V" unicode="V" horiz-adv-x="636" 
d="M225 0l-66 677h157l38 -494l257 494h151l-366 -677h-171z" />
    <glyph glyph-name="W" unicode="W" horiz-adv-x="998" 
d="M626 0l-25 483l-246 -483h-170l-26 677h156l11 -496l245 496h152l21 -495l231 495h149l-327 -677h-171z" />
    <glyph glyph-name="X" unicode="X" horiz-adv-x="662" 
d="M483 0l-96 274l-214 -274h-162l292 360l-132 317h165l94 -250l200 250h157l-272 -329l136 -348h-168z" />
    <glyph glyph-name="Y" unicode="Y" horiz-adv-x="617" 
d="M232 0l59 279l-135 398h159l83 -267l196 267h152l-303 -398l-59 -279h-152z" />
    <glyph glyph-name="Z" unicode="Z" horiz-adv-x="602" 
d="M49 0l26 123l410 421h-314l28 133h497l-24 -117l-404 -425h313l-28 -135h-504z" />
    <glyph glyph-name="bracketleft" unicode="[" horiz-adv-x="310" 
d="M44 -145l205 964h200l-16 -72h-110l-174 -818h110l-15 -74h-200z" />
    <glyph glyph-name="backslash" unicode="\" horiz-adv-x="413" 
d="M282 -29l-98 747h92l98 -747h-92z" />
    <glyph glyph-name="bracketright" unicode="]" horiz-adv-x="310" 
d="M4 -145l15 74h112l174 818h-112l16 72h200l-205 -964h-200z" />
    <glyph glyph-name="asciicircum" unicode="^" horiz-adv-x="491" 
d="M411 284l-52 254l-161 -254h-95l253 393h64l86 -393h-95z" />
    <glyph glyph-name="underscore" unicode="_" horiz-adv-x="614" 
d="M-26 -160l18 83h598l-18 -83h-598z" />
    <glyph glyph-name="grave" unicode="`" horiz-adv-x="372" 
d="M348 569l-129 204h113l105 -204h-89z" />
    <glyph glyph-name="a" unicode="a" horiz-adv-x="630" 
d="M138 0q-38 0 -55 14.5t-17 43.5q0 14 5 37l25 120q6 28 14 47t20 30t29 15.5t41 4.5h257l-18 -86h-184q-14 0 -20 -5t-9 -21l-11 -53q-1 -5 -1.5 -8t-0.5 -6q0 -13 19 -13h234l53 248q1 4 1 11q0 8 -5 12.5t-19 4.5h-343l23 110h414q44 0 62 -14.5t18 -45.5q0 -14 -5 -39
l-86 -407h-441z" />
    <glyph glyph-name="b" unicode="b" horiz-adv-x="626" 
d="M52 0l152 718h140l-126 -594h218q15 0 21.5 6t10.5 22l43 205q2 10 2 13q0 9 -5.5 12t-16.5 3h-168l26 121h238q80 0 80 -67q0 -7 -1 -15t-3 -17l-65 -308q-11 -51 -37.5 -75t-80.5 -24h-428z" />
    <glyph glyph-name="c" unicode="c" horiz-adv-x="542" 
d="M144 0q-42 0 -60.5 14.5t-18.5 45.5q0 14 5 39l65 308q11 51 36.5 75t79.5 24h357l-26 -123h-285q-17 0 -23 -5t-10 -22l-43 -202q-1 -4 -1.5 -7t-0.5 -6q0 -15 23 -15h285l-26 -126h-357z" />
    <glyph glyph-name="d" unicode="d" horiz-adv-x="628" 
d="M144 0q-42 0 -60.5 14.5t-18.5 45.5q0 14 5 39l65 308q11 51 39.5 75t76.5 24h239l-26 -121h-167q-16 0 -22.5 -5.5t-10.5 -22.5l-43 -205q-2 -10 -2 -13q0 -15 23 -15h217l126 594h141l-152 -718h-430z" />
    <glyph glyph-name="e" unicode="e" horiz-adv-x="618" 
d="M140 0q-43 0 -61.5 14.5t-18.5 45.5q0 14 5 39l65 308q11 51 36.5 75t80.5 24h342q38 0 54.5 -14.5t16.5 -43.5q0 -18 -4 -37l-42 -199h-337l17 84h204l15 68q1 5 1 13t-4.5 11t-16.5 3h-201q-17 0 -23 -5.5t-10 -22.5l-47 -218q-1 -5 -1.5 -8.5t-0.5 -6.5q0 -9 5 -12
t18 -3h341l-24 -115h-410z" />
    <glyph glyph-name="f" unicode="f" horiz-adv-x="347" 
d="M53 0l127 602q14 64 42.5 90t77.5 26h174l-23 -109h-105q-25 0 -30 -26l-16 -77h125l-23 -110h-125l-84 -396h-140z" />
    <glyph glyph-name="g" unicode="g" horiz-adv-x="613" 
d="M16 -212l26 121h338q17 0 23.5 6t10.5 23l95 447h-218q-17 0 -23.5 -6t-9.5 -22l-46 -216q-1 -5 -1 -11q0 -16 23 -16h168l-24 -114h-240q-42 0 -60.5 14.5t-18.5 45.5q0 14 5 39l65 308q11 51 36.5 75t79.5 24h430l-132 -619q-11 -51 -36.5 -75t-80.5 -24h-410z" />
    <glyph glyph-name="h" unicode="h" horiz-adv-x="651" 
d="M459 0l75 357q2 10 2 12q0 16 -25 16h-209q-15 0 -22 -5.5t-11 -22.5l-75 -357h-140l152 718h140l-57 -267q20 29 43.5 42t55.5 13h222q41 0 59.5 -14t18.5 -47q0 -19 -4 -38l-86 -407h-139z" />
    <glyph glyph-name="i" unicode="i" horiz-adv-x="253" 
d="M56 0l107 506h140l-107 -506h-140zM176 566l32 152h141l-32 -152h-141z" />
    <glyph glyph-name="j" unicode="j" horiz-adv-x="267" 
d="M-119 -212l26 121h114q16 0 22.5 6t9.5 20l121 571h140l-132 -619q-11 -51 -36.5 -75t-79.5 -24h-185zM186 566l32 152h141l-32 -152h-141z" />
    <glyph glyph-name="k" unicode="k" horiz-adv-x="646" 
d="M53 0l152 718h141l-152 -718h-141zM457 0l35 168q1 5 1.5 9.5t0.5 8.5q0 12 -7 17t-24 5h-200l11 51l263 247h154l-222 -203h97q76 0 76 -70q0 -18 -4 -37l-41 -196h-140z" />
    <glyph glyph-name="l" unicode="l" horiz-adv-x="248" 
d="M54 0l152 718h140l-152 -718h-140z" />
    <glyph glyph-name="m" unicode="m" horiz-adv-x="936" 
d="M744 0l75 357q1 4 1.5 7t0.5 6q0 15 -25 15h-150q-16 0 -23 -5.5t-10 -19.5l-76 -360h-140l75 357q1 4 1.5 7t0.5 6q0 15 -24 15h-151q-15 0 -22 -5.5t-11 -22.5l-75 -357h-140l107 506h135l-12 -55q36 55 99 55h169q38 0 57 -13t20 -42q23 29 46 42t55 13h169
q40 0 59 -14.5t19 -47.5q0 -18 -4 -37l-86 -407h-140z" />
    <glyph glyph-name="n" unicode="n" horiz-adv-x="649" 
d="M456 0l75 357q2 10 2 12q0 16 -25 16h-209q-15 0 -22 -5.5t-11 -22.5l-75 -357h-140l107 506h135l-12 -55q36 55 99 55h227q41 0 59.5 -14t18.5 -47q0 -19 -4 -38l-86 -407h-139z" />
    <glyph glyph-name="o" unicode="o" horiz-adv-x="633" 
d="M144 0q-42 0 -60.5 14.5t-18.5 45.5q0 14 5 39l65 308q11 51 36.5 75t79.5 24h344q44 0 62 -14.5t18 -45.5q0 -14 -5 -39l-65 -308q-11 -51 -36.5 -75t-80.5 -24h-344zM519 357q2 10 2 12q0 16 -27 16h-198q-16 0 -22.5 -5.5t-9.5 -22.5l-43 -206q-1 -4 -1.5 -7t-0.5 -6
q0 -14 22 -14h198q18 0 26 6t11 21z" />
    <glyph glyph-name="p" unicode="p" horiz-adv-x="624" 
d="M242 0l25 120h168q15 0 21.5 5.5t10.5 22.5l44 205q1 5 1 13q0 9 -4.5 12.5t-16.5 3.5h-218l-127 -594h-140l153 718h428q44 0 62 -15t18 -46q0 -19 -4 -38l-65 -308q-11 -52 -40.5 -75.5t-77.5 -23.5h-238z" />
    <glyph glyph-name="q" unicode="q" horiz-adv-x="626" 
d="M387 -212l127 594h-217q-17 0 -23 -6t-10 -23l-44 -205q-2 -10 -2 -13q0 -9 5.5 -12t17.5 -3h167l-25 -120h-239q-78 0 -78 65q0 17 4 34l65 308q11 51 36.5 75t79.5 24h430l-153 -718h-141z" />
    <glyph glyph-name="r" unicode="r" horiz-adv-x="451" 
d="M51 0l107 506h136l-12 -55q19 29 42.5 42t56.5 13h147l-26 -121h-202q-15 0 -22.5 -5.5t-11.5 -22.5l-75 -357h-140z" />
    <glyph glyph-name="s" unicode="s" horiz-adv-x="621" 
d="M52 0l24 116h347q16 0 21.5 5t8.5 19l11 50q1 3 1 8q0 13 -20 13h-271q-34 0 -49.5 13.5t-15.5 36.5q0 10 3 22l28 135q9 45 34 66.5t78 21.5h418l-24 -113h-345q-16 0 -23 -6t-10 -21l-9 -42q-1 -3 -1 -9q0 -16 21 -16h274q35 0 50.5 -14t15.5 -37q0 -5 -0.5 -10
t-1.5 -10l-30 -140q-10 -45 -35 -66.5t-78 -21.5h-422z" />
    <glyph glyph-name="t" unicode="t" horiz-adv-x="342" 
d="M146 0q-42 0 -60.5 14.5t-18.5 45.5q0 14 5 39l116 548h140l-30 -141h122l-23 -110h-122l-55 -259q-2 -10 -2 -13q0 -14 22 -14h92l-23 -110h-163z" />
    <glyph glyph-name="u" unicode="u" horiz-adv-x="640" 
d="M453 0l11 54q-19 -29 -42.5 -41.5t-55.5 -12.5h-220q-40 0 -59.5 14t-19.5 47q0 15 5 38l86 407h140l-76 -357q-2 -10 -2 -13q0 -16 24 -16h201q16 0 23 6t11 23l76 357h140l-107 -506h-135z" />
    <glyph glyph-name="v" unicode="v" horiz-adv-x="603" 
d="M211 0l-90 506h151l58 -368l222 368h144l-317 -506h-168z" />
    <glyph glyph-name="w" unicode="w" horiz-adv-x="901" 
d="M553 0l-31 351l-192 -351h-174l-35 506h154l13 -362l190 362h165l27 -361l176 361h148l-264 -506h-177z" />
    <glyph glyph-name="x" unicode="x" horiz-adv-x="612" 
d="M432 0l-88 194l-173 -194h-162l242 270l-119 236h166l87 -181l161 181h158l-225 -245l124 -261h-171z" />
    <glyph glyph-name="y" unicode="y" horiz-adv-x="610" 
d="M15 -212l26 121h336q17 0 23.5 6t10.5 23l14 62h-288q-42 0 -60.5 14.5t-18.5 45.5q0 14 5 39l86 407h140l-77 -363q-1 -4 -1.5 -7t-0.5 -6q0 -16 24 -16h215l83 392h141l-132 -619q-11 -51 -37 -75t-81 -24h-408z" />
    <glyph glyph-name="z" unicode="z" horiz-adv-x="571" 
d="M47 0l23 111l348 277h-288l25 118h475l-21 -100l-344 -286h283l-25 -120h-476z" />
    <glyph glyph-name="braceleft" unicode="{" horiz-adv-x="364" 
d="M297 -145q-94 2 -140 37t-46 108q0 16 1.5 33t6.5 36l40 186q1 5 1.5 9t0.5 8q0 35 -35 35h-14l12 59h14q20 0 35.5 15t20.5 38l39 186q23 109 88.5 160.5t180.5 53.5l-16 -75q-70 -2 -110 -36.5t-54 -102.5l-39 -186q-8 -39 -24.5 -56.5t-42.5 -25.5q17 -5 26.5 -16.5
t9.5 -33.5q0 -16 -4 -32l-40 -186q-3 -13 -4 -24t-1 -21q0 -91 110 -94z" />
    <glyph glyph-name="bar" unicode="|" horiz-adv-x="245" 
d="M46 -145l205 964h90l-205 -964h-90z" />
    <glyph glyph-name="braceright" unicode="}" horiz-adv-x="366" 
d="M20 -70q134 4 163 138l31 145q11 49 28.5 82t46.5 42q-34 10 -34 51q0 11 2 23.5t5 27.5l35 165q2 12 3.5 23t1.5 22q0 91 -109 95l16 75q97 -2 140 -38t43 -110q0 -41 -10 -87l-35 -165q-2 -5 -2 -9.5v-8.5q0 -35 34 -35h14l-12 -59h-14q-20 0 -35.5 -14t-20.5 -39
l-35 -165q-12 -59 -33 -102.5t-53.5 -72.5t-78.5 -43.5t-107 -15.5z" />
    <glyph glyph-name="asciitilde" unicode="~" horiz-adv-x="630" 
d="M640 315q-15 -10 -33 -17.5t-37.5 -12t-39 -6.5t-35.5 -2q-34 0 -62.5 8.5t-54.5 19t-52.5 19t-55.5 8.5q-35 0 -73 -10t-81 -34l20 96q15 10 33.5 17.5t37.5 12.5t38 7t35 2q33 0 61 -9t54.5 -19.5t53.5 -19t58 -8.5q35 0 73 10t81 34z" />
    <glyph glyph-name="nonbreakingspace" unicode="&#xa0;" horiz-adv-x="276" 
 />
    <glyph glyph-name="exclamdown" unicode="&#xa1;" horiz-adv-x="260" 
d="M66 0zM337.004 677l-31.998 -150.991h-127.992l31.998 150.991h127.992zM293.007 466.013l-98.9941 -465.972h-127.992l98.9941 465.972h127.992z" />
    <glyph glyph-name="cent" unicode="&#xa2;" horiz-adv-x="492" 
d="M353 94l-19 -94h-100l19 94h-88q-42 0 -60.5 14.5t-18.5 45.5q0 14 5 39l65 308q11 51 37 75t80 24h88l16 77h100l-16 -77h113l-24 -113h-242q-29 0 -35 -28l-46 -218q-2 -10 -2 -12q0 -18 24 -18h242l-25 -117h-113z" />
    <glyph glyph-name="sterling" unicode="&#xa3;" horiz-adv-x="631" 
d="M106 0l62 294h-67l20 92h67l40 192q11 51 36.5 75t79.5 24h312l-27 -129h-233q-15 0 -22 -6t-10 -21l-28 -135h220l-20 -92h-220l-34 -162h329l-28 -132h-477z" />
    <glyph glyph-name="currency" unicode="&#xa4;" horiz-adv-x="560" 
d="M408 211h-172l-120 -102l-36 46l122 101l36 172l-78 99l55 47l77 -101h172l121 101l37 -47l-123 -99l-36 -172l79 -101l-56 -46zM437 414h-143l-30 -145h143z" />
    <glyph glyph-name="yen" unicode="&#xa5;" horiz-adv-x="576" 
d="M378 91l-19 -91h-143l19 91h-199l15 69h199l14 67h-199l15 70h198l3 18l-122 362h143l75 -263l190 263h135l-277 -362l-3 -18h200l-15 -70h-200l-14 -67h200l-15 -69h-200z" />
    <glyph glyph-name="brokenbar" unicode="&#xa6;" horiz-adv-x="253" 
d="M165 428l84 391h101l-84 -391h-101zM44 -145l83 391h101l-83 -391h-101z" />
    <glyph glyph-name="section" unicode="&#xa7;" horiz-adv-x="597" 
d="M10 -256l22 105h331q18 0 25 6t12 26l26 119h-275q-42 0 -60.5 14.5t-18.5 45.5q0 9 1.5 18.5t3.5 20.5l101 479q11 51 36.5 75t79.5 24h386l-21 -100h-338q-17 0 -24 -7t-10 -23l-25 -117h274q43 0 61 -15t18 -46q0 -19 -4 -38l-104 -488q-11 -51 -37 -75t-80 -24h-380z
M490 305q1 4 1 10q0 14 -23 14h-228l-41 -195q-1 -5 -1.5 -8.5t-0.5 -5.5q0 -8 5 -11.5t19 -3.5h227z" />
    <glyph glyph-name="dieresis" unicode="&#xa8;" horiz-adv-x="525" 
d="M463 566l32 152h126l-32 -152h-126zM176 566l32 152h126l-32 -152h-126z" />
    <glyph glyph-name="ordfeminine" unicode="&#xaa;" horiz-adv-x="406" 
d="M168 300q-22 0 -31 8t-9 24v9.5t2 10.5l15 67q7 32 18 43t40 11h129l-11 -50h-78q-8 0 -10 -2.5t-4 -10.5l-4 -18q-1 -3 -1 -7q0 -6 10 -6h106l25 116q0 2 0.5 3t0.5 2q0 9 -11 9h-181l14 69h232q24 0 34.5 -8t10.5 -25q0 -9 -3 -21l-48 -224h-246z" />
    <glyph glyph-name="guillemotleft" unicode="&#xab;" horiz-adv-x="534" 
d="M84 84zM84 257l26 120l239 168l-23 -109l-179 -121l127 -125l-23 -106zM351 257l26 120l239 168l-23 -109l-179 -121l127 -125l-23 -106z" />
    <glyph glyph-name="logicalnot" unicode="&#xac;" horiz-adv-x="632" 
d="M481 75l50 231h-418l24 115h533l-74 -346h-115z" />
    <glyph glyph-name="macron" unicode="&#xaf;" horiz-adv-x="571" 
d="M189 634l19 89h461l-19 -89h-461z" />
    <glyph glyph-name="degree" unicode="&#xb0;" horiz-adv-x="377" 
d="M209 461q-27 0 -38.5 8.5t-11.5 28.5q0 10 3 24l29 135q7 32 23 46.5t50 14.5h149q28 0 40 -9t12 -29q0 -10 -3 -23l-29 -135q-7 -32 -23.5 -46.5t-51.5 -14.5h-149zM391 641q0 2 0.5 3.5t0.5 3.5q0 12 -16 12h-100q-18 0 -22 -19l-22 -100q0 -2 -0.5 -3.5t-0.5 -3.5
q0 -12 15 -12h100q11 0 16 4.5t7 14.5z" />
    <glyph glyph-name="plusminus" unicode="&#xb1;" horiz-adv-x="632" 
d="M43 0zM290 88l47 218h-217l18 87h217l46 217h88l-46 -217h217l-18 -87h-217l-47 -218h-88zM43 -50l21 100h526l-21 -100h-526z" />
    <glyph glyph-name="twosuperior" unicode="&#xb2;" horiz-adv-x="355" 
d="M114 349zM114 349l28 132q8 35 24 50.5t52 15.5h111q14 0 18 15l8 40q1 3 1 8q0 8 -12 8h-73q-16 0 -20 -16l-4 -19h-84l10 47q6 29 23 43t49 14h156q26 0 37.5 -9t11.5 -29q0 -5 -0.5 -10t-1.5 -11l-19 -90q-6 -28 -21.5 -41.5t-44.5 -13.5h-118q-14 0 -18 -17l-9 -43
h186l-16 -74h-274z" />
    <glyph glyph-name="threesuperior" unicode="&#xb3;" horiz-adv-x="346" 
d="M114 349zM163 349q-26 0 -37.5 9t-11.5 28q0 8 3 20l12 53h86l-5 -23q-1 -2 -1 -6q0 -9 13 -9h73q15 0 18 15l10 46v4q0 8 -13 8h-63l12 54h63q16 0 17 13l9 42q1 2 1 7q0 8 -13 8h-71q-15 0 -19 -15l-4 -20h-85l10 47q6 29 23 43t49 14h151q50 0 50 -38q0 -5 -0.5 -9.5
t-1.5 -9.5l-14 -64q-5 -21 -16.5 -30.5t-29.5 -11.5q14 -2 23.5 -8t9.5 -20q0 -6 -1 -9l-18 -81q-7 -29 -22.5 -43t-47.5 -14h-159z" />
    <glyph glyph-name="acute" unicode="&#xb4;" horiz-adv-x="372" 
d="M175 569l193 204h113l-217 -204h-89z" />
    <glyph glyph-name="uni00B5" unicode="&#xb5;" horiz-adv-x="585" 
d="M8 0zM8 -212l153 718h139l-81 -383h174q16 0 22.5 7.5t10.5 24.5l75 351h136l-86 -407q-11 -51 -36.5 -75t-80.5 -24h-241l-46 -212h-139z" />
    <glyph glyph-name="paragraph" unicode="&#xb6;" horiz-adv-x="725" 
d="M480 -171l162 761h-139l-162 -761h-108l162 761h-96q-17 0 -24 -5.5t-11 -25.5l-35 -164q-1 -5 -1.5 -8t-0.5 -6q0 -17 24 -17h54l-20 -92h-91q-42 0 -61.5 16.5t-19.5 50.5q0 19 4 36l43 199q11 53 38 78t84 25h556l-18 -87h-71l-162 -761h-107z" />
    <glyph glyph-name="periodcentered" unicode="&#xb7;" horiz-adv-x="239" 
d="M107 244zM107 244l32 151h128l-32 -151h-128z" />
    <glyph glyph-name="cedilla" unicode="&#xb8;" horiz-adv-x="252" 
d="M-11 -256l82 196h113l-98 -196h-97z" />
    <glyph glyph-name="onesuperior" unicode="&#xb9;" horiz-adv-x="191" 
d="M136 349zM136 349l56 262h-39l16 76h127l-72 -338h-88z" />
    <glyph glyph-name="ordmasculine" unicode="&#xba;" horiz-adv-x="409" 
d="M171 300q-24 0 -34 7.5t-10 24.5q0 10 3 22l36 170q6 28 19.5 41t44.5 13h193q24 0 34 -8.5t10 -25.5v-9.5t-2 -10.5l-36 -170q-6 -28 -20.5 -41t-44.5 -13h-193zM364 485q0 2 0.5 3t0.5 3q0 8 -12 8h-87q-12 0 -15 -14l-19 -89q-1 -2 -1 -6q0 -8 10 -8h87q14 0 17 14z
" />
    <glyph glyph-name="guillemotright" unicode="&#xbb;" horiz-adv-x="534" 
d="M47 84zM47 84l24 109l178 120l-126 125l22 107l167 -174l-25 -120zM314 84l24 109l178 120l-126 125l22 107l167 -174l-25 -120z" />
    <glyph glyph-name="onequarter" unicode="&#xbc;" horiz-adv-x="659" 
d="M51 0zM163 349l56 262h-39l16 76h127l-72 -338h-88zM51 0l551 677h80l-551 -677h-80zM487 -10l14 62h-160l14 70l164 206h121l-44 -206h42l-14 -70h-42l-14 -62h-81zM543 253l-108 -131h80z" />
    <glyph glyph-name="onehalf" unicode="&#xbd;" horiz-adv-x="692" 
d="M51 0zM173 349l56 262h-39l16 76h127l-72 -338h-88zM51 0l551 677h80l-551 -677h-80zM369 -10l28 132q8 35 24 50.5t52 15.5h111q14 0 18 15l8 40q1 3 1 8q0 8 -12 8h-73q-16 0 -20 -16l-4 -19h-84l10 47q6 29 23 43t49 14h156q26 0 37.5 -9t11.5 -29q0 -5 -0.5 -10
t-1.5 -11l-19 -90q-6 -28 -21.5 -41.5t-44.5 -13.5h-118q-14 0 -18 -17l-9 -43h186l-16 -74h-274z" />
    <glyph glyph-name="threequarters" unicode="&#xbe;" horiz-adv-x="722" 
d="M129 0zM178 349q-26 0 -37.5 9t-11.5 28q0 8 3 20l12 53h86l-5 -23q-1 -2 -1 -6q0 -9 13 -9h73q15 0 18 15l10 46v4q0 8 -13 8h-63l12 54h63q16 0 17 13l9 42q1 2 1 7q0 8 -13 8h-71q-15 0 -19 -15l-4 -20h-85l10 47q6 29 23 43t49 14h151q50 0 50 -38q0 -5 -0.5 -9.5
t-1.5 -9.5l-14 -64q-5 -21 -16.5 -30.5t-29.5 -11.5q14 -2 23.5 -8t9.5 -20q0 -6 -1 -9l-18 -81q-7 -29 -22.5 -43t-47.5 -14h-159zM134 0l551 677h80l-551 -677h-80zM550 -10l14 62h-160l14 70l164 206h121l-44 -206h42l-14 -70h-42l-14 -62h-81zM606 253l-108 -131h80z
" />
    <glyph glyph-name="questiondown" unicode="&#xbf;" horiz-adv-x="627" 
d="M63 0zM346.026 390.018q15.999 0 21.998 5.5q6 5.49902 10 22.498l10.999 47.9971h125.992l-19.998 -92.9941q-9 -41.9971 -35.498 -64.9961q-26.499 -22.999 -72.4961 -22.999h-106.993q-22.999 0 -30.998 -6.99902q-8 -7 -12.999 -28.998l-18.999 -86.9951
q-1 -5 -1.5 -9.49902q-0.5 -4.5 -0.5 -8.5q0 -11.999 7.5 -16.999q7.49902 -4.99902 25.498 -4.99902h194.988q19.999 0 28.998 8.49902q8.99902 8.5 13.999 29.498l9.99902 48.9971h136.992l-19.999 -93.9941q-11.999 -57.9961 -45.4971 -86.4941
q-33.498 -28.499 -96.4941 -28.499h-311.981q-51.9961 0 -73.9951 17.999t-21.999 54.9971q0 16.999 5 44.9971l32.998 157.99q11.999 56.9971 39.998 85.4951q27.998 28.498 84.9941 28.498h119.993zM560.013 677l-31.998 -150.991h-127.992l31.998 150.991h127.992z" />
    <glyph glyph-name="Agrave" unicode="&#xc0;" horiz-adv-x="636" 
d="M16 0zM466 0l-7 105h-244l-52 -105h-147l352 677h199l52 -677h-153zM433 541l-164 -324h185zM486 740l-129 204h113l105 -204h-89z" />
    <glyph glyph-name="Aacute" unicode="&#xc1;" horiz-adv-x="636" 
d="M16 0zM466 0l-7 105h-244l-52 -105h-147l352 677h199l52 -677h-153zM433 541l-164 -324h185zM373 740l193 204h113l-217 -204h-89z" />
    <glyph glyph-name="Acircumflex" unicode="&#xc2;" horiz-adv-x="636" 
d="M16 0zM466 0l-7 105h-244l-52 -105h-147l352 677h199l52 -677h-153zM433 541l-164 -324h185zM605 740l-96 161l-169 -161h-97l218 204h119l125 -204h-100z" />
    <glyph glyph-name="Atilde" unicode="&#xc3;" horiz-adv-x="636" 
d="M16 0zM466 0l-7 105h-244l-52 -105h-147l352 677h199l52 -677h-153zM433 541l-164 -324h185zM702 820q-25 -19 -58.5 -27t-59.5 -8q-30 0 -54 7.5t-45.5 17t-41.5 17t-42 7.5q-30 0 -62.5 -8.5t-64.5 -30.5l19 90q26 19 59.5 27t59.5 8t49.5 -8t45.5 -17t43.5 -17
t43.5 -8q33 0 63.5 8.5t64.5 31.5z" />
    <glyph glyph-name="Adieresis" unicode="&#xc4;" horiz-adv-x="636" 
d="M16 0zM466 0l-7 105h-244l-52 -105h-147l352 677h199l52 -677h-153zM433 541l-164 -324h185zM554 737l32 152h126l-32 -152h-126zM267 737l32 152h126l-32 -152h-126z" />
    <glyph glyph-name="Aring" unicode="&#xc5;" horiz-adv-x="636" 
d="M16 0zM466 0l-7 105h-244l-52 -105h-147l352 677h199l52 -677h-153zM433 541l-164 -324h185zM411 717q-26 0 -37.5 8.5t-11.5 27.5q0 11 3 25l22 105q7 32 23 46.5t49 14.5h117q27 0 38.5 -8.5t11.5 -28.5q0 -11 -3 -24l-22 -105q-7 -32 -23 -46.5t-50 -14.5h-117z
M570 878q1 3 1 9q0 12 -18 12h-92q-12 0 -17 -4.5t-7 -16.5l-20 -91q-1 -3 -1 -9q0 -8 4 -10.5t13 -2.5h92q14 0 18 4t7 18z" />
    <glyph glyph-name="AE" unicode="&#xc6;" horiz-adv-x="985" 
d="M427 0l22 105h-233l-53 -105h-147l353 677h703l-28 -132h-604l-174 -327h207l59 277h157l-24 -110h249l-23 -108h-249l-30 -142h345l-28 -135h-502z" />
    <glyph glyph-name="Ccedilla" unicode="&#xc7;" horiz-adv-x="586" 
d="M70 0zM165 0q-51 0 -73 18t-22 56q0 10 1 20.5t4 23.5l93 441q13 60 44.5 89t95.5 29h381l-28 -135h-306q-24 0 -32.5 -7.5t-13.5 -30.5l-71 -330q-1 -5 -1.5 -8.5t-0.5 -7.5q0 -11 7 -16t26 -5h308l-29 -137h-383zM162 -256l82 196h113l-98 -196h-97z" />
    <glyph glyph-name="Egrave" unicode="&#xc8;" horiz-adv-x="609" 
d="M51 0zM51 0l105 495h157l-24 -110h249l-23 -108h-249l-30 -142h345l-28 -135h-502zM166 545l28 132h502l-28 -132h-502zM472 740l-129 204h113l105 -204h-89z" />
    <glyph glyph-name="Eacute" unicode="&#xc9;" horiz-adv-x="609" 
d="M51 0zM51 0l105 495h157l-24 -110h249l-23 -108h-249l-30 -142h345l-28 -135h-502zM166 545l28 132h502l-28 -132h-502zM359 740l193 204h113l-217 -204h-89z" />
    <glyph glyph-name="Ecircumflex" unicode="&#xca;" horiz-adv-x="609" 
d="M51 0zM51 0l105 495h157l-24 -110h249l-23 -108h-249l-30 -142h345l-28 -135h-502zM166 545l28 132h502l-28 -132h-502zM591 740l-96 161l-169 -161h-97l218 204h119l125 -204h-100z" />
    <glyph glyph-name="Edieresis" unicode="&#xcb;" horiz-adv-x="609" 
d="M51 0zM51 0l105 495h157l-24 -110h249l-23 -108h-249l-30 -142h345l-28 -135h-502zM166 545l28 132h502l-28 -132h-502zM541 737l32 152h126l-32 -152h-126zM254 737l32 152h126l-32 -152h-126z" />
    <glyph glyph-name="Igrave" unicode="&#xcc;" horiz-adv-x="270" 
d="M58 0zM58 0l143 677h152l-143 -677h-152zM305 740l-129 204h113l105 -204h-89z" />
    <glyph glyph-name="Iacute" unicode="&#xcd;" horiz-adv-x="270" 
d="M58 0zM58 0l143 677h152l-143 -677h-152zM190 740l193 204h113l-217 -204h-89z" />
    <glyph glyph-name="Icircumflex" unicode="&#xce;" horiz-adv-x="270" 
d="M58 0zM58 0l143 677h152l-143 -677h-152zM424 740l-96 161l-169 -161h-97l218 204h119l125 -204h-100z" />
    <glyph glyph-name="Idieresis" unicode="&#xcf;" horiz-adv-x="270" 
d="M58 0zM58 0l143 677h152l-143 -677h-152zM374 737l32 152h126l-32 -152h-126zM87 737l32 152h126l-32 -152h-126z" />
    <glyph glyph-name="Eth" unicode="&#xd0;" 
d="M54 0l60 284h-39l19 91h39l26 120h150l-26 -120h164l-19 -91h-164l-32 -152h214q53 0 67 65l61 283q1 6 1.5 11t0.5 10q0 44 -43 44h-364l28 132h392q148 0 148 -120q0 -25 -6 -53l-71 -331q-18 -85 -71 -129t-143 -44h-392z" />
    <glyph glyph-name="Ntilde" unicode="&#xd1;" horiz-adv-x="703" 
d="M54 0zM545 0l-256 444l-94 -444h-141l143 677h143l222 -404l85 404h142l-143 -677h-101zM736 820q-25 -19 -58.5 -27t-59.5 -8q-30 0 -54 7.5t-45.5 17t-41.5 17t-42 7.5q-30 0 -62.5 -8.5t-64.5 -30.5l19 90q26 19 59.5 27t59.5 8t49.5 -8t45.5 -17t43.5 -17t43.5 -8
q33 0 63.5 8.5t64.5 31.5z" />
    <glyph glyph-name="Ograve" unicode="&#xd2;" horiz-adv-x="668" 
d="M70 0zM166 0q-51 0 -73.5 18t-22.5 55q0 19 6 45l93 441q13 60 44 89t96 29h337q51 0 73 -18t22 -56q0 -10 -1.5 -21t-3.5 -23l-93 -441q-13 -60 -44.5 -89t-95.5 -29h-337zM573 506q1 5 1.5 9t0.5 7q0 23 -35 23h-189q-20 0 -28.5 -8t-13.5 -31l-72 -337q-2 -10 -2 -13
q0 -21 29 -21h189q24 0 34 8t14 26zM502 740l-129 204h113l105 -204h-89z" />
    <glyph glyph-name="Oacute" unicode="&#xd3;" horiz-adv-x="668" 
d="M70 0zM166 0q-51 0 -73.5 18t-22.5 55q0 19 6 45l93 441q13 60 44 89t96 29h337q51 0 73 -18t22 -56q0 -10 -1.5 -21t-3.5 -23l-93 -441q-13 -60 -44.5 -89t-95.5 -29h-337zM573 506q1 5 1.5 9t0.5 7q0 23 -35 23h-189q-20 0 -28.5 -8t-13.5 -31l-72 -337q-2 -10 -2 -13
q0 -21 29 -21h189q24 0 34 8t14 26zM389 740l193 204h113l-217 -204h-89z" />
    <glyph glyph-name="Ocircumflex" unicode="&#xd4;" horiz-adv-x="668" 
d="M70 0zM166 0q-51 0 -73.5 18t-22.5 55q0 19 6 45l93 441q13 60 44 89t96 29h337q51 0 73 -18t22 -56q0 -10 -1.5 -21t-3.5 -23l-93 -441q-13 -60 -44.5 -89t-95.5 -29h-337zM573 506q1 5 1.5 9t0.5 7q0 23 -35 23h-189q-20 0 -28.5 -8t-13.5 -31l-72 -337q-2 -10 -2 -13
q0 -21 29 -21h189q24 0 34 8t14 26zM621 740l-96 161l-169 -161h-97l218 204h119l125 -204h-100z" />
    <glyph glyph-name="Otilde" unicode="&#xd5;" horiz-adv-x="668" 
d="M70 0zM166 0q-51 0 -73.5 18t-22.5 55q0 19 6 45l93 441q13 60 44 89t96 29h337q51 0 73 -18t22 -56q0 -10 -1.5 -21t-3.5 -23l-93 -441q-13 -60 -44.5 -89t-95.5 -29h-337zM573 506q1 5 1.5 9t0.5 7q0 23 -35 23h-189q-20 0 -28.5 -8t-13.5 -31l-72 -337q-2 -10 -2 -13
q0 -21 29 -21h189q24 0 34 8t14 26zM718 820q-25 -19 -58.5 -27t-59.5 -8q-30 0 -54 7.5t-45.5 17t-41.5 17t-42 7.5q-30 0 -62.5 -8.5t-64.5 -30.5l19 90q26 19 59.5 27t59.5 8t49.5 -8t45.5 -17t43.5 -17t43.5 -8q33 0 63.5 8.5t64.5 31.5z" />
    <glyph glyph-name="Odieresis" unicode="&#xd6;" horiz-adv-x="668" 
d="M70 0zM166 0q-51 0 -73.5 18t-22.5 55q0 19 6 45l93 441q13 60 44 89t96 29h337q51 0 73 -18t22 -56q0 -10 -1.5 -21t-3.5 -23l-93 -441q-13 -60 -44.5 -89t-95.5 -29h-337zM573 506q1 5 1.5 9t0.5 7q0 23 -35 23h-189q-20 0 -28.5 -8t-13.5 -31l-72 -337q-2 -10 -2 -13
q0 -21 29 -21h189q24 0 34 8t14 26zM570 737l32 152h126l-32 -152h-126zM283 737l32 152h126l-32 -152h-126z" />
    <glyph glyph-name="multiply" unicode="&#xd7;" horiz-adv-x="605" 
d="M479 127l-118 152l-184 -152l-55 71l183 151l-118 151l86 71l118 -151l182 151l56 -71l-182 -151l118 -152z" />
    <glyph glyph-name="Oslash" unicode="&#xd8;" horiz-adv-x="668" 
d="M172 0l-58 -71h-79l67 82q-17 8 -24.5 23t-7.5 37q0 20 6 47l93 441q13 60 44 89t96 29h330l59 72h78l-68 -83q33 -17 33 -63q0 -10 -1.5 -21t-3.5 -23l-93 -441q-13 -60 -44.5 -89t-95.5 -29h-331zM240 183l292 362h-181q-20 0 -28.5 -8t-13.5 -31zM571 495l-291 -360
h173q24 0 34 8t14 26z" />
    <glyph glyph-name="Ugrave" unicode="&#xd9;" 
d="M73 0zM169 0q-52 0 -74 18t-22 56q0 10 1 21t4 23l118 559h152l-107 -506q-3 -12 -3 -18q0 -11 7 -14.5t23 -3.5h200q20 0 29 6.5t14 29.5l107 506h146l-118 -559q-13 -60 -44.5 -89t-95.5 -29h-337zM505 740l-129 204h113l105 -204h-89z" />
    <glyph glyph-name="Uacute" unicode="&#xda;" 
d="M73 0zM169 0q-52 0 -74 18t-22 56q0 10 1 21t4 23l118 559h152l-107 -506q-3 -12 -3 -18q0 -11 7 -14.5t23 -3.5h200q20 0 29 6.5t14 29.5l107 506h146l-118 -559q-13 -60 -44.5 -89t-95.5 -29h-337zM392 740l193 204h113l-217 -204h-89z" />
    <glyph glyph-name="Ucircumflex" unicode="&#xdb;" 
d="M73 0zM169 0q-52 0 -74 18t-22 56q0 10 1 21t4 23l118 559h152l-107 -506q-3 -12 -3 -18q0 -11 7 -14.5t23 -3.5h200q20 0 29 6.5t14 29.5l107 506h146l-118 -559q-13 -60 -44.5 -89t-95.5 -29h-337zM624 740l-96 161l-169 -161h-97l218 204h119l125 -204h-100z" />
    <glyph glyph-name="Udieresis" unicode="&#xdc;" 
d="M73 0zM169 0q-52 0 -74 18t-22 56q0 10 1 21t4 23l118 559h152l-107 -506q-3 -12 -3 -18q0 -11 7 -14.5t23 -3.5h200q20 0 29 6.5t14 29.5l107 506h146l-118 -559q-13 -60 -44.5 -89t-95.5 -29h-337zM574 737l32 152h126l-32 -152h-126zM287 737l32 152h126l-32 -152
h-126z" />
    <glyph glyph-name="Yacute" unicode="&#xdd;" horiz-adv-x="617" 
d="M156 0zM232 0l59 279l-135 398h159l83 -267l196 267h152l-303 -398l-59 -279h-152zM363 740l193 204h113l-217 -204h-89z" />
    <glyph glyph-name="Thorn" unicode="&#xde;" horiz-adv-x="665" 
d="M227 96l-20 -96h-152l143 677h152l-96 -454h230q41 0 49 41l37 175q1 5 1.5 8.5t0.5 7.5q0 27 -33 27h-180l24 114h253q51 0 73 -18t22 -56q0 -10 -1.5 -20.5t-3.5 -23.5l-56 -264q-13 -60 -44 -89t-96 -29h-303z" />
    <glyph glyph-name="germandbls" unicode="&#xdf;" horiz-adv-x="730" 
d="M301 0l24 113h208q15 0 21.5 6t9.5 21l34 160q1 3 1 9q0 12 -18 12h-101q-33 0 -48 12t-15 35q0 10 3 24l41 193q1 4 1 10q0 14 -19 14h-101q-13 0 -18 -5t-8 -19l-124 -585h-140l131 619q11 51 36.5 75t79.5 24h219q43 0 62 -15t19 -46q0 -15 -5 -38l-38 -179
q-1 -4 -1 -9q0 -11 17 -11h119q35 0 50.5 -14t15.5 -37q0 -5 -0.5 -10t-1.5 -10l-56 -261q-10 -45 -34.5 -66.5t-77.5 -21.5h-286z" />
    <glyph glyph-name="agrave" unicode="&#xe0;" horiz-adv-x="630" 
d="M66 0zM138 0q-38 0 -55 14.5t-17 43.5q0 14 5 37l25 120q6 28 14 47t20 30t29 15.5t41 4.5h257l-18 -86h-184q-14 0 -20 -5t-9 -21l-11 -53q-1 -5 -1.5 -8t-0.5 -6q0 -13 19 -13h234l53 248q1 4 1 11q0 8 -5 12.5t-19 4.5h-343l23 110h414q44 0 62 -14.5t18 -45.5
q0 -14 -5 -39l-86 -407h-441zM457 569l-129 204h113l105 -204h-89z" />
    <glyph glyph-name="aacute" unicode="&#xe1;" horiz-adv-x="630" 
d="M66 0zM138 0q-38 0 -55 14.5t-17 43.5q0 14 5 37l25 120q6 28 14 47t20 30t29 15.5t41 4.5h257l-18 -86h-184q-14 0 -20 -5t-9 -21l-11 -53q-1 -5 -1.5 -8t-0.5 -6q0 -13 19 -13h234l53 248q1 4 1 11q0 8 -5 12.5t-19 4.5h-343l23 110h414q44 0 62 -14.5t18 -45.5
q0 -14 -5 -39l-86 -407h-441zM334 569l193 204h113l-217 -204h-89z" />
    <glyph glyph-name="acircumflex" unicode="&#xe2;" horiz-adv-x="630" 
d="M66 0zM138 0q-38 0 -55 14.5t-17 43.5q0 14 5 37l25 120q6 28 14 47t20 30t29 15.5t41 4.5h257l-18 -86h-184q-14 0 -20 -5t-9 -21l-11 -53q-1 -5 -1.5 -8t-0.5 -6q0 -13 19 -13h234l53 248q1 4 1 11q0 8 -5 12.5t-19 4.5h-343l23 110h414q44 0 62 -14.5t18 -45.5
q0 -14 -5 -39l-86 -407h-441zM571 569l-96 161l-169 -161h-97l218 204h119l125 -204h-100z" />
    <glyph glyph-name="atilde" unicode="&#xe3;" horiz-adv-x="630" 
d="M66 0zM138 0q-38 0 -55 14.5t-17 43.5q0 14 5 37l25 120q6 28 14 47t20 30t29 15.5t41 4.5h257l-18 -86h-184q-14 0 -20 -5t-9 -21l-11 -53q-1 -5 -1.5 -8t-0.5 -6q0 -13 19 -13h234l53 248q1 4 1 11q0 8 -5 12.5t-19 4.5h-343l23 110h414q44 0 62 -14.5t18 -45.5
q0 -14 -5 -39l-86 -407h-441zM670 649q-25 -19 -58.5 -27t-59.5 -8q-30 0 -54 7.5t-45.5 17t-41.5 17t-42 7.5q-30 0 -62.5 -8.5t-64.5 -30.5l19 90q26 19 59.5 27t59.5 8t49.5 -8t45.5 -17t43.5 -17t43.5 -8q33 0 63.5 8.5t64.5 31.5z" />
    <glyph glyph-name="adieresis" unicode="&#xe4;" horiz-adv-x="630" 
d="M66 0zM138 0q-38 0 -55 14.5t-17 43.5q0 14 5 37l25 120q6 28 14 47t20 30t29 15.5t41 4.5h257l-18 -86h-184q-14 0 -20 -5t-9 -21l-11 -53q-1 -5 -1.5 -8t-0.5 -6q0 -13 19 -13h234l53 248q1 4 1 11q0 8 -5 12.5t-19 4.5h-343l23 110h414q44 0 62 -14.5t18 -45.5
q0 -14 -5 -39l-86 -407h-441zM515 566l32 152h126l-32 -152h-126zM228 566l32 152h126l-32 -152h-126z" />
    <glyph glyph-name="aring" unicode="&#xe5;" horiz-adv-x="630" 
d="M66 0zM138 0q-38 0 -55 14.5t-17 43.5q0 14 5 37l25 120q6 28 14 47t20 30t29 15.5t41 4.5h257l-18 -86h-184q-14 0 -20 -5t-9 -21l-11 -53q-1 -5 -1.5 -8t-0.5 -6q0 -13 19 -13h234l53 248q1 4 1 11q0 8 -5 12.5t-19 4.5h-343l23 110h414q44 0 62 -14.5t18 -45.5
q0 -14 -5 -39l-86 -407h-441zM372 546q-26 0 -37.5 8.5t-11.5 27.5q0 11 3 25l22 105q7 32 23 46.5t49 14.5h117q27 0 38.5 -8.5t11.5 -28.5q0 -11 -3 -24l-22 -105q-7 -32 -23 -46.5t-50 -14.5h-117zM531 707q1 3 1 9q0 12 -18 12h-92q-12 0 -17 -4.5t-7 -16.5l-20 -91
q-1 -3 -1 -9q0 -8 4 -10.5t13 -2.5h92q14 0 18 4t7 18z" />
    <glyph glyph-name="ae" unicode="&#xe6;" horiz-adv-x="985" 
d="M140 0q-39 0 -56 14.5t-17 43.5q0 14 5 37l25 120q6 28 14 47t20 30t29.5 15.5t41.5 4.5h236l-18 -86h-163q-15 0 -21 -5t-9 -21l-12 -58q-1 -5 -1.5 -8t-0.5 -6q0 -13 20 -13h213l60 281h-352l23 110h777q38 0 54 -14.5t16 -43.5q0 -18 -4 -37l-42 -199h-323l17 84h190
l16 72q1 5 1 13t-4.5 11.5t-16.5 3.5h-214l-60 -281h354l-24 -115h-774z" />
    <glyph glyph-name="ccedilla" unicode="&#xe7;" horiz-adv-x="542" 
d="M65 0zM144 0q-42 0 -60.5 14.5t-18.5 45.5q0 14 5 39l65 308q11 51 36.5 75t79.5 24h357l-26 -123h-285q-17 0 -23 -5t-10 -22l-43 -202q-1 -4 -1.5 -7t-0.5 -6q0 -15 23 -15h285l-26 -126h-357zM140 -256l82 196h113l-98 -196h-97z" />
    <glyph glyph-name="egrave" unicode="&#xe8;" horiz-adv-x="618" 
d="M60 0zM140 0q-43 0 -61.5 14.5t-18.5 45.5q0 14 5 39l65 308q11 51 36.5 75t80.5 24h342q38 0 54.5 -14.5t16.5 -43.5q0 -18 -4 -37l-42 -199h-337l17 84h204l15 68q1 5 1 13t-4.5 11t-16.5 3h-201q-17 0 -23 -5.5t-10 -22.5l-47 -218q-1 -5 -1.5 -8.5t-0.5 -6.5
q0 -9 5 -12t18 -3h341l-24 -115h-410zM441 569l-129 204h113l105 -204h-89z" />
    <glyph glyph-name="eacute" unicode="&#xe9;" horiz-adv-x="618" 
d="M60 0zM140 0q-43 0 -61.5 14.5t-18.5 45.5q0 14 5 39l65 308q11 51 36.5 75t80.5 24h342q38 0 54.5 -14.5t16.5 -43.5q0 -18 -4 -37l-42 -199h-337l17 84h204l15 68q1 5 1 13t-4.5 11t-16.5 3h-201q-17 0 -23 -5.5t-10 -22.5l-47 -218q-1 -5 -1.5 -8.5t-0.5 -6.5
q0 -9 5 -12t18 -3h341l-24 -115h-410zM328 569l193 204h113l-217 -204h-89z" />
    <glyph glyph-name="ecircumflex" unicode="&#xea;" horiz-adv-x="618" 
d="M60 0zM140 0q-43 0 -61.5 14.5t-18.5 45.5q0 14 5 39l65 308q11 51 36.5 75t80.5 24h342q38 0 54.5 -14.5t16.5 -43.5q0 -18 -4 -37l-42 -199h-337l17 84h204l15 68q1 5 1 13t-4.5 11t-16.5 3h-201q-17 0 -23 -5.5t-10 -22.5l-47 -218q-1 -5 -1.5 -8.5t-0.5 -6.5
q0 -9 5 -12t18 -3h341l-24 -115h-410zM560 569l-96 161l-169 -161h-97l218 204h119l125 -204h-100z" />
    <glyph glyph-name="edieresis" unicode="&#xeb;" horiz-adv-x="618" 
d="M60 0zM140 0q-43 0 -61.5 14.5t-18.5 45.5q0 14 5 39l65 308q11 51 36.5 75t80.5 24h342q38 0 54.5 -14.5t16.5 -43.5q0 -18 -4 -37l-42 -199h-337l17 84h204l15 68q1 5 1 13t-4.5 11t-16.5 3h-201q-17 0 -23 -5.5t-10 -22.5l-47 -218q-1 -5 -1.5 -8.5t-0.5 -6.5
q0 -9 5 -12t18 -3h341l-24 -115h-410zM509 566l32 152h126l-32 -152h-126zM222 566l32 152h126l-32 -152h-126z" />
    <glyph glyph-name="igrave" unicode="&#xec;" horiz-adv-x="290" 
d="M93 0zM93 0l107 506h140l-107 -506h-140zM297 569l-129 204h113l105 -204h-89z" />
    <glyph glyph-name="iacute" unicode="&#xed;" horiz-adv-x="292" 
d="M56 0zM56 0l107 506h140l-107 -506h-140zM147 569l193 204h113l-217 -204h-89z" />
    <glyph glyph-name="icircumflex" unicode="&#xee;" horiz-adv-x="403" 
d="M93 0zM132 0l107 506h140l-107 -506h-140zM455 569l-96 161l-169 -161h-97l218 204h119l125 -204h-100z" />
    <glyph glyph-name="idieresis" unicode="&#xef;" horiz-adv-x="360" 
d="M96 0zM111 0l107 506h140l-107 -506h-140zM383 566l32 152h126l-32 -152h-126zM96 566l32 152h126l-32 -152h-126z" />
    <glyph glyph-name="eth" unicode="&#xf0;" horiz-adv-x="609" 
d="M144 0q-43 0 -61.5 14.5t-18.5 45.5q0 9 1.5 18.5t3.5 20.5l51 243q11 54 40 76.5t77 22.5h218l-25 -119h-143q-30 0 -37 -33l-28 -131q-1 -5 -1.5 -8.5t-0.5 -6.5q0 -19 24 -19h142q17 0 25 8t12 25l64 301q6 27 6 43q0 11 -3 21t-8 21l-15 29l-202 -66l14 67l161 54
l-46 91h155l24 -47l138 47l-15 -69l-95 -32l21 -38q14 -26 15 -55q0 -15 -3.5 -34t-8.5 -46l-73 -345q-11 -52 -37.5 -75.5t-80.5 -23.5h-290z" />
    <glyph glyph-name="ntilde" unicode="&#xf1;" horiz-adv-x="649" 
d="M51 0zM456 0l75 357q2 10 2 12q0 16 -25 16h-209q-15 0 -22 -5.5t-11 -22.5l-75 -357h-140l107 506h135l-12 -55q36 55 99 55h227q41 0 59.5 -14t18.5 -47q0 -19 -4 -38l-86 -407h-139zM683 649q-25 -19 -58.5 -27t-59.5 -8q-30 0 -54 7.5t-45.5 17t-41.5 17t-42 7.5
q-30 0 -62.5 -8.5t-64.5 -30.5l19 90q26 19 59.5 27t59.5 8t49.5 -8t45.5 -17t43.5 -17t43.5 -8q33 0 63.5 8.5t64.5 31.5z" />
    <glyph glyph-name="ograve" unicode="&#xf2;" horiz-adv-x="633" 
d="M65 0zM144 0q-42 0 -60.5 14.5t-18.5 45.5q0 14 5 39l65 308q11 51 36.5 75t79.5 24h344q44 0 62 -14.5t18 -45.5q0 -14 -5 -39l-65 -308q-11 -51 -36.5 -75t-80.5 -24h-344zM519 357q2 10 2 12q0 16 -27 16h-198q-16 0 -22.5 -5.5t-9.5 -22.5l-43 -206q-1 -4 -1.5 -7
t-0.5 -6q0 -14 22 -14h198q18 0 26 6t11 21zM448 569l-129 204h113l105 -204h-89z" />
    <glyph glyph-name="oacute" unicode="&#xf3;" horiz-adv-x="633" 
d="M65 0zM144 0q-42 0 -60.5 14.5t-18.5 45.5q0 14 5 39l65 308q11 51 36.5 75t79.5 24h344q44 0 62 -14.5t18 -45.5q0 -14 -5 -39l-65 -308q-11 -51 -36.5 -75t-80.5 -24h-344zM519 357q2 10 2 12q0 16 -27 16h-198q-16 0 -22.5 -5.5t-9.5 -22.5l-43 -206q-1 -4 -1.5 -7
t-0.5 -6q0 -14 22 -14h198q18 0 26 6t11 21zM335 569l193 204h113l-217 -204h-89z" />
    <glyph glyph-name="ocircumflex" unicode="&#xf4;" horiz-adv-x="633" 
d="M65 0zM144 0q-42 0 -60.5 14.5t-18.5 45.5q0 14 5 39l65 308q11 51 36.5 75t79.5 24h344q44 0 62 -14.5t18 -45.5q0 -14 -5 -39l-65 -308q-11 -51 -36.5 -75t-80.5 -24h-344zM519 357q2 10 2 12q0 16 -27 16h-198q-16 0 -22.5 -5.5t-9.5 -22.5l-43 -206q-1 -4 -1.5 -7
t-0.5 -6q0 -14 22 -14h198q18 0 26 6t11 21zM567 569l-96 161l-169 -161h-97l218 204h119l125 -204h-100z" />
    <glyph glyph-name="otilde" unicode="&#xf5;" horiz-adv-x="633" 
d="M65 0zM144 0q-42 0 -60.5 14.5t-18.5 45.5q0 14 5 39l65 308q11 51 36.5 75t79.5 24h344q44 0 62 -14.5t18 -45.5q0 -14 -5 -39l-65 -308q-11 -51 -36.5 -75t-80.5 -24h-344zM519 357q2 10 2 12q0 16 -27 16h-198q-16 0 -22.5 -5.5t-9.5 -22.5l-43 -206q-1 -4 -1.5 -7
t-0.5 -6q0 -14 22 -14h198q18 0 26 6t11 21zM665 649q-25 -19 -58.5 -27t-59.5 -8q-30 0 -54 7.5t-45.5 17t-41.5 17t-42 7.5q-30 0 -62.5 -8.5t-64.5 -30.5l19 90q26 19 59.5 27t59.5 8t49.5 -8t45.5 -17t43.5 -17t43.5 -8q33 0 63.5 8.5t64.5 31.5z" />
    <glyph glyph-name="odieresis" unicode="&#xf6;" horiz-adv-x="633" 
d="M65 0zM144 0q-42 0 -60.5 14.5t-18.5 45.5q0 14 5 39l65 308q11 51 36.5 75t79.5 24h344q44 0 62 -14.5t18 -45.5q0 -14 -5 -39l-65 -308q-11 -51 -36.5 -75t-80.5 -24h-344zM519 357q2 10 2 12q0 16 -27 16h-198q-16 0 -22.5 -5.5t-9.5 -22.5l-43 -206q-1 -4 -1.5 -7
t-0.5 -6q0 -14 22 -14h198q18 0 26 6t11 21zM517 566l32 152h126l-32 -152h-126zM230 566l32 152h126l-32 -152h-126z" />
    <glyph glyph-name="divide" unicode="&#xf7;" horiz-adv-x="633" 
d="M116 68zM116 299l21 100h526l-21 -100h-526zM353 479l32 151h128l-32 -151h-128zM266 68l32 151h128l-32 -151h-128z" />
    <glyph glyph-name="oslash" unicode="&#xf8;" horiz-adv-x="633" 
d="M179 0l-66 -71h-80l71 76q-39 12 -39 55q0 14 5 39l65 308q11 51 36.5 75t79.5 24h313l60 64h80l-65 -70q36 -13 36 -55q0 -15 -5 -38l-65 -308q-11 -51 -36.5 -75t-80.5 -24h-309zM221 151q-2 -10 -2 -12q0 -3 2 -7l232 253h-157q-16 0 -22.5 -5.5t-9.5 -22.5zM519 357
q1 3 1 10v3l-227 -246h146q18 0 26 6t11 21z" />
    <glyph glyph-name="ugrave" unicode="&#xf9;" horiz-adv-x="640" 
d="M67 0zM453 0l11 54q-19 -29 -42.5 -41.5t-55.5 -12.5h-220q-40 0 -59.5 14t-19.5 47q0 15 5 38l86 407h140l-76 -357q-2 -10 -2 -13q0 -16 24 -16h201q16 0 23 6t11 23l76 357h140l-107 -506h-135zM452 569l-129 204h113l105 -204h-89z" />
    <glyph glyph-name="uacute" unicode="&#xfa;" horiz-adv-x="640" 
d="M67 0zM453 0l11 54q-19 -29 -42.5 -41.5t-55.5 -12.5h-220q-40 0 -59.5 14t-19.5 47q0 15 5 38l86 407h140l-76 -357q-2 -10 -2 -13q0 -16 24 -16h201q16 0 23 6t11 23l76 357h140l-107 -506h-135zM339 569l193 204h113l-217 -204h-89z" />
    <glyph glyph-name="ucircumflex" unicode="&#xfb;" horiz-adv-x="640" 
d="M67 0zM453 0l11 54q-19 -29 -42.5 -41.5t-55.5 -12.5h-220q-40 0 -59.5 14t-19.5 47q0 15 5 38l86 407h140l-76 -357q-2 -10 -2 -13q0 -16 24 -16h201q16 0 23 6t11 23l76 357h140l-107 -506h-135zM571 569l-96 161l-169 -161h-97l218 204h119l125 -204h-100z" />
    <glyph glyph-name="udieresis" unicode="&#xfc;" horiz-adv-x="640" 
d="M67 0zM453 0l11 54q-19 -29 -42.5 -41.5t-55.5 -12.5h-220q-40 0 -59.5 14t-19.5 47q0 15 5 38l86 407h140l-76 -357q-2 -10 -2 -13q0 -16 24 -16h201q16 0 23 6t11 23l76 357h140l-107 -506h-135zM520 566l32 152h126l-32 -152h-126zM233 566l32 152h126l-32 -152h-126z
" />
    <glyph glyph-name="yacute" unicode="&#xfd;" horiz-adv-x="610" 
d="M15 0zM15 -212l26 121h336q17 0 23.5 6t10.5 23l14 62h-288q-42 0 -60.5 14.5t-18.5 45.5q0 14 5 39l86 407h140l-77 -363q-1 -4 -1.5 -7t-0.5 -6q0 -16 24 -16h215l83 392h141l-132 -619q-11 -51 -37 -75t-81 -24h-408zM324 569l193 204h113l-217 -204h-89z" />
    <glyph glyph-name="thorn" unicode="&#xfe;" horiz-adv-x="628" 
d="M193 0l-46 -213h-139l198 931h139l-126 -594h214q31 0 38 33l41 194q1 5 1 13q0 21 -25 21h-164l26 121h239q78 0 78 -67q0 -7 -1 -15t-3 -17l-65 -308q-11 -51 -36.5 -75t-79.5 -24h-289z" />
    <glyph glyph-name="ydieresis" unicode="&#xff;" horiz-adv-x="610" 
d="M15 0zM15 -212l26 121h336q17 0 23.5 6t10.5 23l14 62h-288q-42 0 -60.5 14.5t-18.5 45.5q0 14 5 39l86 407h140l-77 -363q-1 -4 -1.5 -7t-0.5 -6q0 -16 24 -16h215l83 392h141l-132 -619q-11 -51 -37 -75t-81 -24h-408zM505 566l32 152h126l-32 -152h-126zM218 566
l32 152h126l-32 -152h-126z" />
    <glyph glyph-name="Amacron" unicode="&#x100;" horiz-adv-x="636" 
d="M16 0zM466 0l-7 105h-244l-52 -105h-147l352 677h199l52 -677h-153zM433 541l-164 -324h185zM257 805l19 89h461l-19 -89h-461z" />
    <glyph glyph-name="amacron" unicode="&#x101;" horiz-adv-x="630" 
d="M66 0zM138 0q-38 0 -55 14.5t-17 43.5q0 14 5 37l25 120q6 28 14 47t20 30t29 15.5t41 4.5h257l-18 -86h-184q-14 0 -20 -5t-9 -21l-11 -53q-1 -5 -1.5 -8t-0.5 -6q0 -13 19 -13h234l53 248q1 4 1 11q0 8 -5 12.5t-19 4.5h-343l23 110h414q44 0 62 -14.5t18 -45.5
q0 -14 -5 -39l-86 -407h-441zM223 634l19 89h461l-19 -89h-461z" />
    <glyph glyph-name="Abreve" unicode="&#x102;" horiz-adv-x="636" 
d="M16 0zM466 0l-7 105h-244l-52 -105h-147l352 677h199l52 -677h-153zM433 541l-164 -324h185zM723 944q-10 -46 -26 -84t-44.5 -65.5t-71.5 -42.5t-107 -15q-49 0 -82 9t-53 25.5t-28.5 40t-8.5 53.5q0 18 2.5 37.5t7.5 41.5h62q-3 -15 -5 -28.5t-2 -25.5q0 -42 26 -64.5
t95 -22.5q43 0 73 9.5t49.5 28t31 44.5t19.5 59h62z" />
    <glyph glyph-name="abreve" unicode="&#x103;" horiz-adv-x="630" 
d="M66 0zM138 0q-38 0 -55 14.5t-17 43.5q0 14 5 37l25 120q6 28 14 47t20 30t29 15.5t41 4.5h257l-18 -86h-184q-14 0 -20 -5t-9 -21l-11 -53q-1 -5 -1.5 -8t-0.5 -6q0 -13 19 -13h234l53 248q1 4 1 11q0 8 -5 12.5t-19 4.5h-343l23 110h414q44 0 62 -14.5t18 -45.5
q0 -14 -5 -39l-86 -407h-441zM691 773q-10 -46 -26 -84t-44.5 -65.5t-71.5 -42.5t-107 -15q-49 0 -82 9t-53 25.5t-28.5 40t-8.5 53.5q0 18 2.5 37.5t7.5 41.5h62q-3 -15 -5 -28.5t-2 -25.5q0 -42 26 -64.5t95 -22.5q43 0 73 9.5t49.5 28t31 44.5t19.5 59h62z" />
    <glyph glyph-name="Aogonek" unicode="&#x104;" horiz-adv-x="636" 
d="M386 -256q-21 0 -34 10t-13 33q0 10 3 22l11 51q4 17 8.5 29.5t11.5 22.5t17.5 17.5t26.5 15.5l114 55h-65l-7 105h-244l-52 -105h-147l352 677h199l52 -677l-136 -70q-12 -6 -16 -12t-7 -20l-7 -31q-1 -3 -1 -9q0 -12 15 -12h119l-22 -102h-178zM433 541l-164 -324h185z
" />
    <glyph glyph-name="aogonek" unicode="&#x105;" horiz-adv-x="630" 
d="M346 -256q-21 0 -34 10t-13 33q0 10 3 22l11 51q4 17 8.5 29.5t11.5 22.5t17.5 17.5t26.5 15.5l114 55h-353q-38 0 -55 14.5t-17 43.5q0 14 5 37l25 120q6 28 14 47t20 30t29 15.5t41 4.5h257l-18 -86h-184q-14 0 -20 -5t-9 -21l-11 -53q-1 -5 -1.5 -8t-0.5 -6
q0 -13 19 -13h234l53 248q1 4 1 11q0 8 -5 12.5t-19 4.5h-343l23 110h414q44 0 62 -14.5t18 -45.5q0 -14 -5 -39l-86 -407l-136 -70q-12 -6 -16 -12t-7 -20l-7 -31q-1 -3 -1 -9q0 -12 15 -12h119l-22 -102h-178z" />
    <glyph glyph-name="Cacute" unicode="&#x106;" horiz-adv-x="586" 
d="M70 0zM165 0q-51 0 -73 18t-22 56q0 10 1 20.5t4 23.5l93 441q13 60 44.5 89t95.5 29h381l-28 -135h-306q-24 0 -32.5 -7.5t-13.5 -30.5l-71 -330q-1 -5 -1.5 -8.5t-0.5 -7.5q0 -11 7 -16t26 -5h308l-29 -137h-383zM348 740l193 204h113l-217 -204h-89z" />
    <glyph glyph-name="cacute" unicode="&#x107;" horiz-adv-x="542" 
d="M65 0zM144 0q-42 0 -60.5 14.5t-18.5 45.5q0 14 5 39l65 308q11 51 36.5 75t79.5 24h357l-26 -123h-285q-17 0 -23 -5t-10 -22l-43 -202q-1 -4 -1.5 -7t-0.5 -6q0 -15 23 -15h285l-26 -126h-357zM290 569l193 204h113l-217 -204h-89z" />
    <glyph glyph-name="Cdotaccent" unicode="&#x10a;" horiz-adv-x="586" 
d="M70 0zM165 0q-51 0 -73 18t-22 56q0 10 1 20.5t4 23.5l93 441q13 60 44.5 89t95.5 29h381l-28 -135h-306q-24 0 -32.5 -7.5t-13.5 -30.5l-71 -330q-1 -5 -1.5 -8.5t-0.5 -7.5q0 -11 7 -16t26 -5h308l-29 -137h-383zM402 737l32 152h126l-32 -152h-126z" />
    <glyph glyph-name="cdotaccent" unicode="&#x10b;" horiz-adv-x="542" 
d="M65 0zM144 0q-42 0 -60.5 14.5t-18.5 45.5q0 14 5 39l65 308q11 51 36.5 75t79.5 24h357l-26 -123h-285q-17 0 -23 -5t-10 -22l-43 -202q-1 -4 -1.5 -7t-0.5 -6q0 -15 23 -15h285l-26 -126h-357zM343 566l32 152h126l-32 -152h-126z" />
    <glyph glyph-name="Ccaron" unicode="&#x10c;" horiz-adv-x="586" 
d="M70 0zM165 0q-51 0 -73 18t-22 56q0 10 1 20.5t4 23.5l93 441q13 60 44.5 89t95.5 29h381l-28 -135h-306q-24 0 -32.5 -7.5t-13.5 -30.5l-71 -330q-1 -5 -1.5 -8.5t-0.5 -7.5q0 -11 7 -16t26 -5h308l-29 -137h-383zM406 740q-11 17 -27.5 44.5l-34.5 57.5l-34.5 57.5
t-27.5 44.5h100l96 -161l168 161h98l-219 -204h-119z" />
    <glyph glyph-name="ccaron" unicode="&#x10d;" horiz-adv-x="542" 
d="M65 0zM144 0q-42 0 -60.5 14.5t-18.5 45.5q0 14 5 39l65 308q11 51 36.5 75t79.5 24h357l-26 -123h-285q-17 0 -23 -5t-10 -22l-43 -202q-1 -4 -1.5 -7t-0.5 -6q0 -15 23 -15h285l-26 -126h-357zM339 569q-11 17 -27.5 44.5l-34.5 57.5l-34.5 57.5t-27.5 44.5h100
l96 -161l168 161h98l-219 -204h-119z" />
    <glyph glyph-name="Dcaron" unicode="&#x10e;" horiz-adv-x="676" 
d="M56 0zM56 0l105 494h150l-77 -362h213q53 0 67 65l60 282q3 12 3 23q0 42 -43 42h-363l28 133h391q148 0 148 -120q0 -25 -6 -53l-71 -331q-18 -85 -71 -129t-143 -44h-391zM416 740q-11 17 -27.5 44.5l-34.5 57.5l-34.5 57.5t-27.5 44.5h100l96 -161l168 161h98
l-219 -204h-119z" />
    <glyph glyph-name="dcaron" unicode="&#x10f;" horiz-adv-x="762" 
d="M65 0zM144 0q-42 0 -60.5 14.5t-18.5 45.5q0 14 5 39l65 308q11 51 39.5 75t76.5 24h239l-26 -121h-167q-16 0 -22.5 -5.5t-10.5 -22.5l-43 -205q-2 -10 -2 -13q0 -15 23 -15h217l126 594h141l-152 -718h-430zM690 469l96 249h128l-112 -249h-112z" />
    <glyph glyph-name="Dcroat" unicode="&#x110;" 
d="M54 0zM54 0l60 284h-39l19 91h39l26 120h150l-26 -120h164l-19 -91h-164l-32 -152h214q53 0 67 65l61 283q1 6 1.5 11t0.5 10q0 44 -43 44h-364l28 132h392q148 0 148 -120q0 -25 -6 -53l-71 -331q-18 -85 -71 -129t-143 -44h-392z" />
    <glyph glyph-name="dcroat" unicode="&#x111;" horiz-adv-x="628" 
d="M144 0q-42 0 -60.5 14.5t-18.5 45.5q0 14 5 39l65 308q11 51 39.5 75t76.5 24h239l-26 -121h-167q-16 0 -22.5 -5.5t-10.5 -22.5l-43 -205q-2 -10 -2 -13q0 -15 23 -15h217l93 440h-270l19 89h270l14 65h141l-14 -65h50l-19 -89h-50l-119 -564h-430z" />
    <glyph glyph-name="Emacron" unicode="&#x112;" horiz-adv-x="609" 
d="M51 0zM51 0l105 495h157l-24 -110h249l-23 -108h-249l-30 -142h345l-28 -135h-502zM166 545l28 132h502l-28 -132h-502zM244 805l19 89h461l-19 -89h-461z" />
    <glyph glyph-name="emacron" unicode="&#x113;" horiz-adv-x="618" 
d="M60 0zM140 0q-43 0 -61.5 14.5t-18.5 45.5q0 14 5 39l65 308q11 51 36.5 75t80.5 24h342q38 0 54.5 -14.5t16.5 -43.5q0 -18 -4 -37l-42 -199h-337l17 84h204l15 68q1 5 1 13t-4.5 11t-16.5 3h-201q-17 0 -23 -5.5t-10 -22.5l-47 -218q-1 -5 -1.5 -8.5t-0.5 -6.5
q0 -9 5 -12t18 -3h341l-24 -115h-410zM212 634l19 89h461l-19 -89h-461z" />
    <glyph glyph-name="Ebreve" unicode="&#x114;" horiz-adv-x="609" 
d="M51 0zM51 0l105 495h157l-24 -110h249l-23 -108h-249l-30 -142h345l-28 -135h-502zM166 545l28 132h502l-28 -132h-502zM710 944q-10 -46 -26 -84t-44.5 -65.5t-71.5 -42.5t-107 -15q-49 0 -82 9t-53 25.5t-28.5 40t-8.5 53.5q0 18 2.5 37.5t7.5 41.5h62q-3 -15 -5 -28.5
t-2 -25.5q0 -42 26 -64.5t95 -22.5q43 0 73 9.5t49.5 28t31 44.5t19.5 59h62z" />
    <glyph glyph-name="ebreve" unicode="&#x115;" horiz-adv-x="618" 
d="M60 0zM140 0q-43 0 -61.5 14.5t-18.5 45.5q0 14 5 39l65 308q11 51 36.5 75t80.5 24h342q38 0 54.5 -14.5t16.5 -43.5q0 -18 -4 -37l-42 -199h-337l17 84h204l15 68q1 5 1 13t-4.5 11t-16.5 3h-201q-17 0 -23 -5.5t-10 -22.5l-47 -218q-1 -5 -1.5 -8.5t-0.5 -6.5
q0 -9 5 -12t18 -3h341l-24 -115h-410zM678 773q-10 -46 -26 -84t-44.5 -65.5t-71.5 -42.5t-107 -15q-49 0 -82 9t-53 25.5t-28.5 40t-8.5 53.5q0 18 2.5 37.5t7.5 41.5h62q-3 -15 -5 -28.5t-2 -25.5q0 -42 26 -64.5t95 -22.5q43 0 73 9.5t49.5 28t31 44.5t19.5 59h62z" />
    <glyph glyph-name="Edotaccent" unicode="&#x116;" horiz-adv-x="609" 
d="M51 0zM51 0l105 495h157l-24 -110h249l-23 -108h-249l-30 -142h345l-28 -135h-502zM166 545l28 132h502l-28 -132h-502zM397 737l32 152h126l-32 -152h-126z" />
    <glyph glyph-name="edotaccent" unicode="&#x117;" horiz-adv-x="618" 
d="M60 0zM140 0q-43 0 -61.5 14.5t-18.5 45.5q0 14 5 39l65 308q11 51 36.5 75t80.5 24h342q38 0 54.5 -14.5t16.5 -43.5q0 -18 -4 -37l-42 -199h-337l17 84h204l15 68q1 5 1 13t-4.5 11t-16.5 3h-201q-17 0 -23 -5.5t-10 -22.5l-47 -218q-1 -5 -1.5 -8.5t-0.5 -6.5
q0 -9 5 -12t18 -3h341l-24 -115h-410zM366 566l32 152h126l-32 -152h-126z" />
    <glyph glyph-name="Eogonek" unicode="&#x118;" horiz-adv-x="609" 
d="M320 -256q-21 0 -34 10t-13 33q0 10 3 22l11 51q4 17 8.5 29.5t11.5 22.5t17.5 17.5t26.5 15.5l114 55h-414l105 495h157l-24 -110h249l-23 -108h-249l-30 -142h345l-28 -135l-136 -70q-12 -6 -16 -12t-7 -20l-7 -31q-1 -3 -1 -9q0 -12 15 -12h119l-22 -102h-178z
M166 545l28 132h502l-28 -132h-502z" />
    <glyph glyph-name="eogonek" unicode="&#x119;" horiz-adv-x="618" 
d="M317 -256q-21 0 -34 10t-13 33q0 10 3 22l11 51q4 17 8.5 29.5t11.5 22.5t17.5 17.5t26.5 15.5l114 55h-322q-43 0 -61.5 14.5t-18.5 45.5q0 14 5 39l65 308q11 51 36.5 75t80.5 24h342q38 0 54.5 -14.5t16.5 -43.5q0 -18 -4 -37l-42 -199h-337l17 84h204l15 68q1 5 1 13
t-4.5 11t-16.5 3h-201q-17 0 -23 -5.5t-10 -22.5l-47 -218q-1 -5 -1.5 -8.5t-0.5 -6.5q0 -9 5 -12t18 -3h341l-24 -115l-136 -70q-12 -6 -16 -12t-7 -20l-7 -31q-1 -3 -1 -9q0 -12 15 -12h119l-22 -102h-178z" />
    <glyph glyph-name="Ecaron" unicode="&#x11a;" horiz-adv-x="609" 
d="M51 0zM51 0l105 495h157l-24 -110h249l-23 -108h-249l-30 -142h345l-28 -135h-502zM166 545l28 132h502l-28 -132h-502zM397 740q-11 17 -27.5 44.5l-34.5 57.5l-34.5 57.5t-27.5 44.5h100l96 -161l168 161h98l-219 -204h-119z" />
    <glyph glyph-name="ecaron" unicode="&#x11b;" horiz-adv-x="618" 
d="M60 0zM140 0q-43 0 -61.5 14.5t-18.5 45.5q0 14 5 39l65 308q11 51 36.5 75t80.5 24h342q38 0 54.5 -14.5t16.5 -43.5q0 -18 -4 -37l-42 -199h-337l17 84h204l15 68q1 5 1 13t-4.5 11t-16.5 3h-201q-17 0 -23 -5.5t-10 -22.5l-47 -218q-1 -5 -1.5 -8.5t-0.5 -6.5
q0 -9 5 -12t18 -3h341l-24 -115h-410zM366 569q-11 17 -27.5 44.5l-34.5 57.5l-34.5 57.5t-27.5 44.5h100l96 -161l168 161h98l-219 -204h-119z" />
    <glyph glyph-name="Gbreve" unicode="&#x11e;" horiz-adv-x="645" 
d="M70 0zM166 0q-51 0 -73.5 18t-22.5 55q0 19 6 45l93 441q13 60 44 89t96 29h418l-28 -135h-352q-20 0 -27.5 -7t-12.5 -30l-73 -345q-2 -10 -2 -13q0 -10 6 -13.5t21 -3.5h217l33 154h-134l23 109h276l-83 -393h-425zM728 944q-10 -46 -26 -84t-44.5 -65.5t-71.5 -42.5
t-107 -15q-49 0 -82 9t-53 25.5t-28.5 40t-8.5 53.5q0 18 2.5 37.5t7.5 41.5h62q-3 -15 -5 -28.5t-2 -25.5q0 -42 26 -64.5t95 -22.5q43 0 73 9.5t49.5 28t31 44.5t19.5 59h62z" />
    <glyph glyph-name="gbreve" unicode="&#x11f;" horiz-adv-x="613" 
d="M16 0zM16 -212l26 121h338q17 0 23.5 6t10.5 23l95 447h-218q-17 0 -23.5 -6t-9.5 -22l-46 -216q-1 -5 -1 -11q0 -16 23 -16h168l-24 -114h-240q-42 0 -60.5 14.5t-18.5 45.5q0 14 5 39l65 308q11 51 36.5 75t79.5 24h430l-132 -619q-11 -51 -36.5 -75t-80.5 -24h-410z
M676 773q-10 -46 -26 -84t-44.5 -65.5t-71.5 -42.5t-107 -15q-49 0 -82 9t-53 25.5t-28.5 40t-8.5 53.5q0 18 2.5 37.5t7.5 41.5h62q-3 -15 -5 -28.5t-2 -25.5q0 -42 26 -64.5t95 -22.5q43 0 73 9.5t49.5 28t31 44.5t19.5 59h62z" />
    <glyph glyph-name="Gdotaccent" unicode="&#x120;" horiz-adv-x="645" 
d="M70 0zM166 0q-51 0 -73.5 18t-22.5 55q0 19 6 45l93 441q13 60 44 89t96 29h418l-28 -135h-352q-20 0 -27.5 -7t-12.5 -30l-73 -345q-2 -10 -2 -13q0 -10 6 -13.5t21 -3.5h217l33 154h-134l23 109h276l-83 -393h-425zM415 737l32 152h126l-32 -152h-126z" />
    <glyph glyph-name="gdotaccent" unicode="&#x121;" horiz-adv-x="613" 
d="M16 0zM16 -212l26 121h338q17 0 23.5 6t10.5 23l95 447h-218q-17 0 -23.5 -6t-9.5 -22l-46 -216q-1 -5 -1 -11q0 -16 23 -16h168l-24 -114h-240q-42 0 -60.5 14.5t-18.5 45.5q0 14 5 39l65 308q11 51 36.5 75t79.5 24h430l-132 -619q-11 -51 -36.5 -75t-80.5 -24h-410z
M363 566l32 152h126l-32 -152h-126z" />
    <glyph glyph-name="Gcommaaccent" unicode="&#x122;" horiz-adv-x="645" 
d="M70 0zM166 0q-51 0 -73.5 18t-22.5 55q0 19 6 45l93 441q13 60 44 89t96 29h418l-28 -135h-352q-20 0 -27.5 -7t-12.5 -30l-73 -345q-2 -10 -2 -13q0 -10 6 -13.5t21 -3.5h217l33 154h-134l23 109h276l-83 -393h-425zM191 -256l82 196h113l-98 -196h-97z" />
    <glyph glyph-name="gcommaaccent" unicode="&#x123;" horiz-adv-x="613" 
d="M16 0zM16 -212l26 121h338q17 0 23.5 6t10.5 23l95 447h-218q-17 0 -23.5 -6t-9.5 -22l-46 -216q-1 -5 -1 -11q0 -16 23 -16h168l-24 -114h-240q-42 0 -60.5 14.5t-18.5 45.5q0 14 5 39l65 308q11 51 36.5 75t79.5 24h430l-132 -619q-11 -51 -36.5 -75t-80.5 -24h-410z
M559.999 740.984l-81.9951 -195.988h-112.992l97.9932 195.988h96.9941z" />
    <glyph glyph-name="Hbar" unicode="&#x126;" horiz-adv-x="681" 
d="M624 0h-152l59 280h-265l-59 -280h-152l143 677h152l-19 -91h265l19 91h152zM558 407l19 90h-265l-19 -90h265z" />
    <glyph glyph-name="hbar" unicode="&#x127;" horiz-adv-x="651" 
d="M313 564l-24 -113q20 29 43.5 42t55.5 13h222q41 0 59.5 -14t18.5 -47q0 -19 -4 -38l-86 -407h-139l75 357q2 10 2 12q0 16 -25 16h-209q-15 0 -22 -5.5t-11 -22.5l-75 -357h-140l119 564h-41l19 89h41l14 65h140l-14 -65h280l-19 -89h-280z" />
    <glyph glyph-name="uni012A" unicode="&#x12a;" horiz-adv-x="270" 
d="M58 0zM58 0l143 677h152l-143 -677h-152zM77 805l19 89h461l-19 -89h-461z" />
    <glyph glyph-name="imacron" unicode="&#x12b;" horiz-adv-x="410" 
d="M110 0zM135 0l107 506h140l-107 -506h-140zM110 634l19 89h461l-19 -89h-461z" />
    <glyph glyph-name="Ibreve" unicode="&#x12c;" horiz-adv-x="270" 
d="M58 0zM58 0l143 677h152l-143 -677h-152zM543 944q-10 -46 -26 -84t-44.5 -65.5t-71.5 -42.5t-107 -15q-49 0 -82 9t-53 25.5t-28.5 40t-8.5 53.5q0 18 2.5 37.5t7.5 41.5h62q-3 -15 -5 -28.5t-2 -25.5q0 -42 26 -64.5t95 -22.5q43 0 73 9.5t49.5 28t31 44.5t19.5 59h62z
" />
    <glyph glyph-name="ibreve" unicode="&#x12d;" horiz-adv-x="367" 
d="M113 0zM113 0l107 506h140l-107 -506h-140zM554 773q-10 -46 -26 -84t-44.5 -65.5t-71.5 -42.5t-107 -15q-49 0 -82 9t-53 25.5t-28.5 40t-8.5 53.5q0 18 2.5 37.5t7.5 41.5h62q-3 -15 -5 -28.5t-2 -25.5q0 -42 26 -64.5t95 -22.5q43 0 73 9.5t49.5 28t31 44.5t19.5 59
h62z" />
    <glyph glyph-name="Iogonek" unicode="&#x12e;" horiz-adv-x="270" 
d="M-22 -256q-21 0 -34 10t-13 33q0 10 3 22l11 51q4 17 8.5 29.5t11 22.5t17 17.5t26.5 15.5l114 55h-64l143 677h152l-143 -677l-136 -70q-12 -6 -16 -12t-7 -20l-7 -31q-1 -3 -1 -9q0 -12 15 -12h119l-22 -102h-177z" />
    <glyph glyph-name="iogonek" unicode="&#x12f;" horiz-adv-x="253" 
d="M-36 -256q-21 0 -34 10t-13 33q0 10 3 22l11 51q4 17 8.5 29.5t11.5 22.5t17.5 17.5t26.5 15.5l113 55h-52l107 506h140l-107 -506l-136 -70q-12 -6 -16 -12t-7 -20l-7 -31q-1 -3 -1 -9q0 -12 15 -12h119l-22 -102h-177zM176 566l32 152h141l-32 -152h-141z" />
    <glyph glyph-name="Idotaccent" unicode="&#x130;" horiz-adv-x="270" 
d="M58 0zM58 0l143 677h152l-143 -677h-152zM228 737l32 152h126l-32 -152h-126z" />
    <glyph glyph-name="dotlessi" unicode="&#x131;" horiz-adv-x="253" 
d="M56 0l107 506h140l-107 -506h-140z" />
    <glyph glyph-name="IJ" unicode="&#x132;" horiz-adv-x="815" 
d="M58 0zM58 0l143 677h152l-143 -677h-152zM298 0l29 137h273q23 0 30.5 7.5t12.5 28.5l79 372h-118l28 132h270l-118 -559q-13 -60 -44 -89t-95 -29h-347z" />
    <glyph glyph-name="ij" unicode="&#x133;" horiz-adv-x="520" 
d="M56 0zM56 0l107 506h140l-107 -506h-140zM176 566l32 152h141l-32 -152h-141zM134 -212l26 121h114q16 0 22.5 6t9.5 20l121 571h140l-132 -619q-11 -51 -36.5 -75t-79.5 -24h-185zM439 566l32 152h141l-32 -152h-141z" />
    <glyph glyph-name="Kcommaaccent" unicode="&#x136;" horiz-adv-x="706" 
d="M55 0zM500 0l51 241q3 15 3 24q0 14 -8.5 18.5t-30.5 4.5h-222l14 69l312 320h166l-277 -277h108q101 0 101 -89q0 -22 -6 -49l-55 -262h-156zM55 0l143 677h152l-143 -677h-152zM222 -256l82 196h113l-98 -196h-97z" />
    <glyph glyph-name="kcommaaccent" unicode="&#x137;" horiz-adv-x="646" 
d="M53 0zM53 0l152 718h141l-152 -718h-141zM457 0l35 168q1 5 1.5 9.5t0.5 8.5q0 12 -7 17t-24 5h-200l11 51l263 247h154l-222 -203h97q76 0 76 -70q0 -18 -4 -37l-41 -196h-140zM192 -256l82 196h113l-98 -196h-97z" />
    <glyph glyph-name="Lacute" unicode="&#x139;" horiz-adv-x="539" 
d="M54 0zM508 0h-454l143 677h152l-114 -540h302zM186 740l193 204h113l-217 -204h-89z" />
    <glyph glyph-name="lacute" unicode="&#x13a;" horiz-adv-x="248" 
d="M54 0zM54 0l152 718h140l-152 -718h-140zM179 740l193 204h113l-217 -204h-89z" />
    <glyph glyph-name="Lcommaaccent" unicode="&#x13b;" horiz-adv-x="539" 
d="M54 0zM508 0h-454l143 677h152l-114 -540h302zM138 -256l82 196h113l-98 -196h-97z" />
    <glyph glyph-name="lcommaaccent" unicode="&#x13c;" horiz-adv-x="248" 
d="M0 0zM54 0l152 718h140l-152 -718h-140zM-21 -256l82 196h113l-98 -196h-97z" />
    <glyph glyph-name="Lcaron" unicode="&#x13d;" horiz-adv-x="539" 
d="M54 0zM508 0h-454l143 677h152l-114 -540h302zM365 469l96 249h128l-112 -249h-112z" />
    <glyph glyph-name="lcaron" unicode="&#x13e;" horiz-adv-x="391" 
d="M54 0zM54 0l152 718h140l-152 -718h-140zM319 469l96 249h128l-112 -249h-112z" />
    <glyph glyph-name="Ldot" unicode="&#x13f;" horiz-adv-x="539" 
d="M54 0zM508 0h-454l143 677h152l-114 -540h302zM355 303l32 152h126l-32 -152h-126z" />
    <glyph glyph-name="ldot" unicode="&#x140;" horiz-adv-x="352" 
d="M54 0zM54 0l152 718h140l-152 -718h-140zM286 287l32 152h126l-32 -152h-126z" />
    <glyph glyph-name="Lslash" unicode="&#x141;" horiz-adv-x="552" 
d="M67 0l84 396l-61 -13l18 83l60 13l42 198h152l-34 -163l166 37l-18 -83l-166 -37l-62 -293h302l-29 -138h-454z" />
    <glyph glyph-name="lslash" unicode="&#x142;" horiz-adv-x="281" 
d="M69 0l95 447l-64 -17l19 88l63 17l39 183h142l-30 -143l64 17l-18 -88l-65 -17l-103 -487h-142z" />
    <glyph glyph-name="Nacute" unicode="&#x143;" horiz-adv-x="703" 
d="M54 0zM545 0l-256 444l-94 -444h-141l143 677h143l222 -404l85 404h142l-143 -677h-101zM406 740l193 204h113l-217 -204h-89z" />
    <glyph glyph-name="nacute" unicode="&#x144;" horiz-adv-x="649" 
d="M51 0zM456 0l75 357q2 10 2 12q0 16 -25 16h-209q-15 0 -22 -5.5t-11 -22.5l-75 -357h-140l107 506h135l-12 -55q36 55 99 55h227q41 0 59.5 -14t18.5 -47q0 -19 -4 -38l-86 -407h-139zM343 569l193 204h113l-217 -204h-89z" />
    <glyph glyph-name="Ncommaaccent" unicode="&#x145;" horiz-adv-x="703" 
d="M54 0zM545 0l-256 444l-94 -444h-141l143 677h143l222 -404l85 404h142l-143 -677h-101zM220 -256l82 196h113l-98 -196h-97z" />
    <glyph glyph-name="ncommaaccent" unicode="&#x146;" horiz-adv-x="649" 
d="M51 0zM456 0l75 357q2 10 2 12q0 16 -25 16h-209q-15 0 -22 -5.5t-11 -22.5l-75 -357h-140l107 506h135l-12 -55q36 55 99 55h227q41 0 59.5 -14t18.5 -47q0 -19 -4 -38l-86 -407h-139zM183 -256l82 196h113l-98 -196h-97z" />
    <glyph glyph-name="Ncaron" unicode="&#x147;" horiz-adv-x="703" 
d="M54 0zM545 0l-256 444l-94 -444h-141l143 677h143l222 -404l85 404h142l-143 -677h-101zM444 740q-11 17 -27.5 44.5l-34.5 57.5l-34.5 57.5t-27.5 44.5h100l96 -161l168 161h98l-219 -204h-119z" />
    <glyph glyph-name="ncaron" unicode="&#x148;" horiz-adv-x="649" 
d="M51 0zM456 0l75 357q2 10 2 12q0 16 -25 16h-209q-15 0 -22 -5.5t-11 -22.5l-75 -357h-140l107 506h135l-12 -55q36 55 99 55h227q41 0 59.5 -14t18.5 -47q0 -19 -4 -38l-86 -407h-139zM387 569q-11 17 -27.5 44.5l-34.5 57.5l-34.5 57.5t-27.5 44.5h100l96 -161l168 161
h98l-219 -204h-119z" />
    <glyph glyph-name="Eng" unicode="&#x14a;" horiz-adv-x="703" 
d="M310 -256l26 121h115q16 0 22 6t9 20l34 158l-227 395l-94 -444h-141l143 677h143l222 -404l85 404h142l-177 -834q-11 -51 -36.5 -75t-79.5 -24h-186z" />
    <glyph glyph-name="eng" unicode="&#x14b;" horiz-adv-x="649" 
d="M259 -256l26 121h115q16 0 22 6t9 20l100 466q2 10 2 12q0 16 -25 16h-209q-15 0 -22 -5.5t-11 -22.5l-75 -357h-140l107 506h135l-12 -55q36 55 99 55h227q41 0 59.5 -14t18.5 -47q0 -19 -4 -38l-120 -564q-11 -51 -36.5 -75t-79.5 -24h-186z" />
    <glyph glyph-name="Omacron" unicode="&#x14c;" horiz-adv-x="668" 
d="M70 0zM166 0q-51 0 -73.5 18t-22.5 55q0 19 6 45l93 441q13 60 44 89t96 29h337q51 0 73 -18t22 -56q0 -10 -1.5 -21t-3.5 -23l-93 -441q-13 -60 -44.5 -89t-95.5 -29h-337zM573 506q1 5 1.5 9t0.5 7q0 23 -35 23h-189q-20 0 -28.5 -8t-13.5 -31l-72 -337q-2 -10 -2 -13
q0 -21 29 -21h189q24 0 34 8t14 26zM273 805l19 89h461l-19 -89h-461z" />
    <glyph glyph-name="omacron" unicode="&#x14d;" horiz-adv-x="633" 
d="M65 0zM144 0q-42 0 -60.5 14.5t-18.5 45.5q0 14 5 39l65 308q11 51 36.5 75t79.5 24h344q44 0 62 -14.5t18 -45.5q0 -14 -5 -39l-65 -308q-11 -51 -36.5 -75t-80.5 -24h-344zM519 357q2 10 2 12q0 16 -27 16h-198q-16 0 -22.5 -5.5t-9.5 -22.5l-43 -206q-1 -4 -1.5 -7
t-0.5 -6q0 -14 22 -14h198q18 0 26 6t11 21zM220 634l19 89h461l-19 -89h-461z" />
    <glyph glyph-name="Obreve" unicode="&#x14e;" horiz-adv-x="668" 
d="M70 0zM166 0q-51 0 -73.5 18t-22.5 55q0 19 6 45l93 441q13 60 44 89t96 29h337q51 0 73 -18t22 -56q0 -10 -1.5 -21t-3.5 -23l-93 -441q-13 -60 -44.5 -89t-95.5 -29h-337zM573 506q1 5 1.5 9t0.5 7q0 23 -35 23h-189q-20 0 -28.5 -8t-13.5 -31l-72 -337q-2 -10 -2 -13
q0 -21 29 -21h189q24 0 34 8t14 26zM739 944q-10 -46 -26 -84t-44.5 -65.5t-71.5 -42.5t-107 -15q-49 0 -82 9t-53 25.5t-28.5 40t-8.5 53.5q0 18 2.5 37.5t7.5 41.5h62q-3 -15 -5 -28.5t-2 -25.5q0 -42 26 -64.5t95 -22.5q43 0 73 9.5t49.5 28t31 44.5t19.5 59h62z" />
    <glyph glyph-name="obreve" unicode="&#x14f;" horiz-adv-x="633" 
d="M65 0zM144 0q-42 0 -60.5 14.5t-18.5 45.5q0 14 5 39l65 308q11 51 36.5 75t79.5 24h344q44 0 62 -14.5t18 -45.5q0 -14 -5 -39l-65 -308q-11 -51 -36.5 -75t-80.5 -24h-344zM519 357q2 10 2 12q0 16 -27 16h-198q-16 0 -22.5 -5.5t-9.5 -22.5l-43 -206q-1 -4 -1.5 -7
t-0.5 -6q0 -14 22 -14h198q18 0 26 6t11 21zM686 773q-10 -46 -26 -84t-44.5 -65.5t-71.5 -42.5t-107 -15q-49 0 -82 9t-53 25.5t-28.5 40t-8.5 53.5q0 18 2.5 37.5t7.5 41.5h62q-3 -15 -5 -28.5t-2 -25.5q0 -42 26 -64.5t95 -22.5q43 0 73 9.5t49.5 28t31 44.5t19.5 59h62z
" />
    <glyph glyph-name="Ohungarumlaut" unicode="&#x150;" horiz-adv-x="668" 
d="M70 0zM166 0q-51 0 -73.5 18t-22.5 55q0 19 6 45l93 441q13 60 44 89t96 29h337q51 0 73 -18t22 -56q0 -10 -1.5 -21t-3.5 -23l-93 -441q-13 -60 -44.5 -89t-95.5 -29h-337zM573 506q1 5 1.5 9t0.5 7q0 23 -35 23h-189q-20 0 -28.5 -8t-13.5 -31l-72 -337q-2 -10 -2 -13
q0 -21 29 -21h189q24 0 34 8t14 26zM499 740l193 204h113l-217 -204h-89zM279 740l193 204h113l-217 -204h-89z" />
    <glyph glyph-name="ohungarumlaut" unicode="&#x151;" horiz-adv-x="633" 
d="M65 0zM144 0q-42 0 -60.5 14.5t-18.5 45.5q0 14 5 39l65 308q11 51 36.5 75t79.5 24h344q44 0 62 -14.5t18 -45.5q0 -14 -5 -39l-65 -308q-11 -51 -36.5 -75t-80.5 -24h-344zM519 357q2 10 2 12q0 16 -27 16h-198q-16 0 -22.5 -5.5t-9.5 -22.5l-43 -206q-1 -4 -1.5 -7
t-0.5 -6q0 -14 22 -14h198q18 0 26 6t11 21zM445 569l193 204h113l-217 -204h-89zM225 569l193 204h113l-217 -204h-89z" />
    <glyph glyph-name="OE" unicode="&#x152;" horiz-adv-x="965" 
d="M166 0q-51 0 -73.5 18t-22.5 55q0 19 6 45l93 441q13 60 44 89t96 29h744l-28 -132h-675q-20 0 -28 -7t-12 -27l-72 -341q-2 -5 -2 -9v-7q0 -11 6 -15t21 -4h191l77 360h156l-24 -110h232l-23 -108h-232l-30 -142h328l-28 -135h-744z" />
    <glyph glyph-name="oe" unicode="&#x153;" horiz-adv-x="995" 
d="M144 0q-42 0 -60.5 14.5t-18.5 45.5q0 14 5 39l65 308q11 51 36.5 75t79.5 24h712q38 0 54 -14.5t16 -43.5q0 -18 -4 -37l-42 -199h-318l17 84h185l15 68q1 5 1 13q0 14 -20 14h-210l-59 -276h349l-24 -115h-779zM516 391h-218q-17 0 -22.5 -5.5t-9.5 -22.5l-47 -221
q-1 -4 -1.5 -7t-0.5 -6q0 -14 22 -14h218z" />
    <glyph glyph-name="Racute" unicode="&#x154;" horiz-adv-x="663" 
d="M55 0zM459 0l46 221q1 5 1.5 8.5t0.5 6.5q0 16 -28 16h-219l-53 -252h-152l105 495h152l-28 -131h208q22 0 29.5 7t12.5 28l24 110q1 5 1.5 9t0.5 7q0 12 -7 16t-24 4h-359l28 132h430q52 0 75 -18.5t23 -56.5q0 -9 -1.5 -19t-3.5 -21l-31 -147q-11 -52 -40 -73.5
t-64 -25.5q32 -2 54 -14.5t22 -44.5v-10.5t-2 -11.5l-49 -235h-152zM386 740l193 204h113l-217 -204h-89z" />
    <glyph glyph-name="racute" unicode="&#x155;" horiz-adv-x="451" 
d="M51 0zM51 0l107 506h136l-12 -55q19 29 42.5 42t56.5 13h147l-26 -121h-202q-15 0 -22.5 -5.5t-11.5 -22.5l-75 -357h-140zM244 569l193 204h113l-217 -204h-89z" />
    <glyph glyph-name="Rcommaaccent" unicode="&#x156;" horiz-adv-x="663" 
d="M55 0zM459 0l46 221q1 5 1.5 8.5t0.5 6.5q0 16 -28 16h-219l-53 -252h-152l105 495h152l-28 -131h208q22 0 29.5 7t12.5 28l24 110q1 5 1.5 9t0.5 7q0 12 -7 16t-24 4h-359l28 132h430q52 0 75 -18.5t23 -56.5q0 -9 -1.5 -19t-3.5 -21l-31 -147q-11 -52 -40 -73.5
t-64 -25.5q32 -2 54 -14.5t22 -44.5v-10.5t-2 -11.5l-49 -235h-152zM190 -256l82 196h113l-98 -196h-97z" />
    <glyph glyph-name="rcommaaccent" unicode="&#x157;" horiz-adv-x="451" 
d="M0 0zM51 0l107 506h136l-12 -55q19 29 42.5 42t56.5 13h147l-26 -121h-202q-15 0 -22.5 -5.5t-11.5 -22.5l-75 -357h-140zM-30 -256l82 196h113l-98 -196h-97z" />
    <glyph glyph-name="Rcaron" unicode="&#x158;" horiz-adv-x="663" 
d="M55 0zM459 0l46 221q1 5 1.5 8.5t0.5 6.5q0 16 -28 16h-219l-53 -252h-152l105 495h152l-28 -131h208q22 0 29.5 7t12.5 28l24 110q1 5 1.5 9t0.5 7q0 12 -7 16t-24 4h-359l28 132h430q52 0 75 -18.5t23 -56.5q0 -9 -1.5 -19t-3.5 -21l-31 -147q-11 -52 -40 -73.5
t-64 -25.5q32 -2 54 -14.5t22 -44.5v-10.5t-2 -11.5l-49 -235h-152zM408 740q-11 17 -27.5 44.5l-34.5 57.5l-34.5 57.5t-27.5 44.5h100l96 -161l168 161h98l-219 -204h-119z" />
    <glyph glyph-name="rcaron" unicode="&#x159;" horiz-adv-x="451" 
d="M51 0zM51 0l107 506h136l-12 -55q19 29 42.5 42t56.5 13h147l-26 -121h-202q-15 0 -22.5 -5.5t-11.5 -22.5l-75 -357h-140zM284 569q-11 17 -27.5 44.5l-34.5 57.5l-34.5 57.5t-27.5 44.5h100l96 -161l168 161h98l-219 -204h-119z" />
    <glyph glyph-name="Sacute" unicode="&#x15a;" horiz-adv-x="646" 
d="M52 0zM52 0l28 132h361q18 0 26.5 7t12.5 26l20 94q1 4 1 11q0 18 -26 18h-267q-41 0 -59.5 17.5t-18.5 49.5q0 12 3 29l37 175q13 60 44 89t97 29h421l-27 -129h-359q-16 0 -23 -7t-11 -25l-19 -89q-1 -4 -1.5 -7t-0.5 -6q0 -15 22 -15h271q42 0 60.5 -18t18.5 -50
q0 -13 -3 -28l-39 -185q-13 -60 -44 -89t-96 -29h-429zM378 740l193 204h113l-217 -204h-89z" />
    <glyph glyph-name="sacute" unicode="&#x15b;" horiz-adv-x="621" 
d="M52 0zM52 0l24 116h347q16 0 21.5 5t8.5 19l11 50q1 3 1 8q0 13 -20 13h-271q-34 0 -49.5 13.5t-15.5 36.5q0 10 3 22l28 135q9 45 34 66.5t78 21.5h418l-24 -113h-345q-16 0 -23 -6t-10 -21l-9 -42q-1 -3 -1 -9q0 -16 21 -16h274q35 0 50.5 -14t15.5 -37q0 -5 -0.5 -10
t-1.5 -10l-30 -140q-10 -45 -35 -66.5t-78 -21.5h-422zM329 569l193 204h113l-217 -204h-89z" />
    <glyph glyph-name="Scedilla" unicode="&#x15e;" horiz-adv-x="646" 
d="M52 0zM52 0l28 132h361q18 0 26.5 7t12.5 26l20 94q1 4 1 11q0 18 -26 18h-267q-41 0 -59.5 17.5t-18.5 49.5q0 12 3 29l37 175q13 60 44 89t97 29h421l-27 -129h-359q-16 0 -23 -7t-11 -25l-19 -89q-1 -4 -1.5 -7t-0.5 -6q0 -15 22 -15h271q42 0 60.5 -18t18.5 -50
q0 -13 -3 -28l-39 -185q-13 -60 -44 -89t-96 -29h-429zM192 -256l82 196h113l-98 -196h-97z" />
    <glyph glyph-name="scedilla" unicode="&#x15f;" horiz-adv-x="621" 
d="M52 0zM52 0l24 116h347q16 0 21.5 5t8.5 19l11 50q1 3 1 8q0 13 -20 13h-271q-34 0 -49.5 13.5t-15.5 36.5q0 10 3 22l28 135q9 45 34 66.5t78 21.5h418l-24 -113h-345q-16 0 -23 -6t-10 -21l-9 -42q-1 -3 -1 -9q0 -16 21 -16h274q35 0 50.5 -14t15.5 -37q0 -5 -0.5 -10
t-1.5 -10l-30 -140q-10 -45 -35 -66.5t-78 -21.5h-422zM179 -256l82 196h113l-98 -196h-97z" />
    <glyph glyph-name="Scaron" unicode="&#x160;" horiz-adv-x="646" 
d="M52 0zM52 0l28 132h361q18 0 26.5 7t12.5 26l20 94q1 4 1 11q0 18 -26 18h-267q-41 0 -59.5 17.5t-18.5 49.5q0 12 3 29l37 175q13 60 44 89t97 29h421l-27 -129h-359q-16 0 -23 -7t-11 -25l-19 -89q-1 -4 -1.5 -7t-0.5 -6q0 -15 22 -15h271q42 0 60.5 -18t18.5 -50
q0 -13 -3 -28l-39 -185q-13 -60 -44 -89t-96 -29h-429zM426 740q-11 17 -27.5 44.5l-34.5 57.5l-34.5 57.5t-27.5 44.5h100l96 -161l168 161h98l-219 -204h-119z" />
    <glyph glyph-name="scaron" unicode="&#x161;" horiz-adv-x="621" 
d="M52 0zM52 0l24 116h347q16 0 21.5 5t8.5 19l11 50q1 3 1 8q0 13 -20 13h-271q-34 0 -49.5 13.5t-15.5 36.5q0 10 3 22l28 135q9 45 34 66.5t78 21.5h418l-24 -113h-345q-16 0 -23 -6t-10 -21l-9 -42q-1 -3 -1 -9q0 -16 21 -16h274q35 0 50.5 -14t15.5 -37q0 -5 -0.5 -10
t-1.5 -10l-30 -140q-10 -45 -35 -66.5t-78 -21.5h-422zM367 569q-11 17 -27.5 44.5l-34.5 57.5l-34.5 57.5t-27.5 44.5h100l96 -161l168 161h98l-219 -204h-119z" />
    <glyph glyph-name="Tcommaaccent" unicode="&#x162;" horiz-adv-x="533" 
d="M119 0zM341 0h-152l115 544h-164l28 133h481l-28 -133h-165zM119 -256l82 196h113l-98 -196h-97z" />
    <glyph glyph-name="tcommaaccent" unicode="&#x163;" horiz-adv-x="342" 
d="M40 0zM146 0q-42 0 -60.5 14.5t-18.5 45.5q0 14 5 39l116 548h140l-30 -141h122l-23 -110h-122l-55 -259q-2 -10 -2 -13q0 -14 22 -14h92l-23 -110h-163zM40 -256l82 196h113l-98 -196h-97z" />
    <glyph glyph-name="Tcaron" unicode="&#x164;" horiz-adv-x="533" 
d="M140 0zM341 0h-152l115 544h-164l28 133h481l-28 -133h-165zM360 740q-11 17 -27.5 44.5l-34.5 57.5l-34.5 57.5t-27.5 44.5h100l96 -161l168 161h98l-219 -204h-119z" />
    <glyph glyph-name="tcaron" unicode="&#x165;" horiz-adv-x="493" 
d="M67 0zM146 0q-42 0 -60.5 14.5t-18.5 45.5q0 14 5 39l116 548h140l-30 -141h122l-23 -110h-122l-55 -259q-2 -10 -2 -13q0 -14 22 -14h92l-23 -110h-163zM421 469l96 249h128l-112 -249h-112z" />
    <glyph glyph-name="Tbar" unicode="&#x166;" horiz-adv-x="533" 
d="M394 254l-53 -254h-152l53 254h-84l18 84h84l44 206h-164l28 133h481l-28 -133h-165l-44 -206h86l-18 -84h-86z" />
    <glyph glyph-name="tbar" unicode="&#x167;" horiz-adv-x="342" 
d="M236 212l-16 -75q-2 -10 -2 -13q0 -14 22 -14h92l-23 -110h-163q-42 0 -60.5 14.5t-18.5 45.5q0 14 5 39l116 548h140l-30 -141h122l-23 -110h-122l-22 -100h111l-17 -84h-111z" />
    <glyph glyph-name="Utilde" unicode="&#x168;" 
d="M73 0zM169 0q-52 0 -74 18t-22 56q0 10 1 21t4 23l118 559h152l-107 -506q-3 -12 -3 -18q0 -11 7 -14.5t23 -3.5h200q20 0 29 6.5t14 29.5l107 506h146l-118 -559q-13 -60 -44.5 -89t-95.5 -29h-337zM722 820q-25 -19 -58.5 -27t-59.5 -8q-30 0 -54 7.5t-45.5 17
t-41.5 17t-42 7.5q-30 0 -62.5 -8.5t-64.5 -30.5l19 90q26 19 59.5 27t59.5 8t49.5 -8t45.5 -17t43.5 -17t43.5 -8q33 0 63.5 8.5t64.5 31.5z" />
    <glyph glyph-name="utilde" unicode="&#x169;" horiz-adv-x="640" 
d="M67 0zM453 0l11 54q-19 -29 -42.5 -41.5t-55.5 -12.5h-220q-40 0 -59.5 14t-19.5 47q0 15 5 38l86 407h140l-76 -357q-2 -10 -2 -13q0 -16 24 -16h201q16 0 23 6t11 23l76 357h140l-107 -506h-135zM668 649q-25 -19 -58.5 -27t-59.5 -8q-30 0 -54 7.5t-45.5 17t-41.5 17
t-42 7.5q-30 0 -62.5 -8.5t-64.5 -30.5l19 90q26 19 59.5 27t59.5 8t49.5 -8t45.5 -17t43.5 -17t43.5 -8q33 0 63.5 8.5t64.5 31.5z" />
    <glyph glyph-name="Umacron" unicode="&#x16a;" 
d="M73 0zM169 0q-52 0 -74 18t-22 56q0 10 1 21t4 23l118 559h152l-107 -506q-3 -12 -3 -18q0 -11 7 -14.5t23 -3.5h200q20 0 29 6.5t14 29.5l107 506h146l-118 -559q-13 -60 -44.5 -89t-95.5 -29h-337zM277 805l19 89h461l-19 -89h-461z" />
    <glyph glyph-name="umacron" unicode="&#x16b;" horiz-adv-x="640" 
d="M67 0zM453 0l11 54q-19 -29 -42.5 -41.5t-55.5 -12.5h-220q-40 0 -59.5 14t-19.5 47q0 15 5 38l86 407h140l-76 -357q-2 -10 -2 -13q0 -16 24 -16h201q16 0 23 6t11 23l76 357h140l-107 -506h-135zM223 634l19 89h461l-19 -89h-461z" />
    <glyph glyph-name="Ubreve" unicode="&#x16c;" 
d="M73 0zM169 0q-52 0 -74 18t-22 56q0 10 1 21t4 23l118 559h152l-107 -506q-3 -12 -3 -18q0 -11 7 -14.5t23 -3.5h200q20 0 29 6.5t14 29.5l107 506h146l-118 -559q-13 -60 -44.5 -89t-95.5 -29h-337zM743 944q-10 -46 -26 -84t-44.5 -65.5t-71.5 -42.5t-107 -15
q-49 0 -82 9t-53 25.5t-28.5 40t-8.5 53.5q0 18 2.5 37.5t7.5 41.5h62q-3 -15 -5 -28.5t-2 -25.5q0 -42 26 -64.5t95 -22.5q43 0 73 9.5t49.5 28t31 44.5t19.5 59h62z" />
    <glyph glyph-name="ubreve" unicode="&#x16d;" horiz-adv-x="640" 
d="M67 0zM453 0l11 54q-19 -29 -42.5 -41.5t-55.5 -12.5h-220q-40 0 -59.5 14t-19.5 47q0 15 5 38l86 407h140l-76 -357q-2 -10 -2 -13q0 -16 24 -16h201q16 0 23 6t11 23l76 357h140l-107 -506h-135zM689 773q-10 -46 -26 -84t-44.5 -65.5t-71.5 -42.5t-107 -15
q-49 0 -82 9t-53 25.5t-28.5 40t-8.5 53.5q0 18 2.5 37.5t7.5 41.5h62q-3 -15 -5 -28.5t-2 -25.5q0 -42 26 -64.5t95 -22.5q43 0 73 9.5t49.5 28t31 44.5t19.5 59h62z" />
    <glyph glyph-name="Uring" unicode="&#x16e;" 
d="M73 0zM169 0q-52 0 -74 18t-22 56q0 10 1 21t4 23l118 559h152l-107 -506q-3 -12 -3 -18q0 -11 7 -14.5t23 -3.5h200q20 0 29 6.5t14 29.5l107 506h146l-118 -559q-13 -60 -44.5 -89t-95.5 -29h-337zM430 717q-26 0 -37.5 8.5t-11.5 27.5q0 11 3 25l22 105q7 32 23 46.5
t49 14.5h117q27 0 38.5 -8.5t11.5 -28.5q0 -11 -3 -24l-22 -105q-7 -32 -23 -46.5t-50 -14.5h-117zM589 878q1 3 1 9q0 12 -18 12h-92q-12 0 -17 -4.5t-7 -16.5l-20 -91q-1 -3 -1 -9q0 -8 4 -10.5t13 -2.5h92q14 0 18 4t7 18z" />
    <glyph glyph-name="uring" unicode="&#x16f;" horiz-adv-x="640" 
d="M67 0zM453 0l11 54q-19 -29 -42.5 -41.5t-55.5 -12.5h-220q-40 0 -59.5 14t-19.5 47q0 15 5 38l86 407h140l-76 -357q-2 -10 -2 -13q0 -16 24 -16h201q16 0 23 6t11 23l76 357h140l-107 -506h-135zM377 546q-26 0 -37.5 8.5t-11.5 27.5q0 11 3 25l22 105q7 32 23 46.5
t49 14.5h117q27 0 38.5 -8.5t11.5 -28.5q0 -11 -3 -24l-22 -105q-7 -32 -23 -46.5t-50 -14.5h-117zM536 707q1 3 1 9q0 12 -18 12h-92q-12 0 -17 -4.5t-7 -16.5l-20 -91q-1 -3 -1 -9q0 -8 4 -10.5t13 -2.5h92q14 0 18 4t7 18z" />
    <glyph glyph-name="Uhungarumlaut" unicode="&#x170;" 
d="M73 0zM169 0q-52 0 -74 18t-22 56q0 10 1 21t4 23l118 559h152l-107 -506q-3 -12 -3 -18q0 -11 7 -14.5t23 -3.5h200q20 0 29 6.5t14 29.5l107 506h146l-118 -559q-13 -60 -44.5 -89t-95.5 -29h-337zM502 740l193 204h113l-217 -204h-89zM282 740l193 204h113l-217 -204
h-89z" />
    <glyph glyph-name="uhungarumlaut" unicode="&#x171;" horiz-adv-x="640" 
d="M67 0zM453 0l11 54q-19 -29 -42.5 -41.5t-55.5 -12.5h-220q-40 0 -59.5 14t-19.5 47q0 15 5 38l86 407h140l-76 -357q-2 -10 -2 -13q0 -16 24 -16h201q16 0 23 6t11 23l76 357h140l-107 -506h-135zM449 569l193 204h113l-217 -204h-89zM229 569l193 204h113l-217 -204
h-89z" />
    <glyph glyph-name="Uogonek" unicode="&#x172;" 
d="M202 -256q-21 0 -34 10t-13 33q0 10 3 22l11 51q4 17 8.5 29.5t11.5 22.5t17.5 17.5t26.5 15.5l114 55h-178q-52 0 -74 18t-22 56q0 10 1 21t4 23l118 559h152l-107 -506q-3 -12 -3 -18q0 -11 7 -14.5t23 -3.5h200q20 0 29 6.5t14 29.5l107 506h146l-118 -559
q-13 -60 -44.5 -89t-95.5 -29h-71l-136 -70q-12 -6 -16 -12t-7 -20l-7 -31q-1 -3 -1 -9q0 -12 15 -12h119l-22 -102h-178z" />
    <glyph glyph-name="uogonek" unicode="&#x173;" horiz-adv-x="640" 
d="M355 -256q-21 0 -34 10t-13 33q0 10 3 22l11 51q4 17 8.5 29.5t11.5 22.5t17.5 17.5t26.5 15.5l114 55h-47l11 54q-19 -29 -42.5 -41.5t-55.5 -12.5h-220q-40 0 -59.5 14t-19.5 47q0 15 5 38l86 407h140l-76 -357q-2 -10 -2 -13q0 -16 24 -16h201q16 0 23 6t11 23l76 357
h140l-107 -506l-136 -70q-12 -6 -16 -12t-7 -20l-7 -31q-1 -3 -1 -9q0 -12 15 -12h119l-22 -102h-178z" />
    <glyph glyph-name="Wcircumflex" unicode="&#x174;" horiz-adv-x="998" 
d="M159 0zM626 0l-25 483l-246 -483h-170l-26 677h156l11 -496l245 496h152l21 -495l231 495h149l-327 -677h-171zM786 740l-96 161l-169 -161h-97l218 204h119l125 -204h-100z" />
    <glyph glyph-name="wcircumflex" unicode="&#x175;" horiz-adv-x="901" 
d="M121 0zM553 0l-31 351l-192 -351h-174l-35 506h154l13 -362l190 362h165l27 -361l176 361h148l-264 -506h-177zM701 569l-96 161l-169 -161h-97l218 204h119l125 -204h-100z" />
    <glyph glyph-name="Ycircumflex" unicode="&#x176;" horiz-adv-x="617" 
d="M156 0zM232 0l59 279l-135 398h159l83 -267l196 267h152l-303 -398l-59 -279h-152zM595 740l-96 161l-169 -161h-97l218 204h119l125 -204h-100z" />
    <glyph glyph-name="ycircumflex" unicode="&#x177;" horiz-adv-x="610" 
d="M15 0zM15 -212l26 121h336q17 0 23.5 6t10.5 23l14 62h-288q-42 0 -60.5 14.5t-18.5 45.5q0 14 5 39l86 407h140l-77 -363q-1 -4 -1.5 -7t-0.5 -6q0 -16 24 -16h215l83 392h141l-132 -619q-11 -51 -37 -75t-81 -24h-408zM556 569l-96 161l-169 -161h-97l218 204h119
l125 -204h-100z" />
    <glyph glyph-name="Ydieresis" unicode="&#x178;" horiz-adv-x="617" 
d="M156 0zM232 0l59 279l-135 398h159l83 -267l196 267h152l-303 -398l-59 -279h-152zM545 737l32 152h126l-32 -152h-126zM258 737l32 152h126l-32 -152h-126z" />
    <glyph glyph-name="Zacute" unicode="&#x179;" horiz-adv-x="602" 
d="M49 0zM49 0l26 123l410 421h-314l28 133h497l-24 -117l-404 -425h313l-28 -135h-504zM356 740l193 204h113l-217 -204h-89z" />
    <glyph glyph-name="zacute" unicode="&#x17a;" horiz-adv-x="571" 
d="M47 0zM47 0l23 111l348 277h-288l25 118h475l-21 -100l-344 -286h283l-25 -120h-476zM304 569l193 204h113l-217 -204h-89z" />
    <glyph glyph-name="Zdotaccent" unicode="&#x17b;" horiz-adv-x="602" 
d="M49 0zM49 0l26 123l410 421h-314l28 133h497l-24 -117l-404 -425h313l-28 -135h-504zM399 737l32 152h126l-32 -152h-126z" />
    <glyph glyph-name="zdotaccent" unicode="&#x17c;" horiz-adv-x="571" 
d="M47 0zM47 0l23 111l348 277h-288l25 118h475l-21 -100l-344 -286h283l-25 -120h-476zM342 566l32 152h126l-32 -152h-126z" />
    <glyph glyph-name="Zcaron" unicode="&#x17d;" horiz-adv-x="602" 
d="M49 0zM49 0l26 123l410 421h-314l28 133h497l-24 -117l-404 -425h313l-28 -135h-504zM394 740q-11 17 -27.5 44.5l-34.5 57.5l-34.5 57.5t-27.5 44.5h100l96 -161l168 161h98l-219 -204h-119z" />
    <glyph glyph-name="zcaron" unicode="&#x17e;" horiz-adv-x="571" 
d="M47 0zM47 0l23 111l348 277h-288l25 118h475l-21 -100l-344 -286h283l-25 -120h-476zM348 569q-11 17 -27.5 44.5l-34.5 57.5l-34.5 57.5t-27.5 44.5h100l96 -161l168 161h98l-219 -204h-119z" />
    <glyph glyph-name="florin" unicode="&#x192;" horiz-adv-x="453" 
d="M-17 -168l19 94h24q41 0 64 18.5t40 64.5l138 368h-72l19 89h86l25 63q16 40 35.5 68.5t46 46t62 25.5t85.5 8h27l-20 -94h-35q-63 0 -85 -59l-21 -58h91l-19 -89h-105l-140 -377q-17 -47 -37.5 -79t-48 -51.5t-64.5 -28.5t-88 -9h-27z" />
    <glyph glyph-name="Scommaaccent" unicode="&#x218;" horiz-adv-x="646" 
d="M52 0zM52 0l28 132h361q18 0 26.5 7t12.5 26l20 94q1 4 1 11q0 18 -26 18h-267q-41 0 -59.5 17.5t-18.5 49.5q0 12 3 29l37 175q13 60 44 89t97 29h421l-27 -129h-359q-16 0 -23 -7t-11 -25l-19 -89q-1 -4 -1.5 -7t-0.5 -6q0 -15 22 -15h271q42 0 60.5 -18t18.5 -50
q0 -13 -3 -28l-39 -185q-13 -60 -44 -89t-96 -29h-429zM192 -256l82 196h113l-98 -196h-97z" />
    <glyph glyph-name="scommaaccent" unicode="&#x219;" horiz-adv-x="621" 
d="M52 0zM52 0l24 116h347q16 0 21.5 5t8.5 19l11 50q1 3 1 8q0 13 -20 13h-271q-34 0 -49.5 13.5t-15.5 36.5q0 10 3 22l28 135q9 45 34 66.5t78 21.5h418l-24 -113h-345q-16 0 -23 -6t-10 -21l-9 -42q-1 -3 -1 -9q0 -16 21 -16h274q35 0 50.5 -14t15.5 -37q0 -5 -0.5 -10
t-1.5 -10l-30 -140q-10 -45 -35 -66.5t-78 -21.5h-422zM179 -256l82 196h113l-98 -196h-97z" />
    <glyph glyph-name="uni021A" unicode="&#x21a;" horiz-adv-x="533" 
d="M119 0zM341 0h-152l115 544h-164l28 133h481l-28 -133h-165zM119 -256l82 196h113l-98 -196h-97z" />
    <glyph glyph-name="uni021B" unicode="&#x21b;" horiz-adv-x="342" 
d="M40 0zM146 0q-42 0 -60.5 14.5t-18.5 45.5q0 14 5 39l116 548h140l-30 -141h122l-23 -110h-122l-55 -259q-2 -10 -2 -13q0 -14 22 -14h92l-23 -110h-163zM40 -256l82 196h113l-98 -196h-97z" />
    <glyph glyph-name="circumflex" unicode="&#x2c6;" horiz-adv-x="572" 
d="M537 569l-96 161l-169 -161h-97l218 204h119l125 -204h-100z" />
    <glyph glyph-name="caron" unicode="&#x2c7;" horiz-adv-x="572" 
d="M343 569q-11 17 -27.5 44.5l-34.5 57.5l-34.5 57.5t-27.5 44.5h100l96 -161l168 161h98l-219 -204h-119z" />
    <glyph glyph-name="uni02C9" unicode="&#x2c9;" horiz-adv-x="571" 
d="M189 634zM189 634l19 89h461l-19 -89h-461z" />
    <glyph glyph-name="breve" unicode="&#x2d8;" horiz-adv-x="521" 
d="M630 773q-10 -46 -26 -84t-44.5 -65.5t-71.5 -42.5t-107 -15q-49 0 -82 9t-53 25.5t-28.5 40t-8.5 53.5q0 18 2.5 37.5t7.5 41.5h62q-3 -15 -5 -28.5t-2 -25.5q0 -42 26 -64.5t95 -22.5q43 0 73 9.5t49.5 28t31 44.5t19.5 59h62z" />
    <glyph glyph-name="dotaccent" unicode="&#x2d9;" horiz-adv-x="248" 
d="M176 566l32 152h126l-32 -152h-126z" />
    <glyph glyph-name="ring" unicode="&#x2da;" horiz-adv-x="347" 
d="M230 546q-26 0 -37.5 8.5t-11.5 27.5q0 11 3 25l22 105q7 32 23 46.5t49 14.5h117q27 0 38.5 -8.5t11.5 -28.5q0 -11 -3 -24l-22 -105q-7 -32 -23 -46.5t-50 -14.5h-117zM389 707q1 3 1 9q0 12 -18 12h-92q-12 0 -17 -4.5t-7 -16.5l-20 -91q-1 -3 -1 -9q0 -8 4 -10.5
t13 -2.5h92q14 0 18 4t7 18z" />
    <glyph glyph-name="ogonek" unicode="&#x2db;" horiz-adv-x="333" 
d="M43 -256q-21 0 -33.5 9.5t-12.5 32.5q0 9 3 23l10 51q3 17 7.5 29.5t12 22.5t18 17.5t26.5 15.5l114 55h88l-136 -70q-12 -6 -16 -12t-7 -20l-7 -31q-1 -3 -1 -9q0 -12 15 -12h119l-22 -102h-178z" />
    <glyph glyph-name="tilde" unicode="&#x2dc;" horiz-adv-x="533" 
d="M615 649q-25 -19 -58.5 -27t-59.5 -8q-30 0 -54 7.5t-45.5 17t-41.5 17t-42 7.5q-30 0 -62.5 -8.5t-64.5 -30.5l19 90q26 19 59.5 27t59.5 8t49.5 -8t45.5 -17t43.5 -17t43.5 -8q33 0 63.5 8.5t64.5 31.5z" />
    <glyph glyph-name="hungarumlaut" unicode="&#x2dd;" horiz-adv-x="593" 
d="M395 569l193 204h113l-217 -204h-89zM175 569l193 204h113l-217 -204h-89z" />
    <glyph glyph-name="uni037E" unicode="&#x37e;" horiz-adv-x="263" 
d="M7 0zM146 356l32 151h128l-32 -151h-128zM7 -98l96 249h128l-112 -249h-112z" />
    <glyph glyph-name="Delta" unicode="&#x394;" horiz-adv-x="636" 
d="M16 0l366 677h172l65 -677h-603zM427 506l-200 -368h236z" />
    <glyph glyph-name="Omega" unicode="&#x3a9;" horiz-adv-x="688" 
d="M371 0l26 123l109 115q15 16 26 36t18 52l37 177q3 12 3 20q0 22 -32 22h-201q-20 0 -29.5 -9t-14.5 -33l-37 -177q-3 -12 -4 -22.5t-1 -18.5q0 -15 3 -26t8 -21l60 -115l-26 -123h-256l26 125h136l-75 104q-13 17 -18.5 32t-5.5 34q0 27 10 71l41 193q13 60 44.5 89
t96.5 29h345q51 0 73 -18t22 -56q0 -10 -1.5 -20.5t-3.5 -23.5l-41 -193q-6 -28 -12 -47.5t-13.5 -34.5t-19 -27.5t-27.5 -27.5l-119 -104h136l-26 -125h-257z" />
    <glyph glyph-name="mu" unicode="&#x3bc;" horiz-adv-x="585" 
d="M8 -212l153 718h139l-81 -383h174q16 0 22.5 7.5t10.5 24.5l75 351h136l-86 -407q-11 -51 -36.5 -75t-80.5 -24h-241l-46 -212h-139z" />
    <glyph glyph-name="pi" unicode="&#x3c0;" horiz-adv-x="626" 
d="M470 0q-42 0 -60.5 14.5t-18.5 45.5q0 9 1.5 18.5t3.5 20.5l63 298h-193l-84 -397h-126l107 506h445l-79 -374q-2 -5 -2 -9v-7q0 -10 5.5 -13t18.5 -3h72l-21 -100h-132z" />
    <glyph glyph-name="Wgrave" unicode="&#x1e80;" horiz-adv-x="998" 
d="M159 0zM626 0l-25 483l-246 -483h-170l-26 677h156l11 -496l245 496h152l21 -495l231 495h149l-327 -677h-171zM667 740l-129 204h113l105 -204h-89z" />
    <glyph glyph-name="wgrave" unicode="&#x1e81;" horiz-adv-x="901" 
d="M121 0zM553 0l-31 351l-192 -351h-174l-35 506h154l13 -362l190 362h165l27 -361l176 361h148l-264 -506h-177zM582 569l-129 204h113l105 -204h-89z" />
    <glyph glyph-name="Wacute" unicode="&#x1e82;" horiz-adv-x="998" 
d="M159 0zM626 0l-25 483l-246 -483h-170l-26 677h156l11 -496l245 496h152l21 -495l231 495h149l-327 -677h-171zM554 740l193 204h113l-217 -204h-89z" />
    <glyph glyph-name="wacute" unicode="&#x1e83;" horiz-adv-x="901" 
d="M121 0zM553 0l-31 351l-192 -351h-174l-35 506h154l13 -362l190 362h165l27 -361l176 361h148l-264 -506h-177zM469 569l193 204h113l-217 -204h-89z" />
    <glyph glyph-name="Wdieresis" unicode="&#x1e84;" horiz-adv-x="998" 
d="M159 0zM626 0l-25 483l-246 -483h-170l-26 677h156l11 -496l245 496h152l21 -495l231 495h149l-327 -677h-171zM735 737l32 152h126l-32 -152h-126zM448 737l32 152h126l-32 -152h-126z" />
    <glyph glyph-name="wdieresis" unicode="&#x1e85;" horiz-adv-x="901" 
d="M121 0zM553 0l-31 351l-192 -351h-174l-35 506h154l13 -362l190 362h165l27 -361l176 361h148l-264 -506h-177zM651 566l32 152h126l-32 -152h-126zM364 566l32 152h126l-32 -152h-126z" />
    <glyph glyph-name="Ygrave" unicode="&#x1ef2;" horiz-adv-x="617" 
d="M156 0zM232 0l59 279l-135 398h159l83 -267l196 267h152l-303 -398l-59 -279h-152zM476 740l-129 204h113l105 -204h-89z" />
    <glyph glyph-name="ygrave" unicode="&#x1ef3;" horiz-adv-x="610" 
d="M15 0zM15 -212l26 121h336q17 0 23.5 6t10.5 23l14 62h-288q-42 0 -60.5 14.5t-18.5 45.5q0 14 5 39l86 407h140l-77 -363q-1 -4 -1.5 -7t-0.5 -6q0 -16 24 -16h215l83 392h141l-132 -619q-11 -51 -37 -75t-81 -24h-408zM437 569l-129 204h113l105 -204h-89z" />
    <glyph glyph-name="endash" unicode="&#x2013;" horiz-adv-x="695" 
d="M93 296l21 95h631l-21 -95h-631z" />
    <glyph glyph-name="emdash" unicode="&#x2014;" horiz-adv-x="1150" 
d="M93 296l21 95h1087l-21 -95h-1087z" />
    <glyph glyph-name="quoteleft" unicode="&#x2018;" horiz-adv-x="259" 
d="M214 469l-6 249h127l-9 -249h-112z" />
    <glyph glyph-name="quoteright" unicode="&#x2019;" horiz-adv-x="259" 
d="M130 469l96 249h128l-112 -249h-112z" />
    <glyph glyph-name="quotesinglbase" unicode="&#x201a;" horiz-adv-x="259" 
d="M10 -98l96 249h128l-112 -249h-112z" />
    <glyph glyph-name="quotedblleft" unicode="&#x201c;" horiz-adv-x="518" 
d="M208 469zM214 469l-6 249h127l-9 -249h-112zM473 469l-6 249h127l-9 -249h-112z" />
    <glyph glyph-name="quotedblright" unicode="&#x201d;" horiz-adv-x="518" 
d="M130 469zM130 469l96 249h128l-112 -249h-112zM389 469l96 249h128l-112 -249h-112z" />
    <glyph glyph-name="quotedblbase" unicode="&#x201e;" horiz-adv-x="518" 
d="M10 0zM10 -98l96 249h128l-112 -249h-112zM269 -98l96 249h128l-112 -249h-112z" />
    <glyph glyph-name="dagger" unicode="&#x2020;" horiz-adv-x="522" 
d="M224 -1l104 487h-170l14 68h170l26 123h80l-26 -123h162l-14 -68h-162l-104 -487h-80z" />
    <glyph glyph-name="daggerdbl" unicode="&#x2021;" horiz-adv-x="523" 
d="M330 123l-26 -123h-80l26 123h-169l14 67h169l63 295h-169l14 69h169l26 123h80l-26 -123h162l-14 -69h-162l-63 -295h162l-14 -67h-162z" />
    <glyph glyph-name="bullet" unicode="&#x2022;" horiz-adv-x="314" 
d="M157 228q-24 0 -34.5 8.5t-10.5 25.5q0 9 3 21l21 99q6 29 20.5 41.5t44.5 12.5h97q24 0 34 -8t10 -25v-10t-2 -11l-21 -99q-6 -28 -20.5 -41.5t-44.5 -13.5h-97z" />
    <glyph glyph-name="ellipsis" unicode="&#x2026;" horiz-adv-x="1195" 
d="M56 0zM56 0l32 151h128l-32 -151h-128zM534 0l32 151h128l-32 -151h-128zM1012 0l32 151h128l-32 -151h-128z" />
    <glyph glyph-name="perthousand" unicode="&#x2030;" horiz-adv-x="1075" 
d="M130 0zM179 349q-26 0 -37.5 9t-11.5 27q0 9 3 23l47 220q6 30 21.5 44.5t49.5 14.5h161q26 0 37.5 -9t11.5 -29q0 -5 -0.5 -10t-1.5 -11l-47 -220q-7 -30 -23 -44.5t-49 -14.5h-161zM363 591v6q0 11 -14 11h-71q-15 0 -18 -16l-31 -146q-1 -2 -1 -6q0 -9 13 -9h71
q17 0 20 15zM137 0l551 677h80l-551 -677h-80zM491 -10q-26 0 -37.5 9t-11.5 27q0 9 3 23l47 220q6 30 21.5 44.5t49.5 14.5h161q26 0 37.5 -9t11.5 -29q0 -5 -0.5 -10t-1.5 -11l-47 -220q-7 -30 -23 -44.5t-49 -14.5h-161zM675 232v6q0 11 -14 11h-71q-15 0 -18 -16
l-31 -146q-1 -2 -1 -6q0 -9 13 -9h71q17 0 20 15zM806 -10q-26 0 -37.5 9t-11.5 27q0 9 3 23l47 220q6 30 21.5 44.5t49.5 14.5h161q26 0 37.5 -9t11.5 -29q0 -5 -0.5 -10t-1.5 -11l-47 -220q-7 -30 -23 -44.5t-49 -14.5h-161zM990 232v6q0 11 -14 11h-71q-15 0 -18 -16
l-31 -146q-1 -2 -1 -6q0 -9 13 -9h71q17 0 20 15z" />
    <glyph glyph-name="guilsinglleft" unicode="&#x2039;" horiz-adv-x="267" 
d="M84 257l26 120l239 168l-23 -109l-179 -121l127 -125l-23 -106z" />
    <glyph glyph-name="guilsinglright" unicode="&#x203a;" horiz-adv-x="267" 
d="M47 84l24 109l178 120l-126 125l22 107l167 -174l-25 -120z" />
    <glyph glyph-name="fraction" unicode="&#x2044;" horiz-adv-x="193" 
d="M-147 0l551 677h80l-551 -677h-80z" />
    <glyph glyph-name="zerosuperior" unicode="&#x2070;" horiz-adv-x="355" 
d="M121 349zM170 349q-26 0 -37.5 9t-11.5 27q0 9 3 23l47 220q6 30 21.5 44.5t49.5 14.5h161q26 0 37.5 -9t11.5 -29q0 -5 -0.5 -10t-1.5 -11l-47 -220q-7 -30 -23 -44.5t-49 -14.5h-161zM354 591v6q0 11 -14 11h-71q-15 0 -18 -16l-31 -146q-1 -2 -1 -6q0 -9 13 -9h71
q17 0 20 15z" />
    <glyph glyph-name="foursuperior" unicode="&#x2074;" horiz-adv-x="341" 
d="M116 349zM262 349l14 62h-160l14 70l164 206h121l-44 -206h42l-14 -70h-42l-14 -62h-81zM318 612l-108 -131h80z" />
    <glyph glyph-name="fivesuperior" unicode="&#x2075;" horiz-adv-x="355" 
d="M123 349zM172 349q-26 0 -37.5 9t-11.5 28q0 8 3 20l12 53h86l-5 -23q-1 -3 -1 -6q0 -9 12 -9h71q9 0 12.5 3.5t5.5 11.5l9 45q1 2 1 6q0 8 -11 8h-173l41 192h265l-16 -76h-177l-11 -52h138q39 0 39 -34v-6.5t-1 -7.5l-22 -103q-7 -30 -22.5 -44.5t-48.5 -14.5h-158z
" />
    <glyph glyph-name="sixsuperior" unicode="&#x2076;" horiz-adv-x="351" 
d="M121 349zM170 349q-26 0 -37.5 9t-11.5 27q0 9 3 23l47 220q6 30 21 44.5t50 14.5h155q50 0 50 -38q0 -5 -0.5 -9.5t-1.5 -9.5l-10 -47h-84l4 19q1 3 1 7q0 9 -13 9h-74q-9 0 -13 -3.5t-6 -12.5l-11 -53h141q40 0 40 -33q0 -5 -2 -15l-20 -93q-7 -30 -22.5 -44.5
t-48.5 -14.5h-157zM331 478v5q0 8 -11 8h-93l-11 -51q-1 -4 -1 -9q0 -9 12 -9h77q9 0 13 4t6 14z" />
    <glyph glyph-name="sevensuperior" unicode="&#x2077;" horiz-adv-x="305" 
d="M121 349zM121 349l187 262h-152l16 76h246l-13 -62l-188 -276h-96z" />
    <glyph glyph-name="eightsuperior" unicode="&#x2078;" horiz-adv-x="352" 
d="M120 349zM169 349q-26 0 -37.5 9t-11.5 28q0 8 3 20l18 81q4 19 16.5 27t32.5 10q-32 3 -32 30q0 8 1 12l14 64q6 29 23 43t49 14h151q50 0 50 -38q0 -5 -0.5 -9.5t-1.5 -9.5l-14 -64q-5 -21 -16.5 -30.5t-29.5 -11.5q14 -2 23.5 -8t9.5 -20q0 -6 -1 -9l-18 -81
q-7 -29 -22.5 -43t-47.5 -14h-159zM354 603q1 2 1 7q0 8 -13 8h-71q-15 0 -19 -15l-9 -43q-1 -2 -1 -5q0 -8 12 -8h73q15 0 18 13zM329 482v4q0 9 -13 9h-73q-14 0 -17 -13l-10 -46q-1 -2 -1 -6q0 -9 13 -9h73q15 0 18 15z" />
    <glyph glyph-name="ninesuperior" unicode="&#x2079;" horiz-adv-x="354" 
d="M122 349zM171 349q-26 0 -37.5 9t-11.5 28q0 8 3 20l11 51h85l-4 -20q-1 -3 -1 -7q0 -9 15 -9h73q9 0 12.5 3t5.5 13l10 48h-142q-40 0 -40 33q0 3 0.5 6.5t1.5 8.5l21 95q7 30 21.5 44.5t48.5 14.5h158q27 0 38 -9t11 -28q0 -5 -0.5 -10.5t-1.5 -11.5l-47 -220
q-7 -30 -22.5 -44.5t-49.5 -14.5h-158zM356 597q1 4 1 9q0 9 -12 9h-78q-8 0 -12.5 -3.5t-6.5 -14.5l-9 -41q-1 -2 -1 -5q0 -9 12 -9h94z" />
    <glyph glyph-name="zeroinferior" unicode="&#x2080;" horiz-adv-x="355" 
d="M94 -10q-26 0 -37.5 9t-11.5 27q0 9 3 23l47 220q6 30 21.5 44.5t49.5 14.5h161q26 0 37.5 -9t11.5 -29q0 -5 -0.5 -10t-1.5 -11l-47 -220q-7 -30 -23 -44.5t-49 -14.5h-161zM278 232v6q0 11 -14 11h-71q-15 0 -18 -16l-31 -146q-1 -2 -1 -6q0 -9 13 -9h71q17 0 20 15z
" />
    <glyph glyph-name="oneinferior" unicode="&#x2081;" horiz-adv-x="191" 
d="M60 -10l56 262h-39l16 76h127l-72 -338h-88z" />
    <glyph glyph-name="twoinferior" unicode="&#x2082;" horiz-adv-x="355" 
d="M38 -10l28 132q8 35 24 50.5t52 15.5h111q14 0 18 15l8 40q1 3 1 8q0 8 -12 8h-73q-16 0 -20 -16l-4 -19h-84l10 47q6 29 23 43t49 14h156q26 0 37.5 -9t11.5 -29q0 -5 -0.5 -10t-1.5 -11l-19 -90q-6 -28 -21.5 -41.5t-44.5 -13.5h-118q-14 0 -18 -17l-9 -43h186l-16 -74
h-274z" />
    <glyph glyph-name="threeinferior" unicode="&#x2083;" horiz-adv-x="346" 
d="M87 -10q-26 0 -37.5 9t-11.5 28q0 8 3 20l12 53h86l-5 -23q-1 -2 -1 -6q0 -9 13 -9h73q15 0 18 15l10 46v4q0 8 -13 8h-63l12 54h63q16 0 17 13l9 42q1 2 1 7q0 8 -13 8h-71q-15 0 -19 -15l-4 -20h-85l10 47q6 29 23 43t49 14h151q50 0 50 -38q0 -5 -0.5 -9.5t-1.5 -9.5
l-14 -64q-5 -21 -16.5 -30.5t-29.5 -11.5q14 -2 23.5 -8t9.5 -20q0 -6 -1 -9l-18 -81q-7 -29 -22.5 -43t-47.5 -14h-159z" />
    <glyph glyph-name="fourinferior" unicode="&#x2084;" horiz-adv-x="341" 
d="M186 -10l14 62h-160l14 70l164 206h121l-44 -206h42l-14 -70h-42l-14 -62h-81zM242 253l-108 -131h80z" />
    <glyph glyph-name="fiveinferior" unicode="&#x2085;" horiz-adv-x="355" 
d="M96 -10q-26 0 -37.5 9t-11.5 28q0 8 3 20l12 53h86l-5 -23q-1 -3 -1 -6q0 -9 12 -9h71q9 0 12.5 3.5t5.5 11.5l9 45q1 2 1 6q0 8 -11 8h-173l41 192h265l-16 -76h-177l-11 -52h138q39 0 39 -34v-6.5t-1 -7.5l-22 -103q-7 -30 -22.5 -44.5t-48.5 -14.5h-158z" />
    <glyph glyph-name="sixinferior" unicode="&#x2086;" horiz-adv-x="351" 
d="M94 -10q-26 0 -37.5 9t-11.5 27q0 9 3 23l47 220q6 30 21 44.5t50 14.5h155q50 0 50 -38q0 -5 -0.5 -9.5t-1.5 -9.5l-10 -47h-84l4 19q1 3 1 7q0 9 -13 9h-74q-9 0 -13 -3.5t-6 -12.5l-11 -53h141q40 0 40 -33q0 -5 -2 -15l-20 -93q-7 -30 -22.5 -44.5t-48.5 -14.5h-157z
M255 119v5q0 8 -11 8h-93l-11 -51q-1 -4 -1 -9q0 -9 12 -9h77q9 0 13 4t6 14z" />
    <glyph glyph-name="seveninferior" unicode="&#x2087;" horiz-adv-x="305" 
d="M45 -10l187 262h-152l16 76h246l-13 -62l-188 -276h-96z" />
    <glyph glyph-name="eightinferior" unicode="&#x2088;" horiz-adv-x="352" 
d="M93 -10q-26 0 -37.5 9t-11.5 28q0 8 3 20l18 81q4 19 16.5 27t32.5 10q-32 3 -32 30q0 8 1 12l14 64q6 29 23 43t49 14h151q50 0 50 -38q0 -5 -0.5 -9.5t-1.5 -9.5l-14 -64q-5 -21 -16.5 -30.5t-29.5 -11.5q14 -2 23.5 -8t9.5 -20q0 -6 -1 -9l-18 -81q-7 -29 -22.5 -43
t-47.5 -14h-159zM278 244q1 2 1 7q0 8 -13 8h-71q-15 0 -19 -15l-9 -43q-1 -2 -1 -5q0 -8 12 -8h73q15 0 18 13zM253 123v4q0 9 -13 9h-73q-14 0 -17 -13l-10 -46q-1 -2 -1 -6q0 -9 13 -9h73q15 0 18 15z" />
    <glyph glyph-name="nineinferior" unicode="&#x2089;" horiz-adv-x="354" 
d="M95 -10q-26 0 -37.5 9t-11.5 28q0 8 3 20l11 51h85l-4 -20q-1 -3 -1 -7q0 -9 15 -9h73q9 0 12.5 3t5.5 13l10 48h-142q-40 0 -40 33q0 3 0.5 6.5t1.5 8.5l21 95q7 30 21.5 44.5t48.5 14.5h158q27 0 38 -9t11 -28q0 -5 -0.5 -10.5t-1.5 -11.5l-47 -220q-7 -30 -22.5 -44.5
t-49.5 -14.5h-158zM280 238q1 4 1 9q0 9 -12 9h-78q-8 0 -12.5 -3.5t-6.5 -14.5l-9 -41q-1 -2 -1 -5q0 -9 12 -9h94z" />
    <glyph glyph-name="Euro" unicode="&#x20ac;" horiz-adv-x="582" 
d="M177 0q-51 0 -73 17.5t-22 55.5q0 19 6 45l28 132h-44l25 65h32l12 55h-44l26 65h32l26 124q13 60 43.5 89t95.5 29h368l-68 -130h-264q-20 0 -27.5 -8t-12.5 -28l-16 -76h250l-34 -65h-230l-12 -55h212l-34 -65h-191l-18 -83q-2 -5 -2 -9v-7q0 -11 6 -15t21 -4h295
l-28 -132h-358z" />
    <glyph glyph-name="trademark" unicode="&#x2122;" horiz-adv-x="777" 
d="M184 322l58 274h-84l17 81h259l-17 -81h-82l-58 -274h-93zM702 322l39 184l-120 -184h-52l-41 182l-39 -182h-81l75 355h93l47 -227l141 227h95l-75 -355h-82z" />
    <glyph glyph-name="uni2126" unicode="&#x2126;" horiz-adv-x="688" 
d="M60 0zM371 0l26 123l109 115q15 16 26 36t18 52l37 177q3 12 3 20q0 22 -32 22h-201q-20 0 -29.5 -9t-14.5 -33l-37 -177q-3 -12 -4 -22.5t-1 -18.5q0 -15 3 -26t8 -21l60 -115l-26 -123h-256l26 125h136l-75 104q-13 17 -18.5 32t-5.5 34q0 27 10 71l41 193
q13 60 44.5 89t96.5 29h345q51 0 73 -18t22 -56q0 -10 -1.5 -20.5t-3.5 -23.5l-41 -193q-6 -28 -12 -47.5t-13.5 -34.5t-19 -27.5t-27.5 -27.5l-119 -104h136l-26 -125h-257z" />
    <glyph glyph-name="onethird" unicode="&#x2153;" horiz-adv-x="684" 
d="M51 0zM173 349l56 262h-39l16 76h127l-72 -338h-88zM51 0l551 677h80l-551 -677h-80zM418 -10q-26 0 -37.5 9t-11.5 28q0 8 3 20l12 53h86l-5 -23q-1 -2 -1 -6q0 -9 13 -9h73q15 0 18 15l10 46v4q0 8 -13 8h-63l12 54h63q16 0 17 13l9 42q1 2 1 7q0 8 -13 8h-71
q-15 0 -19 -15l-4 -20h-85l10 47q6 29 23 43t49 14h151q50 0 50 -38q0 -5 -0.5 -9.5t-1.5 -9.5l-14 -64q-5 -21 -16.5 -30.5t-29.5 -11.5q14 -2 23.5 -8t9.5 -20q0 -6 -1 -9l-18 -81q-7 -29 -22.5 -43t-47.5 -14h-159z" />
    <glyph glyph-name="twothirds" unicode="&#x2154;" horiz-adv-x="758" 
d="M121 0zM121 349l28 132q8 35 24 50.5t52 15.5h111q14 0 18 15l8 40q1 3 1 8q0 8 -12 8h-73q-16 0 -20 -16l-4 -19h-84l10 47q6 29 23 43t49 14h156q26 0 37.5 -9t11.5 -29q0 -5 -0.5 -10t-1.5 -11l-19 -90q-6 -28 -21.5 -41.5t-44.5 -13.5h-118q-14 0 -18 -17l-9 -43h186
l-16 -74h-274zM145 0l551 677h80l-551 -677h-80zM492 -10q-26 0 -37.5 9t-11.5 28q0 8 3 20l12 53h86l-5 -23q-1 -2 -1 -6q0 -9 13 -9h73q15 0 18 15l10 46v4q0 8 -13 8h-63l12 54h63q16 0 17 13l9 42q1 2 1 7q0 8 -13 8h-71q-15 0 -19 -15l-4 -20h-85l10 47q6 29 23 43
t49 14h151q50 0 50 -38q0 -5 -0.5 -9.5t-1.5 -9.5l-14 -64q-5 -21 -16.5 -30.5t-29.5 -11.5q14 -2 23.5 -8t9.5 -20q0 -6 -1 -9l-18 -81q-7 -29 -22.5 -43t-47.5 -14h-159z" />
    <glyph glyph-name="oneeighth" unicode="&#x215b;" horiz-adv-x="680" 
d="M51 0zM173 349l56 262h-39l16 76h127l-72 -338h-88zM51 0l551 677h80l-551 -677h-80zM414 -10q-26 0 -37.5 9t-11.5 28q0 8 3 20l18 81q4 19 16.5 27t32.5 10q-32 3 -32 30q0 8 1 12l14 64q6 29 23 43t49 14h151q50 0 50 -38q0 -5 -0.5 -9.5t-1.5 -9.5l-14 -64
q-5 -21 -16.5 -30.5t-29.5 -11.5q14 -2 23.5 -8t9.5 -20q0 -6 -1 -9l-18 -81q-7 -29 -22.5 -43t-47.5 -14h-159zM599 244q1 2 1 7q0 8 -13 8h-71q-15 0 -19 -15l-9 -43q-1 -2 -1 -5q0 -8 12 -8h73q15 0 18 13zM574 123v4q0 9 -13 9h-73q-14 0 -17 -13l-10 -46q-1 -2 -1 -6
q0 -9 13 -9h73q15 0 18 15z" />
    <glyph glyph-name="threeeighths" unicode="&#x215c;" horiz-adv-x="753" 
d="M129 0zM178 349q-26 0 -37.5 9t-11.5 28q0 8 3 20l12 53h86l-5 -23q-1 -2 -1 -6q0 -9 13 -9h73q15 0 18 15l10 46v4q0 8 -13 8h-63l12 54h63q16 0 17 13l9 42q1 2 1 7q0 8 -13 8h-71q-15 0 -19 -15l-4 -20h-85l10 47q6 29 23 43t49 14h151q50 0 50 -38q0 -5 -0.5 -9.5
t-1.5 -9.5l-14 -64q-5 -21 -16.5 -30.5t-29.5 -11.5q14 -2 23.5 -8t9.5 -20q0 -6 -1 -9l-18 -81q-7 -29 -22.5 -43t-47.5 -14h-159zM134 0l551 677h80l-551 -677h-80zM487 -10q-26 0 -37.5 9t-11.5 28q0 8 3 20l18 81q4 19 16.5 27t32.5 10q-32 3 -32 30q0 8 1 12l14 64
q6 29 23 43t49 14h151q50 0 50 -38q0 -5 -0.5 -9.5t-1.5 -9.5l-14 -64q-5 -21 -16.5 -30.5t-29.5 -11.5q14 -2 23.5 -8t9.5 -20q0 -6 -1 -9l-18 -81q-7 -29 -22.5 -43t-47.5 -14h-159zM672 244q1 2 1 7q0 8 -13 8h-71q-15 0 -19 -15l-9 -43q-1 -2 -1 -5q0 -8 12 -8h73
q15 0 18 13zM647 123v4q0 9 -13 9h-73q-14 0 -17 -13l-10 -46q-1 -2 -1 -6q0 -9 13 -9h73q15 0 18 15z" />
    <glyph glyph-name="fiveeighths" unicode="&#x215d;" horiz-adv-x="753" 
d="M129 0zM178 349q-26 0 -37.5 9t-11.5 28q0 8 3 20l12 53h86l-5 -23q-1 -3 -1 -6q0 -9 12 -9h71q9 0 12.5 3.5t5.5 11.5l9 45q1 2 1 6q0 8 -11 8h-173l41 192h265l-16 -76h-177l-11 -52h138q39 0 39 -34v-6.5t-1 -7.5l-22 -103q-7 -30 -22.5 -44.5t-48.5 -14.5h-158z
M134 0l551 677h80l-551 -677h-80zM487 -10q-26 0 -37.5 9t-11.5 28q0 8 3 20l18 81q4 19 16.5 27t32.5 10q-32 3 -32 30q0 8 1 12l14 64q6 29 23 43t49 14h151q50 0 50 -38q0 -5 -0.5 -9.5t-1.5 -9.5l-14 -64q-5 -21 -16.5 -30.5t-29.5 -11.5q14 -2 23.5 -8t9.5 -20
q0 -6 -1 -9l-18 -81q-7 -29 -22.5 -43t-47.5 -14h-159zM672 244q1 2 1 7q0 8 -13 8h-71q-15 0 -19 -15l-9 -43q-1 -2 -1 -5q0 -8 12 -8h73q15 0 18 13zM647 123v4q0 9 -13 9h-73q-14 0 -17 -13l-10 -46q-1 -2 -1 -6q0 -9 13 -9h73q15 0 18 15z" />
    <glyph glyph-name="seveneighths" unicode="&#x215e;" horiz-adv-x="680" 
d="M51 0zM144 349l187 262h-152l16 76h246l-13 -62l-188 -276h-96zM51 0l551 677h80l-551 -677h-80zM414 -10q-26 0 -37.5 9t-11.5 28q0 8 3 20l18 81q4 19 16.5 27t32.5 10q-32 3 -32 30q0 8 1 12l14 64q6 29 23 43t49 14h151q50 0 50 -38q0 -5 -0.5 -9.5t-1.5 -9.5
l-14 -64q-5 -21 -16.5 -30.5t-29.5 -11.5q14 -2 23.5 -8t9.5 -20q0 -6 -1 -9l-18 -81q-7 -29 -22.5 -43t-47.5 -14h-159zM599 244q1 2 1 7q0 8 -13 8h-71q-15 0 -19 -15l-9 -43q-1 -2 -1 -5q0 -8 12 -8h73q15 0 18 13zM574 123v4q0 9 -13 9h-73q-14 0 -17 -13l-10 -46
q-1 -2 -1 -6q0 -9 13 -9h73q15 0 18 15z" />
    <glyph glyph-name="partialdiff" unicode="&#x2202;" horiz-adv-x="479" 
d="M337 675q25 5 45 5q32 0 60 -10.5t48.5 -32t32.5 -55.5t12 -80q0 -22 -2.5 -46.5t-8.5 -51.5q-17 -83 -44 -159t-65 -134t-88.5 -93t-115.5 -35q-69 0 -106 38.5t-37 109.5q0 16 2 32.5t6 35.5q12 56 34.5 99.5t53 73.5t67 46t75.5 16q19 0 38.5 -4.5t36 -16t27.5 -30.5
t14 -47q12 35 20 71t8 65q0 54 -26 84.5t-74 30.5q-14 0 -32 -3zM388 235q0 56 -21 82t-75 26q-47 0 -82.5 -37.5t-49.5 -107.5q-5 -25 -5 -41q0 -41 20 -61.5t55 -20.5q52 0 90.5 39t67.5 121z" />
    <glyph glyph-name="uni2206" unicode="&#x2206;" horiz-adv-x="636" 
d="M16 0zM16 0l366 677h172l65 -677h-603zM427 506l-200 -368h236z" />
    <glyph glyph-name="product" unicode="&#x220f;" horiz-adv-x="485" 
d="M287 -233l176 830h-196l-176 -830h-92l192 910h383l-193 -910h-94z" />
    <glyph glyph-name="summation" unicode="&#x2211;" horiz-adv-x="438" 
d="M0 -171l14 64l273 359l-120 360l13 65h356l-20 -94h-231l101 -331l-241 -330h231l-20 -93h-356z" />
    <glyph glyph-name="minus" unicode="&#x2212;" horiz-adv-x="633" 
d="M116 299l21 100h526l-21 -100h-526z" />
    <glyph glyph-name="radical" unicode="&#x221a;" horiz-adv-x="492" 
d="M171 0l-30 292h-57l18 86h143l10 -239l246 538h111l-328 -677h-113z" />
    <glyph glyph-name="infinity" unicode="&#x221e;" horiz-adv-x="627" 
d="M371 274q-29 -48 -71.5 -74t-99.5 -26q-48 0 -78 28.5t-30 85.5q0 23 6 52q9 42 26 73t40.5 52t50.5 31.5t56 10.5q57 0 86.5 -26.5t41.5 -75.5q32 49 73 75.5t98 26.5q47 0 77.5 -29t30.5 -88q0 -54 -16.5 -94.5t-43 -67.5t-58 -40.5t-61.5 -13.5q-57 0 -87.5 26
t-40.5 74zM351 337q-8 42 -27 66t-56 24q-44 0 -72 -33t-28 -85q0 -58 63 -58q39 0 69.5 24.5t50.5 61.5zM417 337q5 -38 25.5 -62t59.5 -24q41 0 70.5 29t29.5 86q0 29 -16 45t-47 16q-37 0 -66.5 -24t-55.5 -66z" />
    <glyph glyph-name="integral" unicode="&#x222b;" horiz-adv-x="355" 
d="M-17 -171l19 92h33q29 0 48 15.5t27 49.5l122 574q33 158 214 158h32l-20 -93h-32q-61 0 -74 -65l-122 -574q-34 -157 -215 -157h-32z" />
    <glyph glyph-name="approxequal" unicode="&#x2248;" horiz-adv-x="630" 
d="M94 168zM618 206q-15 -10 -33 -17.5t-37.5 -12t-39 -6.5t-35.5 -2q-34 0 -62.5 8.5t-54.5 19t-52.5 19t-55.5 8.5q-35 0 -73 -10t-81 -34l20 96q15 10 33.5 17.5t37.5 12.5t38 7t35 2q33 0 61 -9t54.5 -19.5t53.5 -19t58 -8.5q35 0 73 10t81 34zM663 425
q-15 -10 -33 -17.5t-37.5 -12t-39 -6.5t-35.5 -2q-34 0 -62.5 8.5t-54.5 19t-52.5 19t-55.5 8.5q-35 0 -73 -10t-81 -34l20 96q15 10 33.5 17.5t37.5 12.5t38 7t35 2q33 0 61 -9t54.5 -19.5t53.5 -19t58 -8.5q35 0 73 10t81 34z" />
    <glyph glyph-name="notequal" unicode="&#x2260;" horiz-adv-x="632" 
d="M497 424l-122 -150h260l-19 -87h-313l-151 -187h-80l151 187h-129l19 87h182l122 150h-272l18 88h325l135 165h80l-135 -165h117l-18 -88h-170z" />
    <glyph glyph-name="lessequal" unicode="&#x2264;" horiz-adv-x="632" 
d="M46 0zM118 299l14 64l569 224l-20 -95l-414 -161l346 -161l-20 -94zM46 -37l21 100h526l-21 -100h-526z" />
    <glyph glyph-name="greaterequal" unicode="&#x2265;" horiz-adv-x="632" 
d="M46 0zM71 76l20 94l414 161l-346 161l20 95l475 -224l-14 -64zM46 -37l21 100h526l-21 -100h-526z" />
    <glyph glyph-name="dotmath" unicode="&#x22c5;" horiz-adv-x="239" 
d="M107 244zM107 244l32 151h128l-32 -151h-128z" />
    <glyph glyph-name="lozenge" unicode="&#x25ca;" horiz-adv-x="535" 
d="M211 0l-107 338l250 339h118l98 -339l-241 -338h-118zM442 338l-57 209l-149 -209l60 -208z" />
    <glyph glyph-name="fi" unicode="&#xfb01;" horiz-adv-x="600" 
d="M53 0zM53 0l127 602q14 64 42.5 90t77.5 26h174l-23 -109h-105q-25 0 -30 -26l-16 -77h125l-23 -110h-125l-84 -396h-140zM403 0l107 506h140l-107 -506h-140zM523 566l32 152h141l-32 -152h-141z" />
    <glyph glyph-name="fl" unicode="&#xfb02;" horiz-adv-x="595" 
d="M53 0zM53 0l127 602q14 64 42.5 90t77.5 26h174l-23 -109h-105q-25 0 -30 -26l-16 -77h125l-23 -110h-125l-84 -396h-140zM401 0l152 718h140l-152 -718h-140z" />
    <glyph glyph-name=".ttfautohint" horiz-adv-x="168" 
d="M0 0z" />
    </font>
</defs>
</svg>
