<?xml version="1.0" standalone="no"?>
<!DOCTYPE svg PUBLIC "-//W3C//DTD SVG 1.1//EN" "http://www.w3.org/Graphics/SVG/1.1/DTD/svg11.dtd" >
<svg xmlns="http://www.w3.org/2000/svg" xmlns:xlink="http://www.w3.org/1999/xlink" version="1.1">
<metadata>
Created by FontForge 20170731 at Fri Jul 20 05:08:32 2012
 By Aleksey,,,
(c) 1998-2012 Typodermic Fonts Inc. See attached license agreement. If agreement is missing visit typodermicfonts.com for more info.
</metadata>
<defs>
<font id="PricedownBl-Regular" horiz-adv-x="515" >
  <font-face 
    font-family="Pricedown Bl"
    font-weight="900"
    font-stretch="normal"
    units-per-em="1000"
    panose-1="2 11 10 6 0 2 2 8 1 4"
    ascent="800"
    descent="-200"
    cap-height="639"
    bbox="-261 -199 1529 837"
    underline-thickness="20"
    underline-position="-163"
    unicode-range="U+0017-E143"
  />
<missing-glyph horiz-adv-x="452" 
d="M129 0q-97 0 -97 84v488q0 85 97 85h193q98 0 98 -85v-488q0 -84 -98 -84h-193zM368 572q0 39 -46 39h-193q-46 0 -46 -39v-488q0 -39 46 -39h193q46 0 46 39v488z" />
    <glyph glyph-name="copyright" unicode="&#x28;C&#x29;" horiz-adv-x="556" 
d="M84 0q-60 0 -60 58v527q0 54 60 54h388q60 0 60 -54v-527q0 -58 -60 -58h-388zM425 544q0 4 -6 4h-282q-6 0 -6 -4v-432q0 -3 5 -3h284q5 0 5 3v432zM231 201q-42 0 -42 32v192q0 33 42 33h104q42 0 42 -33v-66h-84v33q0 2 -2 2h-17q-2 0 -2 -2v-125q0 -2 2 -2h17
q2 0 2 2v49h84v-83q0 -32 -42 -32h-104z" />
    <glyph glyph-name="registered" unicode="&#x28;R&#x29;" horiz-adv-x="556" 
d="M84 0q-60 0 -60 58v527q0 54 60 54h388q60 0 60 -54v-527q0 -58 -60 -58h-388zM425 544q0 4 -6 4h-282q-6 0 -6 -4v-432q0 -3 5 -3h284q5 0 5 3v432zM294 201v101q0 2 -2 2h-19v-103h-84v257h147q41 0 41 -33v-74q0 -19 -20 -21q20 -3 20 -22v-107h-83zM294 392q0 2 -2 2
h-19v-39h19q2 0 2 2v35z" />
    <glyph glyph-name="uni2117" unicode="&#x28;P&#x29;" horiz-adv-x="556" 
d="M84 0q-60 0 -60 58v527q0 54 60 54h388q60 0 60 -54v-527q0 -58 -60 -58h-388zM425 544q0 4 -6 4h-282q-6 0 -6 -4v-432q0 -3 5 -3h284q5 0 5 3v432zM294 392q0 2 -2 2h-19v-36h19q2 0 2 2v32zM189 201v257h147q42 0 42 -33v-95q0 -33 -42 -33h-63v-96h-84z" />
    <glyph glyph-name="a_F.2" unicode="aF" horiz-adv-x="946" 
d="M283 259h-49q-2 0 -2 -2v-96q0 -2 2 -2h49v100zM128 0q-104 0 -104 79v241q0 79 104 79h155v78q0 2 -2 2h-47q-2 0 -2 -2v-37h-208v118q0 81 104 81h259q104 0 104 -81v-558h-363zM24 -199v159h515q2 0 2 2v596q0 81 104 81h286v-160h-180q-2 0 -2 -2v-37h180v-160h-180
v-400q0 -79 -104 -79h-621z" />
    <glyph glyph-name="a_G.2" unicode="ag" horiz-adv-x="1033" 
d="M283 259h-49q-2 0 -2 -2v-96q0 -2 2 -2h49v100zM128 0q-104 0 -104 79v241q0 79 104 79h155v78q0 2 -2 2h-47q-2 0 -2 -2v-37h-208v118q0 81 104 81h259q104 0 104 -81v-558h-363zM24 -199v159h773q2 0 2 2v38h-155q-104 0 -104 79v479q0 81 104 81h363v-759
q0 -79 -104 -79h-879zM799 479h-49q-2 0 -2 -2v-316q0 -2 2 -2h49v320z" />
    <glyph glyph-name="a_Y.2" unicode="aY" horiz-adv-x="1033" 
d="M283 259h-49q-2 0 -2 -2v-96q0 -2 2 -2h49v100zM128 0q-104 0 -104 79v241q0 79 104 79h155v78q0 2 -2 2h-47q-2 0 -2 -2v-37h-208v118q0 81 104 81h259q104 0 104 -81v-558h-363zM24 -199v159h773q2 0 2 2v38h-155q-104 0 -104 79v560h208v-478q0 -2 2 -2h49v480h208
v-759q0 -79 -104 -79h-879z" />
    <glyph glyph-name="A.alt_A" unicode="AA" horiz-adv-x="1034" 
d="M284 477q0 2 -2 2h-47q-2 0 -2 -2v-78h51v78zM388 -199q-104 0 -104 79v359h-51v-239h-208v558q0 81 104 81h259q104 0 104 -81v-596q0 -2 2 -2h515v-159h-621zM801 477q0 2 -2 2h-47q-2 0 -2 -2v-78h51v78zM801 0v239h-51v-239h-208v558q0 81 104 81h259q104 0 104 -81
v-558h-208z" />
    <glyph glyph-name="A.alt_b" unicode="Ab" horiz-adv-x="1035" 
d="M284 477q0 2 -2 2h-47q-2 0 -2 -2v-78h51v78zM388 -199q-104 0 -104 79v359h-51v-239h-208v558q0 81 104 81h259q104 0 104 -81v-596q0 -2 2 -2h516v-159h-622zM543 0v799h208v-160h155q104 0 104 -81v-479q0 -79 -104 -79h-363zM802 477q0 2 -2 2h-49v-320h49q2 0 2 2
v316z" />
    <glyph glyph-name="A.alt_B" unicode="AB" horiz-adv-x="1035" 
d="M284 477q0 2 -2 2h-47q-2 0 -2 -2v-78h51v78zM388 -199q-104 0 -104 79v359h-51v-239h-208v558q0 81 104 81h259q104 0 104 -81v-596q0 -2 2 -2h516v-159h-622zM802 477q0 2 -2 2h-49v-96h49q2 0 2 2v92zM543 0v639h363q103 0 103 -81v-186q0 -46 -51 -52q52 -7 52 -53
v-188q0 -79 -104 -79h-363zM802 254q0 2 -2 2h-49v-97h49q2 0 2 2v93z" />
    <glyph glyph-name="A.alt_C" unicode="AC" horiz-adv-x="1032" 
d="M284 477q0 2 -2 2h-47q-2 0 -2 -2v-78h51v78zM388 -199q-104 0 -104 79v359h-51v-239h-208v558q0 81 104 81h259q104 0 104 -81v-596q0 -2 2 -2h514v-159h-620zM645 0q-104 0 -104 79v479q0 81 104 81h259q104 0 104 -81v-189h-208v108q0 2 -2 2h-47q-2 0 -2 -2v-316
q0 -2 2 -2h47q2 0 2 2v149h208v-231q0 -79 -104 -79h-259z" />
    <glyph glyph-name="A.alt_d" unicode="Ad" horiz-adv-x="1034" 
d="M284 477q0 2 -2 2h-47q-2 0 -2 -2v-78h51v78zM388 -199q-104 0 -104 79v359h-51v-239h-208v558q0 81 104 81h259q104 0 104 -81v-596q0 -2 2 -2h514v-159h-620zM645 0q-54 0 -79 19.5t-25 59.5v479q0 81 104 81h155v160h208v-799h-363zM800 479h-49q-2 0 -2 -2v-316
q0 -2 2 -2h49v320z" />
    <glyph glyph-name="A.alt_D" unicode="AD" horiz-adv-x="1034" 
d="M284 477q0 2 -2 2h-47q-2 0 -2 -2v-78h51v78zM388 -199q-104 0 -104 79v359h-51v-239h-208v558q0 81 104 81h259q104 0 104 -81v-596q0 -2 2 -2h516v-159h-622zM802 477q0 2 -2 2h-49v-320h49q2 0 2 2v316zM543 0v639h363q104 0 104 -81v-479q0 -79 -104 -79h-363z" />
    <glyph glyph-name="A.alt_e" unicode="Ae" horiz-adv-x="1032" 
d="M284 477q0 2 -2 2h-47q-2 0 -2 -2v-78h51v78zM388 -199q-104 0 -104 79v359h-51v-239h-208v558q0 81 104 81h259q104 0 104 -81v-596q0 -2 2 -2h514v-159h-620zM800 477q0 2 -2 2h-47q-2 0 -2 -2v-89h51v89zM645 0q-104 0 -104 79v479q0 81 104 81h259q104 0 104 -81
v-319h-259v-78q0 -2 2 -2h47q2 0 2 2v38h208v-120q0 -79 -104 -79h-259z" />
    <glyph glyph-name="A.alt_E" unicode="AE" horiz-adv-x="920" 
d="M284 477q0 2 -2 2h-47q-2 0 -2 -2v-78h51v78zM388 -199q-104 0 -104 79v359h-51v-239h-208v558q0 81 104 81h259q104 0 104 -81v-596q0 -2 2 -2h402v-159h-508zM543 0v639h352v-160h-144v-80h142v-160h-142v-80h145v-159h-353z" />
    <glyph glyph-name="A.alt_exclam" unicode="A&#x21;" horiz-adv-x="791" 
d="M284 477q0 2 -2 2h-47q-2 0 -2 -2v-78h51v78zM388 -199q-104 0 -104 79v359h-51v-239h-208v558q0 81 104 81h259q104 0 104 -81v-596q0 -2 2 -2h264v-159h-370zM550 0v159h208v-159h-208zM550 199v440h208v-440h-208z" />
    <glyph glyph-name="A.alt_F" unicode="AF" horiz-adv-x="947" 
d="M284 477q0 2 -2 2h-47q-2 0 -2 -2v-78h51v78zM388 -199q-104 0 -104 79v359h-51v-239h-208v558q0 81 104 81h259q104 0 104 -81v-596q0 -2 2 -2h256v-159h-362zM542 0v558q0 81 104 81h286v-160h-180q-2 0 -2 -2v-37h180v-160h-180v-280h-208z" />
    <glyph glyph-name="A.alt_G" unicode="Ag" horiz-adv-x="1033" 
d="M284 477q0 2 -2 2h-47q-2 0 -2 -2v-78h51v78zM388 -199q-104 0 -104 79v359h-51v-239h-208v558q0 81 104 81h259q104 0 104 -81v-596q0 -2 2 -2h514v-159h-620zM645 0q-104 0 -104 79v479q0 81 104 81h259q104 0 104 -81v-108h-208v27q0 2 -2 2h-47q-2 0 -2 -2v-316
q0 -2 2 -2h49v232h208v-391h-363z" />
    <glyph glyph-name="A.alt_h" unicode="Ah" horiz-adv-x="1035" 
d="M284 477q0 2 -2 2h-47q-2 0 -2 -2v-78h51v78zM388 -199q-104 0 -104 79v359h-51v-239h-208v558q0 81 104 81h259q104 0 104 -81v-596q0 -2 2 -2h516v-159h-622zM802 0v477q0 2 -2 2h-49v-479h-208v799h208v-160h155q104 0 104 -81v-558h-208z" />
    <glyph glyph-name="A.alt_H" unicode="AH" horiz-adv-x="1036" 
d="M284 477q0 2 -2 2h-47q-2 0 -2 -2v-78h51v78zM388 -199q-104 0 -104 79v359h-51v-239h-208v558q0 81 104 81h259q104 0 104 -81v-596q0 -2 2 -2h516v-159h-622zM802 0v246h-51v-246h-208v639h208v-246h51v246h208v-639h-208z" />
    <glyph glyph-name="A.alt_I" unicode="AI" horiz-adv-x="777" 
d="M284 477q0 2 -2 2h-47q-2 0 -2 -2v-78h51v78zM388 -199q-104 0 -104 79v359h-51v-239h-208v558q0 81 104 81h259q104 0 104 -81v-596q0 -2 2 -2h257v-159h-363zM543 0v639h208v-639h-208z" />
    <glyph glyph-name="A.alt_J" unicode="AJ" horiz-adv-x="1027" 
d="M284 477q0 2 -2 2h-47q-2 0 -2 -2v-78h51v78zM388 -199q-104 0 -104 79v359h-51v-239h-208v558q0 81 104 81h259q104 0 104 -81v-596q0 -2 2 -2h508v-159h-614zM639 0q-104 0 -104 79v241h208v-159q0 -2 2 -2h47q2 0 2 2v478h208v-560q0 -79 -104 -79h-259z" />
    <glyph glyph-name="A.alt_K" unicode="AK" horiz-adv-x="1029" 
d="M284 477q0 2 -2 2h-47q-2 0 -2 -2v-78h51v78zM388 -199q-104 0 -104 79v359h-51v-239h-208v558q0 81 104 81h259q104 0 104 -81v-596q0 -2 2 -2h537v-159h-643zM812 0l-68 171v-171h-201v639h201v-163l62 163h219l-143 -308l149 -331h-219z" />
    <glyph glyph-name="A.alt_L" unicode="AL" horiz-adv-x="901" 
d="M284 477q0 2 -2 2h-47q-2 0 -2 -2v-78h51v78zM388 -199q-104 0 -104 79v359h-51v-239h-208v558q0 81 104 81h259q104 0 104 -81v-596q0 -2 2 -2h392v-159h-498zM543 0v639h208v-480h135v-159h-343z" />
    <glyph glyph-name="A.alt_M" unicode="AM" horiz-adv-x="1294" 
d="M284 477q0 2 -2 2h-47q-2 0 -2 -2v-78h51v78zM388 -199q-104 0 -104 79v359h-51v-239h-208v558q0 81 104 81h259q104 0 104 -81v-596q0 -2 2 -2h775v-159h-881zM1063 0v477q0 2 -2 2h-49q-2 0 -2 -2v-477h-208v477q0 2 -2 2h-47q-2 0 -2 -2v-477h-208v639h208v-41
q19 20 54.5 30.5t80.5 10.5q46 0 71.5 -12t42.5 -36q23 29 57.5 38.5t83.5 9.5q27 0 50.5 -6.5t40.5 -18.5t27 -28.5t10 -35.5v-550h-206z" />
    <glyph glyph-name="A.alt_N" unicode="AN" horiz-adv-x="1035" 
d="M284 477q0 2 -2 2h-47q-2 0 -2 -2v-78h51v78zM388 -199q-104 0 -104 79v359h-51v-239h-208v558q0 81 104 81h259q104 0 104 -81v-596q0 -2 2 -2h516v-159h-622zM802 0v477q0 2 -2 2h-47q-2 0 -2 -2v-477h-208v639h208v-41q53 41 155 41q104 0 104 -81v-558h-208z" />
    <glyph glyph-name="A.alt_O" unicode="AO" horiz-adv-x="1032" 
d="M284 477q0 2 -2 2h-47q-2 0 -2 -2v-78h51v78zM388 -199q-104 0 -104 79v359h-51v-239h-208v558q0 81 104 81h259q104 0 104 -81v-596q0 -2 2 -2h514v-159h-620zM800 477q0 2 -2 2h-47q-2 0 -2 -2v-316q0 -2 2 -2h47q2 0 2 2v316zM645 0q-104 0 -104 79v479q0 81 104 81
h259q104 0 104 -81v-479q0 -79 -104 -79h-259z" />
    <glyph glyph-name="A.alt_P" unicode="AP" horiz-adv-x="1025" 
d="M284 477q0 2 -2 2h-47q-2 0 -2 -2v-78h51v78zM388 -199q-104 0 -104 79v359h-51v-239h-208v558q0 81 104 81h259q104 0 104 -81v-596q0 -2 2 -2h257v-159h-363zM802 477q0 2 -2 2h-49v-89h49q2 0 2 2v85zM543 0v639h363q104 0 104 -81v-238q0 -81 -104 -81h-155v-239
h-208z" />
    <glyph glyph-name="A.alt_period" unicode="A&#x2e;" horiz-adv-x="777" 
d="M284 477q0 2 -2 2h-47q-2 0 -2 -2v-78h51v78zM388 -199q-104 0 -104 79v359h-51v-239h-208v558q0 81 104 81h259q104 0 104 -81v-596q0 -2 2 -2h257v-159h-363zM543 0v159h208v-159h-208z" />
    <glyph glyph-name="A.alt_Q" unicode="AQ" horiz-adv-x="1034" 
d="M284 477q0 2 -2 2h-47q-2 0 -2 -2v-78h51v78zM388 -199q-104 0 -104 79v359h-51v-239h-208v558q0 81 104 81h259q104 0 104 -81v-596q0 -2 2 -2h258v-159h-364zM800 -199v199h-155q-54 0 -79 19.5t-25 59.5v479q0 81 104 81h363v-838h-208zM800 479h-49q-2 0 -2 -2v-316
q0 -2 2 -2h49v320z" />
    <glyph glyph-name="A.alt_question" unicode="A&#x3f;" horiz-adv-x="1017" 
d="M284 477q0 2 -2 2h-47q-2 0 -2 -2v-78h51v78zM388 -199q-104 0 -104 79v359h-51v-239h-208v558q0 81 104 81h259q104 0 104 -81v-596q0 -2 2 -2h259v-159h-365zM545 0v159h208v-159h-208zM755 239q-2 0 -2 -2v-38h-208v121q0 79 104 79h145q2 0 2 2v76q0 2 -2 2h-47
q-2 0 -2 -2v-37h-208v118q0 81 104 81h259q104 0 104 -81v-238q0 -81 -104 -81h-145z" />
    <glyph glyph-name="A.alt_R" unicode="AR" horiz-adv-x="1035" 
d="M284 477q0 2 -2 2h-47q-2 0 -2 -2v-78h51v78zM388 -199q-104 0 -104 79v359h-51v-239h-208v558q0 81 104 81h259q104 0 104 -81v-596q0 -2 2 -2h516v-159h-622zM802 0v254q0 2 -2 2h-49v-256h-208v639h363q103 0 103 -81v-186q0 -46 -51 -52q52 -7 52 -53v-267h-208z
M802 477q0 2 -2 2h-49v-96h49q2 0 2 2v92z" />
    <glyph glyph-name="A.alt_S" unicode="AS" horiz-adv-x="1032" 
d="M284 477q0 2 -2 2h-47q-2 0 -2 -2v-78h51v78zM388 -199q-104 0 -104 79v359h-51v-239h-208v558q0 81 104 81h259q104 0 104 -81v-596q0 -2 2 -2h514v-159h-620zM645 0q-104 0 -104 79v120h208v-38q0 -2 2 -2h47q2 0 2 2v76q0 2 -2 2h-153q-104 0 -104 81v238q0 81 104 81
h259q104 0 104 -81v-118h-208v37q0 2 -2 2h-47q-2 0 -2 -2v-76q0 -2 2 -2h153q104 0 104 -79v-241q0 -79 -104 -79h-259z" />
    <glyph glyph-name="A.alt_T" unicode="AT" horiz-adv-x="1066" 
d="M284 477q0 2 -2 2h-47q-2 0 -2 -2v-78h51v78zM388 -199q-104 0 -104 79v359h-51v-239h-208v558q0 81 104 81h259q104 0 104 -81v-596q0 -2 2 -2h547v-159h-653zM678 0q-104 0 -104 79v361h-51v158h51v41h208v-41h259v-158h-259v-279q0 -2 2 -2h48q2 0 2 2v238h207v-320
q0 -79 -104 -79h-259z" />
    <glyph glyph-name="A.alt_U" unicode="AU" horiz-adv-x="1034" 
d="M284 477q0 2 -2 2h-47q-2 0 -2 -2v-78h51v78zM388 -199q-104 0 -104 79v359h-51v-239h-208v558q0 81 104 81h259q104 0 104 -81v-596q0 -2 2 -2h515v-159h-621zM646 0q-104 0 -104 79v560h208v-478q0 -2 2 -2h47q2 0 2 2v478h208v-560q0 -79 -104 -79h-259z" />
    <glyph glyph-name="A.alt_Y" unicode="Ay" horiz-adv-x="1018" 
d="M284 477q0 2 -2 2h-47q-2 0 -2 -2v-78h51v78zM388 -199q-104 0 -104 79v359h-51v-239h-208v558q0 81 104 81h259q104 0 104 -81v-596q0 -2 2 -2h380v-159h-486zM666 0v228q-131 0 -131 130v281h208v-259q0 -2 2 -2h47q2 0 2 2v259h208v-281q0 -130 -128 -130v-228h-208z
" />
    <glyph glyph-name="A.alt_Z" unicode="AZ" horiz-adv-x="1027" 
d="M284 477q0 2 -2 2h-47q-2 0 -2 -2v-78h51v78zM388 -199q-104 0 -104 79v359h-51v-239h-208v558q0 81 104 81h259q104 0 104 -81v-596q0 -2 2 -2h513v-159h-619zM540 0v164l223 315h-223v160h467v-149l-216 -331h216v-159h-467z" />
    <glyph glyph-name="b_Y.2" unicode="by" horiz-adv-x="1035" 
d="M26 0v799h208v-160h155q104 0 104 -81v-479q0 -79 -104 -79h-363zM285 477q0 2 -2 2h-49v-320h49q2 0 2 2v316zM26 -199v159h773q2 0 2 2v38h-155q-104 0 -104 79v560h208v-478q0 -2 2 -2h49v480h208v-759q0 -79 -104 -79h-879z" />
    <glyph glyph-name="B_Y.2" unicode="By" horiz-adv-x="1035" 
d="M285 477q0 2 -2 2h-49v-96h49q2 0 2 2v92zM26 0v639h363q103 0 103 -81v-186q0 -46 -51 -52q52 -7 52 -53v-188q0 -79 -104 -79h-363zM285 254q0 2 -2 2h-49v-97h49q2 0 2 2v93zM26 -199v159h773q2 0 2 2v38h-155q-104 0 -104 79v560h208v-478q0 -2 2 -2h49v480h208v-759
q0 -79 -104 -79h-879z" />
    <glyph glyph-name="C_Y.2" unicode="Cy" horiz-adv-x="1032" 
d="M128 0q-104 0 -104 79v479q0 81 104 81h259q104 0 104 -81v-189h-208v108q0 2 -2 2h-47q-2 0 -2 -2v-316q0 -2 2 -2h47q2 0 2 2v149h208v-231q0 -79 -104 -79h-259zM24 -199v159h772q2 0 2 2v38h-155q-104 0 -104 79v560h208v-478q0 -2 2 -2h49v480h208v-759
q0 -79 -104 -79h-878z" />
    <glyph glyph-name="D_F.2" unicode="DF" horiz-adv-x="947" 
d="M285 477q0 2 -2 2h-49v-320h49q2 0 2 2v316zM26 0v639h363q104 0 104 -81v-479q0 -79 -104 -79h-363zM26 -199v159h514q2 0 2 2v596q0 81 104 81h286v-160h-180q-2 0 -2 -2v-37h180v-160h-180v-400q0 -79 -104 -79h-620z" />
    <glyph glyph-name="d_G.2" unicode="dg" horiz-adv-x="1034" 
d="M128 0q-54 0 -79 19.5t-25 59.5v479q0 81 104 81h155v160h208v-799h-363zM283 479h-49q-2 0 -2 -2v-316q0 -2 2 -2h49v320zM24 -199v159h774q2 0 2 2v38h-155q-104 0 -104 79v479q0 81 104 81h363v-759q0 -79 -104 -79h-880zM800 479h-49q-2 0 -2 -2v-316q0 -2 2 -2h49
v320z" />
    <glyph glyph-name="D_G.2" unicode="Dg" horiz-adv-x="1034" 
d="M285 477q0 2 -2 2h-49v-320h49q2 0 2 2v316zM26 0v639h363q104 0 104 -81v-479q0 -79 -104 -79h-363zM26 -199v159h772q2 0 2 2v38h-155q-104 0 -104 79v479q0 81 104 81h363v-759q0 -79 -104 -79h-878zM800 479h-49q-2 0 -2 -2v-316q0 -2 2 -2h49v320z" />
    <glyph glyph-name="d_Y.2" unicode="dy" horiz-adv-x="1034" 
d="M128 0q-54 0 -79 19.5t-25 59.5v479q0 81 104 81h155v160h208v-799h-363zM283 479h-49q-2 0 -2 -2v-316q0 -2 2 -2h49v320zM24 -199v159h774q2 0 2 2v38h-155q-104 0 -104 79v560h208v-478q0 -2 2 -2h49v480h208v-759q0 -79 -104 -79h-880z" />
    <glyph glyph-name="D_Y.2" unicode="Dy" horiz-adv-x="1034" 
d="M285 477q0 2 -2 2h-49v-320h49q2 0 2 2v316zM26 0v639h363q104 0 104 -81v-479q0 -79 -104 -79h-363zM26 -199v159h772q2 0 2 2v38h-155q-104 0 -104 79v560h208v-478q0 -2 2 -2h49v480h208v-759q0 -79 -104 -79h-878z" />
    <glyph glyph-name="e_F.2" unicode="eF" horiz-adv-x="945" 
d="M283 477q0 2 -2 2h-47q-2 0 -2 -2v-89h51v89zM128 0q-104 0 -104 79v479q0 81 104 81h259q104 0 104 -81v-319h-259v-78q0 -2 2 -2h47q2 0 2 2v38h208v-120q0 -79 -104 -79h-259zM24 -199v159h514q2 0 2 2v596q0 81 104 81h286v-160h-180q-2 0 -2 -2v-37h180v-160h-180
v-400q0 -79 -104 -79h-620z" />
    <glyph glyph-name="E_F.2" unicode="EF" horiz-adv-x="833" 
d="M26 0v639h352v-160h-144v-80h142v-160h-142v-80h145v-159h-353zM27 -199v159h399q2 0 2 2v596q0 81 104 81h286v-160h-180q-2 0 -2 -2v-37h180v-160h-180v-400q0 -79 -104 -79h-505z" />
    <glyph glyph-name="e_G.2" unicode="eg" horiz-adv-x="1032" 
d="M283 477q0 2 -2 2h-47q-2 0 -2 -2v-89h51v89zM128 0q-104 0 -104 79v479q0 81 104 81h259q104 0 104 -81v-319h-259v-78q0 -2 2 -2h47q2 0 2 2v38h208v-120q0 -79 -104 -79h-259zM24 -199v159h772q2 0 2 2v38h-155q-104 0 -104 79v479q0 81 104 81h363v-759
q0 -79 -104 -79h-878zM798 479h-49q-2 0 -2 -2v-316q0 -2 2 -2h49v320z" />
    <glyph glyph-name="E_G.2" unicode="Eg" horiz-adv-x="920" 
d="M26 0v639h352v-160h-144v-80h142v-160h-142v-80h145v-159h-353zM27 -199v159h657q2 0 2 2v38h-155q-104 0 -104 79v479q0 81 104 81h363v-759q0 -79 -104 -79h-763zM686 479h-49q-2 0 -2 -2v-316q0 -2 2 -2h49v320z" />
    <glyph glyph-name="e_Y.2" unicode="ey" horiz-adv-x="1032" 
d="M283 477q0 2 -2 2h-47q-2 0 -2 -2v-89h51v89zM128 0q-104 0 -104 79v479q0 81 104 81h259q104 0 104 -81v-319h-259v-78q0 -2 2 -2h47q2 0 2 2v38h208v-120q0 -79 -104 -79h-259zM24 -199v159h772q2 0 2 2v38h-155q-104 0 -104 79v560h208v-478q0 -2 2 -2h49v480h208
v-759q0 -79 -104 -79h-878z" />
    <glyph glyph-name="E_Y.2" unicode="Ey" horiz-adv-x="920" 
d="M26 0v639h352v-160h-144v-80h142v-160h-142v-80h145v-159h-353zM26 -199v159h658q2 0 2 2v38h-155q-104 0 -104 79v560h208v-478q0 -2 2 -2h49v480h208v-759q0 -79 -104 -79h-764z" />
    <glyph glyph-name="F_F.2" unicode="FF" horiz-adv-x="860" 
d="M25 0v558q0 81 104 81h286v-160h-180q-2 0 -2 -2v-37h180v-160h-180v-280h-208zM25 -199v159h428q2 0 2 2v596q0 81 104 81h286v-160h-180q-2 0 -2 -2v-37h180v-160h-180v-400q0 -79 -104 -79h-534z" />
    <glyph glyph-name="F_Y.2" unicode="Fy" horiz-adv-x="947" 
d="M25 0v558q0 81 104 81h286v-160h-180q-2 0 -2 -2v-37h180v-160h-180v-280h-208zM25 -199v159h686q2 0 2 2v38h-155q-104 0 -104 79v560h208v-478q0 -2 2 -2h49v480h208v-759q0 -79 -104 -79h-792z" />
    <glyph glyph-name="G_Y.2" unicode="gy" horiz-adv-x="1033" 
d="M128 0q-104 0 -104 79v479q0 81 104 81h259q104 0 104 -81v-108h-208v27q0 2 -2 2h-47q-2 0 -2 -2v-316q0 -2 2 -2h49v232h208v-391h-363zM24 -199v159h773q2 0 2 2v38h-155q-104 0 -104 79v560h208v-478q0 -2 2 -2h49v480h208v-759q0 -79 -104 -79h-879z" />
    <glyph glyph-name="h.alt_a" unicode="ha" horiz-adv-x="1034" 
d="M390 -199q-105 0 -105 79v597q0 2 -2 2h-49v-479h-208v799h208v-160h155q104 0 104 -81v-596q0 -2 2 -2h514v-159h-619zM801 259h-49q-2 0 -2 -2v-96q0 -2 2 -2h49v100zM646 0q-104 0 -104 79v241q0 79 104 79h155v78q0 2 -2 2h-47q-2 0 -2 -2v-37h-208v118q0 81 104 81
h259q104 0 104 -81v-558h-363z" />
    <glyph glyph-name="h.alt_A" unicode="hA" horiz-adv-x="1035" 
d="M390 -199q-105 0 -105 79v597q0 2 -2 2h-49v-479h-208v799h208v-160h155q104 0 104 -81v-596q0 -2 2 -2h515v-159h-620zM802 477q0 2 -2 2h-47q-2 0 -2 -2v-78h51v78zM802 0v239h-51v-239h-208v558q0 81 104 81h259q104 0 104 -81v-558h-208z" />
    <glyph glyph-name="H.alt_a" unicode="Ha" horiz-adv-x="1035" 
d="M389 -199q-104 0 -104 79v366h-51v-246h-208v639h208v-246h51v246h208v-677q0 -2 2 -2h515v-159h-621zM802 259h-49q-2 0 -2 -2v-96q0 -2 2 -2h49v100zM647 0q-104 0 -104 79v241q0 79 104 79h155v78q0 2 -2 2h-47q-2 0 -2 -2v-37h-208v118q0 81 104 81h259
q104 0 104 -81v-558h-363z" />
    <glyph glyph-name="H.alt_A" unicode="HA" horiz-adv-x="1036" 
d="M389 -199q-104 0 -104 79v366h-51v-246h-208v639h208v-246h51v246h208v-677q0 -2 2 -2h516v-159h-622zM803 477q0 2 -2 2h-47q-2 0 -2 -2v-78h51v78zM803 0v239h-51v-239h-208v558q0 81 104 81h259q104 0 104 -81v-558h-208z" />
    <glyph glyph-name="H.alt_C" unicode="Hc" horiz-adv-x="1034" 
d="M389 -199q-104 0 -104 79v366h-51v-246h-208v639h208v-246h51v246h208v-677q0 -2 2 -2h515v-159h-621zM647 0q-104 0 -104 79v479q0 81 104 81h259q104 0 104 -81v-189h-208v108q0 2 -2 2h-47q-2 0 -2 -2v-316q0 -2 2 -2h47q2 0 2 2v149h208v-231q0 -79 -104 -79h-259z
" />
    <glyph glyph-name="h.alt_d" unicode="hd" horiz-adv-x="1035" 
d="M390 -199q-105 0 -105 79v597q0 2 -2 2h-49v-479h-208v799h208v-160h155q104 0 104 -81v-596q0 -2 2 -2h514v-159h-619zM646 0q-54 0 -79 19.5t-25 59.5v479q0 81 104 81h155v160h208v-799h-363zM801 479h-49q-2 0 -2 -2v-316q0 -2 2 -2h49v320z" />
    <glyph glyph-name="h.alt_D" unicode="hD" horiz-adv-x="1035" 
d="M390 -199q-105 0 -105 79v597q0 2 -2 2h-49v-479h-208v799h208v-160h155q104 0 104 -81v-596q0 -2 2 -2h516v-159h-621zM803 477q0 2 -2 2h-49v-320h49q2 0 2 2v316zM544 0v639h363q104 0 104 -81v-479q0 -79 -104 -79h-363z" />
    <glyph glyph-name="H.alt_d" unicode="Hd" horiz-adv-x="1036" 
d="M389 -199q-104 0 -104 79v366h-51v-246h-208v639h208v-246h51v246h208v-677q0 -2 2 -2h515v-159h-621zM647 0q-54 0 -79 19.5t-25 59.5v479q0 81 104 81h155v160h208v-799h-363zM802 479h-49q-2 0 -2 -2v-316q0 -2 2 -2h49v320z" />
    <glyph glyph-name="H.alt_D" unicode="HD" horiz-adv-x="1036" 
d="M389 -199q-104 0 -104 79v366h-51v-246h-208v639h208v-246h51v246h208v-677q0 -2 2 -2h517v-159h-623zM804 477q0 2 -2 2h-49v-320h49q2 0 2 2v316zM545 0v639h363q104 0 104 -81v-479q0 -79 -104 -79h-363z" />
    <glyph glyph-name="h.alt_e" unicode="he" horiz-adv-x="1033" 
d="M390 -199q-105 0 -105 79v597q0 2 -2 2h-49v-479h-208v799h208v-160h155q104 0 104 -81v-596q0 -2 2 -2h514v-159h-619zM801 477q0 2 -2 2h-47q-2 0 -2 -2v-89h51v89zM646 0q-104 0 -104 79v479q0 81 104 81h259q104 0 104 -81v-319h-259v-78q0 -2 2 -2h47q2 0 2 2v38
h208v-120q0 -79 -104 -79h-259z" />
    <glyph glyph-name="h.alt_E" unicode="hE" horiz-adv-x="921" 
d="M390 -199q-105 0 -105 79v597q0 2 -2 2h-49v-479h-208v799h208v-160h155q104 0 104 -81v-596q0 -2 2 -2h402v-159h-507zM544 0v639h352v-160h-144v-80h142v-160h-142v-80h145v-159h-353z" />
    <glyph glyph-name="H.alt_e" unicode="He" horiz-adv-x="1034" 
d="M389 -199q-104 0 -104 79v366h-51v-246h-208v639h208v-246h51v246h208v-677q0 -2 2 -2h515v-159h-621zM802 477q0 2 -2 2h-47q-2 0 -2 -2v-89h51v89zM647 0q-104 0 -104 79v479q0 81 104 81h259q104 0 104 -81v-319h-259v-78q0 -2 2 -2h47q2 0 2 2v38h208v-120
q0 -79 -104 -79h-259z" />
    <glyph glyph-name="H.alt_E" unicode="HE" horiz-adv-x="922" 
d="M389 -199q-104 0 -104 79v366h-51v-246h-208v639h208v-246h51v246h208v-677q0 -2 2 -2h403v-159h-509zM545 0v639h352v-160h-144v-80h142v-160h-142v-80h145v-159h-353z" />
    <glyph glyph-name="H.alt_exclam" unicode="H&#x21;" horiz-adv-x="793" 
d="M389 -199q-104 0 -104 79v366h-51v-246h-208v639h208v-246h51v246h208v-677q0 -2 2 -2h265v-159h-371zM552 0v159h208v-159h-208zM552 199v440h208v-440h-208z" />
    <glyph glyph-name="h.alt_I" unicode="hI" horiz-adv-x="778" 
d="M390 -199q-105 0 -105 79v597q0 2 -2 2h-49v-479h-208v799h208v-160h155q104 0 104 -81v-596q0 -2 2 -2h257v-159h-362zM544 0v639h208v-639h-208z" />
    <glyph glyph-name="H.alt_I" unicode="HI" horiz-adv-x="779" 
d="M389 -199q-104 0 -104 79v366h-51v-246h-208v639h208v-246h51v246h208v-677q0 -2 2 -2h258v-159h-364zM545 0v639h208v-639h-208z" />
    <glyph glyph-name="h.alt_L" unicode="hL" horiz-adv-x="902" 
d="M390 -199q-105 0 -105 79v597q0 2 -2 2h-49v-479h-208v799h208v-160h155q104 0 104 -81v-596q0 -2 2 -2h392v-159h-497zM544 0v639h208v-480h135v-159h-343z" />
    <glyph glyph-name="H.alt_L" unicode="HL" horiz-adv-x="903" 
d="M389 -199q-104 0 -104 79v366h-51v-246h-208v639h208v-246h51v246h208v-677q0 -2 2 -2h393v-159h-499zM545 0v639h208v-480h135v-159h-343z" />
    <glyph glyph-name="h.alt_M" unicode="hM" horiz-adv-x="1295" 
d="M390 -199q-105 0 -105 79v597q0 2 -2 2h-49v-479h-208v799h208v-160h155q104 0 104 -81v-596q0 -2 2 -2h775v-159h-880zM1064 0v477q0 2 -2 2h-49q-2 0 -2 -2v-477h-208v477q0 2 -2 2h-47q-2 0 -2 -2v-477h-208v639h208v-41q19 20 54.5 30.5t80.5 10.5q46 0 71.5 -12
t42.5 -36q23 29 57.5 38.5t83.5 9.5q27 0 50.5 -6.5t40.5 -18.5t27 -28.5t10 -35.5v-550h-206z" />
    <glyph glyph-name="H.alt_M" unicode="HM" horiz-adv-x="1296" 
d="M389 -199q-104 0 -104 79v366h-51v-246h-208v639h208v-246h51v246h208v-677q0 -2 2 -2h776v-159h-882zM1065 0v477q0 2 -2 2h-49q-2 0 -2 -2v-477h-208v477q0 2 -2 2h-47q-2 0 -2 -2v-477h-208v639h208v-41q19 20 54.5 30.5t80.5 10.5q46 0 71.5 -12t42.5 -36
q23 29 57.5 38.5t83.5 9.5q27 0 50.5 -6.5t40.5 -18.5t27 -28.5t10 -35.5v-550h-206z" />
    <glyph glyph-name="h.alt_N" unicode="hN" horiz-adv-x="1036" 
d="M390 -199q-105 0 -105 79v597q0 2 -2 2h-49v-479h-208v799h208v-160h155q104 0 104 -81v-596q0 -2 2 -2h516v-159h-621zM803 0v477q0 2 -2 2h-47q-2 0 -2 -2v-477h-208v639h208v-41q53 41 155 41q104 0 104 -81v-558h-208z" />
    <glyph glyph-name="H.alt_N" unicode="HN" horiz-adv-x="1037" 
d="M389 -199q-104 0 -104 79v366h-51v-246h-208v639h208v-246h51v246h208v-677q0 -2 2 -2h517v-159h-623zM804 0v477q0 2 -2 2h-47q-2 0 -2 -2v-477h-208v639h208v-41q53 41 155 41q104 0 104 -81v-558h-208z" />
    <glyph glyph-name="h.alt_O" unicode="hO" horiz-adv-x="1033" 
d="M390 -199q-105 0 -105 79v597q0 2 -2 2h-49v-479h-208v799h208v-160h155q104 0 104 -81v-596q0 -2 2 -2h514v-159h-619zM801 477q0 2 -2 2h-47q-2 0 -2 -2v-316q0 -2 2 -2h47q2 0 2 2v316zM646 0q-104 0 -104 79v479q0 81 104 81h259q104 0 104 -81v-479q0 -79 -104 -79
h-259z" />
    <glyph glyph-name="H.alt_O" unicode="HO" horiz-adv-x="1034" 
d="M389 -199q-104 0 -104 79v366h-51v-246h-208v639h208v-246h51v246h208v-677q0 -2 2 -2h515v-159h-621zM802 477q0 2 -2 2h-47q-2 0 -2 -2v-316q0 -2 2 -2h47q2 0 2 2v316zM647 0q-104 0 -104 79v479q0 81 104 81h259q104 0 104 -81v-479q0 -79 -104 -79h-259z" />
    <glyph glyph-name="h.alt_P" unicode="hP" horiz-adv-x="1026" 
d="M390 -199q-105 0 -105 79v597q0 2 -2 2h-49v-479h-208v799h208v-160h155q104 0 104 -81v-596q0 -2 2 -2h257v-159h-362zM803 477q0 2 -2 2h-49v-89h49q2 0 2 2v85zM544 0v639h363q104 0 104 -81v-238q0 -81 -104 -81h-155v-239h-208z" />
    <glyph glyph-name="H.alt_P" unicode="HP" horiz-adv-x="1027" 
d="M389 -199q-104 0 -104 79v366h-51v-246h-208v639h208v-246h51v246h208v-677q0 -2 2 -2h258v-159h-364zM804 477q0 2 -2 2h-49v-89h49q2 0 2 2v85zM545 0v639h363q104 0 104 -81v-238q0 -81 -104 -81h-155v-239h-208z" />
    <glyph glyph-name="h.alt_period" unicode="h&#x2e;" horiz-adv-x="778" 
d="M390 -199q-105 0 -105 79v597q0 2 -2 2h-49v-479h-208v799h208v-160h155q104 0 104 -81v-596q0 -2 2 -2h257v-159h-362zM544 0v159h208v-159h-208z" />
    <glyph glyph-name="H.alt_period" unicode="H&#x2e;" horiz-adv-x="779" 
d="M389 -199q-104 0 -104 79v366h-51v-246h-208v639h208v-246h51v246h208v-677q0 -2 2 -2h258v-159h-364zM545 0v159h208v-159h-208z" />
    <glyph glyph-name="H.alt_question" unicode="H&#x3f;" horiz-adv-x="1019" 
d="M389 -199q-104 0 -104 79v366h-51v-246h-208v639h208v-246h51v246h208v-677q0 -2 2 -2h260v-159h-366zM547 0v159h208v-159h-208zM757 239q-2 0 -2 -2v-38h-208v121q0 79 104 79h145q2 0 2 2v76q0 2 -2 2h-47q-2 0 -2 -2v-37h-208v118q0 81 104 81h259q104 0 104 -81
v-238q0 -81 -104 -81h-145z" />
    <glyph glyph-name="h.alt_R" unicode="hR" horiz-adv-x="1036" 
d="M390 -199q-105 0 -105 79v597q0 2 -2 2h-49v-479h-208v799h208v-160h155q104 0 104 -81v-596q0 -2 2 -2h516v-159h-621zM803 0v254q0 2 -2 2h-49v-256h-208v639h363q103 0 103 -81v-186q0 -46 -51 -52q52 -7 52 -53v-267h-208zM803 477q0 2 -2 2h-49v-96h49q2 0 2 2v92z
" />
    <glyph glyph-name="H.alt_R" unicode="HR" horiz-adv-x="1037" 
d="M389 -199q-104 0 -104 79v366h-51v-246h-208v639h208v-246h51v246h208v-677q0 -2 2 -2h517v-159h-623zM804 0v254q0 2 -2 2h-49v-256h-208v639h363q103 0 103 -81v-186q0 -46 -51 -52q52 -7 52 -53v-267h-208zM804 477q0 2 -2 2h-49v-96h49q2 0 2 2v92z" />
    <glyph glyph-name="h.alt_S" unicode="hS" horiz-adv-x="1033" 
d="M390 -199q-105 0 -105 79v597q0 2 -2 2h-49v-479h-208v799h208v-160h155q104 0 104 -81v-596q0 -2 2 -2h514v-159h-619zM646 0q-104 0 -104 79v120h208v-38q0 -2 2 -2h47q2 0 2 2v76q0 2 -2 2h-153q-104 0 -104 81v238q0 81 104 81h259q104 0 104 -81v-118h-208v37
q0 2 -2 2h-47q-2 0 -2 -2v-76q0 -2 2 -2h153q104 0 104 -79v-241q0 -79 -104 -79h-259z" />
    <glyph glyph-name="H.alt_S" unicode="HS" horiz-adv-x="1034" 
d="M389 -199q-104 0 -104 79v366h-51v-246h-208v639h208v-246h51v246h208v-677q0 -2 2 -2h515v-159h-621zM647 0q-104 0 -104 79v120h208v-38q0 -2 2 -2h47q2 0 2 2v76q0 2 -2 2h-153q-104 0 -104 81v238q0 81 104 81h259q104 0 104 -81v-118h-208v37q0 2 -2 2h-47
q-2 0 -2 -2v-76q0 -2 2 -2h153q104 0 104 -79v-241q0 -79 -104 -79h-259z" />
    <glyph glyph-name="h.alt_T" unicode="hT" horiz-adv-x="1067" 
d="M390 -199q-105 0 -105 79v597q0 2 -2 2h-49v-479h-208v799h208v-160h155q104 0 104 -81v-596q0 -2 2 -2h547v-159h-652zM679 0q-104 0 -104 79v361h-51v158h51v41h208v-41h259v-158h-259v-279q0 -2 2 -2h48q2 0 2 2v238h207v-320q0 -79 -104 -79h-259z" />
    <glyph glyph-name="H.alt_T" unicode="HT" horiz-adv-x="1068" 
d="M389 -199q-104 0 -104 79v366h-51v-246h-208v639h208v-246h51v246h208v-677q0 -2 2 -2h548v-159h-654zM680 0q-104 0 -104 79v361h-51v158h51v41h208v-41h259v-158h-259v-279q0 -2 2 -2h48q2 0 2 2v238h207v-320q0 -79 -104 -79h-259z" />
    <glyph glyph-name="h.alt_U" unicode="hU" horiz-adv-x="1035" 
d="M390 -199q-105 0 -105 79v597q0 2 -2 2h-49v-479h-208v799h208v-160h155q104 0 104 -81v-596q0 -2 2 -2h515v-159h-620zM647 0q-104 0 -104 79v560h208v-478q0 -2 2 -2h47q2 0 2 2v478h208v-560q0 -79 -104 -79h-259z" />
    <glyph glyph-name="H.alt_U" unicode="HU" horiz-adv-x="1036" 
d="M389 -199q-104 0 -104 79v366h-51v-246h-208v639h208v-246h51v246h208v-677q0 -2 2 -2h515v-159h-621zM648 0q-104 0 -104 79v560h208v-478q0 -2 2 -2h47q2 0 2 2v478h208v-560q0 -79 -104 -79h-259z" />
    <glyph glyph-name="h.alt_Y" unicode="hy" horiz-adv-x="1019" 
d="M390 -199q-105 0 -105 79v597q0 2 -2 2h-49v-479h-208v799h208v-160h155q104 0 104 -81v-596q0 -2 2 -2h380v-159h-485zM667 0v228q-131 0 -131 130v281h208v-259q0 -2 2 -2h47q2 0 2 2v259h208v-281q0 -130 -128 -130v-228h-208z" />
    <glyph glyph-name="H.alt_Y" unicode="Hy" horiz-adv-x="1020" 
d="M389 -199q-104 0 -104 79v366h-51v-246h-208v639h208v-246h51v246h208v-677q0 -2 2 -2h381v-159h-487zM668 0v228q-131 0 -131 130v281h208v-259q0 -2 2 -2h47q2 0 2 2v259h208v-281q0 -130 -128 -130v-228h-208z" />
    <glyph glyph-name="I_F.2" unicode="IF" horiz-adv-x="690" 
d="M26 0v639h208v-639h-208zM26 -199v159h257q2 0 2 2v596q0 81 104 81h286v-160h-180q-2 0 -2 -2v-37h180v-160h-180v-400q0 -79 -104 -79h-363z" />
    <glyph glyph-name="I_G.2" unicode="Ig" horiz-adv-x="777" 
d="M26 0v639h208v-639h-208zM26 -199v159h515q2 0 2 2v38h-155q-104 0 -104 79v479q0 81 104 81h363v-759q0 -79 -104 -79h-621zM543 479h-49q-2 0 -2 -2v-316q0 -2 2 -2h49v320z" />
    <glyph glyph-name="K_F.2" unicode="KF" horiz-adv-x="942" 
d="M295 0l-68 171v-171h-201v639h201v-163l62 163h219l-143 -308l149 -331h-219zM26 -199v159h509q2 0 2 2v596q0 81 104 81h286v-160h-180q-2 0 -2 -2v-37h180v-160h-180v-400q0 -79 -104 -79h-615z" />
    <glyph glyph-name="K_h.2" unicode="Kh" horiz-adv-x="1030" 
d="M295 0l-68 171v-171h-201v639h201v-163l62 163h219l-143 -308l149 -331h-219zM797 0v477q0 2 -2 2h-49v-599q0 -79 -105 -79h-615v159h510q2 0 2 2v837h208v-160h155q104 0 104 -81v-558h-208z" />
    <glyph glyph-name="K_Y.2" unicode="Ky" horiz-adv-x="1029" 
d="M295 0l-68 171v-171h-201v639h201v-163l62 163h219l-143 -308l149 -331h-219zM26 -199v159h767q2 0 2 2v38h-155q-104 0 -104 79v560h208v-478q0 -2 2 -2h49v480h208v-759q0 -79 -104 -79h-873z" />
    <glyph glyph-name="L.alt_a" unicode="La" horiz-adv-x="776" 
d="M26 -199v838h208v-679h517v-159h-725zM543 259h-49q-2 0 -2 -2v-96q0 -2 2 -2h49v100zM388 0q-104 0 -104 79v241q0 79 104 79h155v78q0 2 -2 2h-47q-2 0 -2 -2v-37h-208v118q0 81 104 81h259q104 0 104 -81v-558h-363z" />
    <glyph glyph-name="L.alt_A" unicode="LA" horiz-adv-x="777" 
d="M26 -199v838h208v-679h518v-159h-726zM544 477q0 2 -2 2h-47q-2 0 -2 -2v-78h51v78zM544 0v239h-51v-239h-208v558q0 81 104 81h259q104 0 104 -81v-558h-208z" />
    <glyph glyph-name="L.alt_b" unicode="Lb" horiz-adv-x="778" 
d="M26 -199v838h208v-679h519v-159h-727zM286 0v799h208v-160h155q104 0 104 -81v-479q0 -79 -104 -79h-363zM545 477q0 2 -2 2h-49v-320h49q2 0 2 2v316z" />
    <glyph glyph-name="L.alt_B" unicode="LB" horiz-adv-x="778" 
d="M26 -199v838h208v-679h519v-159h-727zM545 477q0 2 -2 2h-49v-96h49q2 0 2 2v92zM286 0v639h363q103 0 103 -81v-186q0 -46 -51 -52q52 -7 52 -53v-188q0 -79 -104 -79h-363zM545 254q0 2 -2 2h-49v-97h49q2 0 2 2v93z" />
    <glyph glyph-name="L.alt_C" unicode="LC" horiz-adv-x="775" 
d="M26 -199v838h208v-679h517v-159h-725zM388 0q-104 0 -104 79v479q0 81 104 81h259q104 0 104 -81v-189h-208v108q0 2 -2 2h-47q-2 0 -2 -2v-316q0 -2 2 -2h47q2 0 2 2v149h208v-231q0 -79 -104 -79h-259z" />
    <glyph glyph-name="L.alt_d" unicode="Ld" horiz-adv-x="777" 
d="M26 -199v838h208v-679h517v-159h-725zM388 0q-54 0 -79 19.5t-25 59.5v479q0 81 104 81h155v160h208v-799h-363zM543 479h-49q-2 0 -2 -2v-316q0 -2 2 -2h49v320z" />
    <glyph glyph-name="L.alt_D" unicode="LD" horiz-adv-x="777" 
d="M26 -199v838h208v-679h519v-159h-727zM545 477q0 2 -2 2h-49v-320h49q2 0 2 2v316zM286 0v639h363q104 0 104 -81v-479q0 -79 -104 -79h-363z" />
    <glyph glyph-name="L.alt_e" unicode="Le" horiz-adv-x="775" 
d="M26 -199v838h208v-679h517v-159h-725zM543 477q0 2 -2 2h-47q-2 0 -2 -2v-89h51v89zM388 0q-104 0 -104 79v479q0 81 104 81h259q104 0 104 -81v-319h-259v-78q0 -2 2 -2h47q2 0 2 2v38h208v-120q0 -79 -104 -79h-259z" />
    <glyph glyph-name="L.alt_E" unicode="LE" horiz-adv-x="663" 
d="M26 -199v838h208v-679h405v-159h-613zM286 0v639h352v-160h-144v-80h142v-160h-142v-80h145v-159h-353z" />
    <glyph glyph-name="L.alt_exclam" unicode="L&#x21;" horiz-adv-x="534" 
d="M26 -199v838h208v-679h267v-159h-475zM293 0v159h208v-159h-208zM293 199v440h208v-440h-208z" />
    <glyph glyph-name="L.alt_F" unicode="LF" horiz-adv-x="690" 
d="M26 -199v838h208v-679h259v-159h-467zM285 0v558q0 81 104 81h286v-160h-180q-2 0 -2 -2v-37h180v-160h-180v-280h-208z" />
    <glyph glyph-name="L.alt_G" unicode="LG" horiz-adv-x="776" 
d="M26 -199v838h208v-679h517v-159h-725zM388 0q-104 0 -104 79v479q0 81 104 81h259q104 0 104 -81v-108h-208v27q0 2 -2 2h-47q-2 0 -2 -2v-316q0 -2 2 -2h49v232h208v-391h-363z" />
    <glyph glyph-name="L.alt_h" unicode="Lh" horiz-adv-x="778" 
d="M26 -199v838h208v-679h519v-159h-727zM545 0v477q0 2 -2 2h-49v-479h-208v799h208v-160h155q104 0 104 -81v-558h-208z" />
    <glyph glyph-name="L.alt_H" unicode="LH" horiz-adv-x="779" 
d="M26 -199v838h208v-679h519v-159h-727zM545 0v246h-51v-246h-208v639h208v-246h51v246h208v-639h-208z" />
    <glyph glyph-name="L.alt_I" unicode="LI" horiz-adv-x="520" 
d="M26 -199v838h208v-679h260v-159h-468zM286 0v639h208v-639h-208z" />
    <glyph glyph-name="L.alt_K" unicode="LK" horiz-adv-x="772" 
d="M26 -199v838h208v-679h540v-159h-748zM555 0l-68 171v-171h-201v639h201v-163l62 163h219l-143 -308l149 -331h-219z" />
    <glyph glyph-name="L.alt_L" unicode="LL" horiz-adv-x="644" 
d="M26 -199v838h208v-679h395v-159h-603zM286 0v639h208v-480h135v-159h-343z" />
    <glyph glyph-name="L.alt_M" unicode="LM" horiz-adv-x="1037" 
d="M26 -199v838h208v-679h778v-159h-986zM806 0v477q0 2 -2 2h-49q-2 0 -2 -2v-477h-208v477q0 2 -2 2h-47q-2 0 -2 -2v-477h-208v639h208v-41q19 20 54.5 30.5t80.5 10.5q46 0 71.5 -12t42.5 -36q23 29 57.5 38.5t83.5 9.5q27 0 50.5 -6.5t40.5 -18.5t27 -28.5t10 -35.5
v-550h-206z" />
    <glyph glyph-name="L.alt_N" unicode="LN" horiz-adv-x="778" 
d="M26 -199v838h208v-679h520v-159h-728zM545 0v477q0 2 -2 2h-47q-2 0 -2 -2v-477h-208v639h208v-41q53 41 155 41q104 0 104 -81v-558h-208z" />
    <glyph glyph-name="L.alt_O" unicode="LO" horiz-adv-x="775" 
d="M26 -199v838h208v-679h517v-159h-725zM543 477q0 2 -2 2h-47q-2 0 -2 -2v-316q0 -2 2 -2h47q2 0 2 2v316zM388 0q-104 0 -104 79v479q0 81 104 81h259q104 0 104 -81v-479q0 -79 -104 -79h-259z" />
    <glyph glyph-name="L.alt_P" unicode="LP" horiz-adv-x="768" 
d="M26 -199v838h208v-679h260v-159h-468zM545 477q0 2 -2 2h-49v-89h49q2 0 2 2v85zM286 0v639h363q104 0 104 -81v-238q0 -81 -104 -81h-155v-239h-208z" />
    <glyph glyph-name="L.alt_period" unicode="L&#x2e;" horiz-adv-x="520" 
d="M26 -199v838h208v-679h260v-159h-468zM286 0v159h208v-159h-208z" />
    <glyph glyph-name="L.alt_question" unicode="L&#x3f;" horiz-adv-x="760" 
d="M26 -199v838h208v-679h262v-159h-470zM288 0v159h208v-159h-208zM498 239q-2 0 -2 -2v-38h-208v121q0 79 104 79h145q2 0 2 2v76q0 2 -2 2h-47q-2 0 -2 -2v-37h-208v118q0 81 104 81h259q104 0 104 -81v-238q0 -81 -104 -81h-145z" />
    <glyph glyph-name="L.alt_R" unicode="LR" horiz-adv-x="778" 
d="M26 -199v838h208v-679h519v-159h-727zM545 0v254q0 2 -2 2h-49v-256h-208v639h363q103 0 103 -81v-186q0 -46 -51 -52q52 -7 52 -53v-267h-208zM545 477q0 2 -2 2h-49v-96h49q2 0 2 2v92z" />
    <glyph glyph-name="L.alt_S" unicode="LS" horiz-adv-x="775" 
d="M26 -199v838h208v-679h517v-159h-725zM388 0q-104 0 -104 79v120h208v-38q0 -2 2 -2h47q2 0 2 2v76q0 2 -2 2h-153q-104 0 -104 81v238q0 81 104 81h259q104 0 104 -81v-118h-208v37q0 2 -2 2h-47q-2 0 -2 -2v-76q0 -2 2 -2h153q104 0 104 -79v-241q0 -79 -104 -79h-259z
" />
    <glyph glyph-name="L.alt_T" unicode="LT" horiz-adv-x="809" 
d="M26 -199v838h208v-679h550v-159h-758zM421 0q-104 0 -104 79v361h-51v158h51v41h208v-41h259v-158h-259v-279q0 -2 2 -2h48q2 0 2 2v238h207v-320q0 -79 -104 -79h-259z" />
    <glyph glyph-name="L.alt_U" unicode="LU" horiz-adv-x="777" 
d="M26 -199v838h208v-679h518v-159h-726zM389 0q-104 0 -104 79v560h208v-478q0 -2 2 -2h47q2 0 2 2v478h208v-560q0 -79 -104 -79h-259z" />
    <glyph glyph-name="L.alt_Y" unicode="LY" horiz-adv-x="761" 
d="M26 -199v838h208v-679h383v-159h-591zM409 0v228q-131 0 -131 130v281h208v-259q0 -2 2 -2h47q2 0 2 2v259h208v-281q0 -130 -128 -130v-228h-208z" />
    <glyph glyph-name="M.alt_a" unicode="Ma" horiz-adv-x="1293" 
d="M650 -199q-19 0 -37.5 6.5t-33.5 17.5t-24 25.5t-9 29.5v597q0 2 -2 2h-49q-2 0 -2 -2v-477h-208v477q0 2 -2 2h-47q-2 0 -2 -2v-477h-208v639h208v-41q19 20 54.5 30.5t80.5 10.5q46 0 71.5 -12t42.5 -36q23 29 57.5 38.5t83.5 9.5q27 0 50.5 -6.5t40.5 -18.5t27 -28.5
t10 -35.5v-588q0 -2 2 -2h514v-159h-618zM1060 259h-49q-2 0 -2 -2v-96q0 -2 2 -2h49v100zM905 0q-104 0 -104 79v241q0 79 104 79h155v78q0 2 -2 2h-47q-2 0 -2 -2v-37h-208v118q0 81 104 81h259q104 0 104 -81v-558h-363z" />
    <glyph glyph-name="M.alt_A" unicode="MA" horiz-adv-x="1294" 
d="M650 -199q-19 0 -37.5 6.5t-33.5 17.5t-24 25.5t-9 29.5v597q0 2 -2 2h-49q-2 0 -2 -2v-477h-208v477q0 2 -2 2h-47q-2 0 -2 -2v-477h-208v639h208v-41q19 20 54.5 30.5t80.5 10.5q46 0 71.5 -12t42.5 -36q23 29 57.5 38.5t83.5 9.5q27 0 50.5 -6.5t40.5 -18.5t27 -28.5
t10 -35.5v-588q0 -2 2 -2h515v-159h-619zM1061 477q0 2 -2 2h-47q-2 0 -2 -2v-78h51v78zM1061 0v239h-51v-239h-208v558q0 81 104 81h259q104 0 104 -81v-558h-208z" />
    <glyph glyph-name="M.alt_b" unicode="Mb" horiz-adv-x="1295" 
d="M650 -199q-19 0 -37.5 6.5t-33.5 17.5t-24 25.5t-9 29.5v597q0 2 -2 2h-49q-2 0 -2 -2v-477h-208v477q0 2 -2 2h-47q-2 0 -2 -2v-477h-208v639h208v-41q19 20 54.5 30.5t80.5 10.5q46 0 71.5 -12t42.5 -36q23 29 57.5 38.5t83.5 9.5q27 0 50.5 -6.5t40.5 -18.5t27 -28.5
t10 -35.5v-588q0 -2 2 -2h516v-159h-620zM803 0v799h208v-160h155q104 0 104 -81v-479q0 -79 -104 -79h-363zM1062 477q0 2 -2 2h-49v-320h49q2 0 2 2v316z" />
    <glyph glyph-name="M.alt_B" unicode="MB" horiz-adv-x="1295" 
d="M650 -199q-19 0 -37.5 6.5t-33.5 17.5t-24 25.5t-9 29.5v597q0 2 -2 2h-49q-2 0 -2 -2v-477h-208v477q0 2 -2 2h-47q-2 0 -2 -2v-477h-208v639h208v-41q19 20 54.5 30.5t80.5 10.5q46 0 71.5 -12t42.5 -36q23 29 57.5 38.5t83.5 9.5q27 0 50.5 -6.5t40.5 -18.5t27 -28.5
t10 -35.5v-588q0 -2 2 -2h516v-159h-620zM1062 477q0 2 -2 2h-49v-96h49q2 0 2 2v92zM803 0v639h363q103 0 103 -81v-186q0 -46 -51 -52q52 -7 52 -53v-188q0 -79 -104 -79h-363zM1062 254q0 2 -2 2h-49v-97h49q2 0 2 2v93z" />
    <glyph glyph-name="M.alt_C" unicode="MC" horiz-adv-x="1292" 
d="M650 -199q-19 0 -37.5 6.5t-33.5 17.5t-24 25.5t-9 29.5v597q0 2 -2 2h-49q-2 0 -2 -2v-477h-208v477q0 2 -2 2h-47q-2 0 -2 -2v-477h-208v639h208v-41q19 20 54.5 30.5t80.5 10.5q46 0 71.5 -12t42.5 -36q23 29 57.5 38.5t83.5 9.5q27 0 50.5 -6.5t40.5 -18.5t27 -28.5
t10 -35.5v-588q0 -2 2 -2h514v-159h-618zM905 0q-104 0 -104 79v479q0 81 104 81h259q104 0 104 -81v-189h-208v108q0 2 -2 2h-47q-2 0 -2 -2v-316q0 -2 2 -2h47q2 0 2 2v149h208v-231q0 -79 -104 -79h-259z" />
    <glyph glyph-name="M.alt_e" unicode="Me" horiz-adv-x="1292" 
d="M650 -199q-19 0 -37.5 6.5t-33.5 17.5t-24 25.5t-9 29.5v597q0 2 -2 2h-49q-2 0 -2 -2v-477h-208v477q0 2 -2 2h-47q-2 0 -2 -2v-477h-208v639h208v-41q19 20 54.5 30.5t80.5 10.5q46 0 71.5 -12t42.5 -36q23 29 57.5 38.5t83.5 9.5q27 0 50.5 -6.5t40.5 -18.5t27 -28.5
t10 -35.5v-588q0 -2 2 -2h514v-159h-618zM1060 477q0 2 -2 2h-47q-2 0 -2 -2v-89h51v89zM905 0q-104 0 -104 79v479q0 81 104 81h259q104 0 104 -81v-319h-259v-78q0 -2 2 -2h47q2 0 2 2v38h208v-120q0 -79 -104 -79h-259z" />
    <glyph glyph-name="M.alt_E" unicode="ME" horiz-adv-x="1180" 
d="M650 -199q-19 0 -37.5 6.5t-33.5 17.5t-24 25.5t-9 29.5v597q0 2 -2 2h-49q-2 0 -2 -2v-477h-208v477q0 2 -2 2h-47q-2 0 -2 -2v-477h-208v639h208v-41q19 20 54.5 30.5t80.5 10.5q46 0 71.5 -12t42.5 -36q23 29 57.5 38.5t83.5 9.5q27 0 50.5 -6.5t40.5 -18.5t27 -28.5
t10 -35.5v-588q0 -2 2 -2h402v-159h-506zM803 0v639h352v-160h-144v-80h142v-160h-142v-80h145v-159h-353z" />
    <glyph glyph-name="M.alt_exclam" unicode="M&#x21;" horiz-adv-x="1051" 
d="M650 -199q-19 0 -37.5 6.5t-33.5 17.5t-24 25.5t-9 29.5v597q0 2 -2 2h-49q-2 0 -2 -2v-477h-208v477q0 2 -2 2h-47q-2 0 -2 -2v-477h-208v639h208v-41q19 20 54.5 30.5t80.5 10.5q46 0 71.5 -12t42.5 -36q23 29 57.5 38.5t83.5 9.5q27 0 50.5 -6.5t40.5 -18.5t27 -28.5
t10 -35.5v-588q0 -2 2 -2h264v-159h-368zM810 0v159h208v-159h-208zM810 199v440h208v-440h-208z" />
    <glyph glyph-name="M.alt_F" unicode="MF" horiz-adv-x="1207" 
d="M650 -199q-19 0 -37.5 6.5t-33.5 17.5t-24 25.5t-9 29.5v597q0 2 -2 2h-49q-2 0 -2 -2v-477h-208v477q0 2 -2 2h-47q-2 0 -2 -2v-477h-208v639h208v-41q19 20 54.5 30.5t80.5 10.5q46 0 71.5 -12t42.5 -36q23 29 57.5 38.5t83.5 9.5q27 0 50.5 -6.5t40.5 -18.5t27 -28.5
t10 -35.5v-588q0 -2 2 -2h256v-159h-360zM802 0v558q0 81 104 81h286v-160h-180q-2 0 -2 -2v-37h180v-160h-180v-280h-208z" />
    <glyph glyph-name="M.alt_I" unicode="MI" horiz-adv-x="1037" 
d="M650 -199q-19 0 -37.5 6.5t-33.5 17.5t-24 25.5t-9 29.5v597q0 2 -2 2h-49q-2 0 -2 -2v-477h-208v477q0 2 -2 2h-47q-2 0 -2 -2v-477h-208v639h208v-41q19 20 54.5 30.5t80.5 10.5q46 0 71.5 -12t42.5 -36q23 29 57.5 38.5t83.5 9.5q27 0 50.5 -6.5t40.5 -18.5t27 -28.5
t10 -35.5v-588q0 -2 2 -2h257v-159h-361zM803 0v639h208v-639h-208z" />
    <glyph glyph-name="M.alt_L" unicode="ML" horiz-adv-x="1161" 
d="M650 -199q-19 0 -37.5 6.5t-33.5 17.5t-24 25.5t-9 29.5v597q0 2 -2 2h-49q-2 0 -2 -2v-477h-208v477q0 2 -2 2h-47q-2 0 -2 -2v-477h-208v639h208v-41q19 20 54.5 30.5t80.5 10.5q46 0 71.5 -12t42.5 -36q23 29 57.5 38.5t83.5 9.5q27 0 50.5 -6.5t40.5 -18.5t27 -28.5
t10 -35.5v-588q0 -2 2 -2h392v-159h-496zM803 0v639h208v-480h135v-159h-343z" />
    <glyph glyph-name="M.alt_M" unicode="MM" horiz-adv-x="1554" 
d="M650 -199q-19 0 -37.5 6.5t-33.5 17.5t-24 25.5t-9 29.5v597q0 2 -2 2h-49q-2 0 -2 -2v-477h-208v477q0 2 -2 2h-47q-2 0 -2 -2v-477h-208v639h208v-41q19 20 54.5 30.5t80.5 10.5q46 0 71.5 -12t42.5 -36q23 29 57.5 38.5t83.5 9.5q27 0 50.5 -6.5t40.5 -18.5t27 -28.5
t10 -35.5v-588q0 -2 2 -2h775v-159h-879zM1323 0v477q0 2 -2 2h-49q-2 0 -2 -2v-477h-208v477q0 2 -2 2h-47q-2 0 -2 -2v-477h-208v639h208v-41q19 20 54.5 30.5t80.5 10.5q46 0 71.5 -12t42.5 -36q23 29 57.5 38.5t83.5 9.5q27 0 50.5 -6.5t40.5 -18.5t27 -28.5t10 -35.5
v-550h-206z" />
    <glyph glyph-name="M.alt_N" unicode="MN" horiz-adv-x="1295" 
d="M650 -199q-19 0 -37.5 6.5t-33.5 17.5t-24 25.5t-9 29.5v597q0 2 -2 2h-49q-2 0 -2 -2v-477h-208v477q0 2 -2 2h-47q-2 0 -2 -2v-477h-208v639h208v-41q19 20 54.5 30.5t80.5 10.5q46 0 71.5 -12t42.5 -36q23 29 57.5 38.5t83.5 9.5q27 0 50.5 -6.5t40.5 -18.5t27 -28.5
t10 -35.5v-588q0 -2 2 -2h516v-159h-620zM1062 0v477q0 2 -2 2h-47q-2 0 -2 -2v-477h-208v639h208v-41q53 41 155 41q104 0 104 -81v-558h-208z" />
    <glyph glyph-name="M.alt_O" unicode="MO" horiz-adv-x="1292" 
d="M650 -199q-19 0 -37.5 6.5t-33.5 17.5t-24 25.5t-9 29.5v597q0 2 -2 2h-49q-2 0 -2 -2v-477h-208v477q0 2 -2 2h-47q-2 0 -2 -2v-477h-208v639h208v-41q19 20 54.5 30.5t80.5 10.5q46 0 71.5 -12t42.5 -36q23 29 57.5 38.5t83.5 9.5q27 0 50.5 -6.5t40.5 -18.5t27 -28.5
t10 -35.5v-588q0 -2 2 -2h514v-159h-618zM1060 477q0 2 -2 2h-47q-2 0 -2 -2v-316q0 -2 2 -2h47q2 0 2 2v316zM905 0q-104 0 -104 79v479q0 81 104 81h259q104 0 104 -81v-479q0 -79 -104 -79h-259z" />
    <glyph glyph-name="M.alt_P" unicode="MP" horiz-adv-x="1285" 
d="M650 -199q-19 0 -37.5 6.5t-33.5 17.5t-24 25.5t-9 29.5v597q0 2 -2 2h-49q-2 0 -2 -2v-477h-208v477q0 2 -2 2h-47q-2 0 -2 -2v-477h-208v639h208v-41q19 20 54.5 30.5t80.5 10.5q46 0 71.5 -12t42.5 -36q23 29 57.5 38.5t83.5 9.5q27 0 50.5 -6.5t40.5 -18.5t27 -28.5
t10 -35.5v-588q0 -2 2 -2h257v-159h-361zM1062 477q0 2 -2 2h-49v-89h49q2 0 2 2v85zM803 0v639h363q104 0 104 -81v-238q0 -81 -104 -81h-155v-239h-208z" />
    <glyph glyph-name="M.alt_period" unicode="M&#x2e;" horiz-adv-x="1037" 
d="M650 -199q-19 0 -37.5 6.5t-33.5 17.5t-24 25.5t-9 29.5v597q0 2 -2 2h-49q-2 0 -2 -2v-477h-208v477q0 2 -2 2h-47q-2 0 -2 -2v-477h-208v639h208v-41q19 20 54.5 30.5t80.5 10.5q46 0 71.5 -12t42.5 -36q23 29 57.5 38.5t83.5 9.5q27 0 50.5 -6.5t40.5 -18.5t27 -28.5
t10 -35.5v-588q0 -2 2 -2h257v-159h-361zM803 0v159h208v-159h-208z" />
    <glyph glyph-name="M.alt_question" unicode="M&#x3f;" horiz-adv-x="1277" 
d="M650 -199q-19 0 -37.5 6.5t-33.5 17.5t-24 25.5t-9 29.5v597q0 2 -2 2h-49q-2 0 -2 -2v-477h-208v477q0 2 -2 2h-47q-2 0 -2 -2v-477h-208v639h208v-41q19 20 54.5 30.5t80.5 10.5q46 0 71.5 -12t42.5 -36q23 29 57.5 38.5t83.5 9.5q27 0 50.5 -6.5t40.5 -18.5t27 -28.5
t10 -35.5v-588q0 -2 2 -2h259v-159h-363zM805 0v159h208v-159h-208zM1015 239q-2 0 -2 -2v-38h-208v121q0 79 104 79h145q2 0 2 2v76q0 2 -2 2h-47q-2 0 -2 -2v-37h-208v118q0 81 104 81h259q104 0 104 -81v-238q0 -81 -104 -81h-145z" />
    <glyph glyph-name="M.alt_R" unicode="MR" horiz-adv-x="1295" 
d="M650 -199q-19 0 -37.5 6.5t-33.5 17.5t-24 25.5t-9 29.5v597q0 2 -2 2h-49q-2 0 -2 -2v-477h-208v477q0 2 -2 2h-47q-2 0 -2 -2v-477h-208v639h208v-41q19 20 54.5 30.5t80.5 10.5q46 0 71.5 -12t42.5 -36q23 29 57.5 38.5t83.5 9.5q27 0 50.5 -6.5t40.5 -18.5t27 -28.5
t10 -35.5v-588q0 -2 2 -2h516v-159h-620zM1062 0v254q0 2 -2 2h-49v-256h-208v639h363q103 0 103 -81v-186q0 -46 -51 -52q52 -7 52 -53v-267h-208zM1062 477q0 2 -2 2h-49v-96h49q2 0 2 2v92z" />
    <glyph glyph-name="M.alt_S" unicode="MS" horiz-adv-x="1292" 
d="M650 -199q-19 0 -37.5 6.5t-33.5 17.5t-24 25.5t-9 29.5v597q0 2 -2 2h-49q-2 0 -2 -2v-477h-208v477q0 2 -2 2h-47q-2 0 -2 -2v-477h-208v639h208v-41q19 20 54.5 30.5t80.5 10.5q46 0 71.5 -12t42.5 -36q23 29 57.5 38.5t83.5 9.5q27 0 50.5 -6.5t40.5 -18.5t27 -28.5
t10 -35.5v-588q0 -2 2 -2h514v-159h-618zM905 0q-104 0 -104 79v120h208v-38q0 -2 2 -2h47q2 0 2 2v76q0 2 -2 2h-153q-104 0 -104 81v238q0 81 104 81h259q104 0 104 -81v-118h-208v37q0 2 -2 2h-47q-2 0 -2 -2v-76q0 -2 2 -2h153q104 0 104 -79v-241q0 -79 -104 -79h-259z
" />
    <glyph glyph-name="M.alt_T" unicode="MT" horiz-adv-x="1326" 
d="M650 -199q-19 0 -37.5 6.5t-33.5 17.5t-24 25.5t-9 29.5v597q0 2 -2 2h-49q-2 0 -2 -2v-477h-208v477q0 2 -2 2h-47q-2 0 -2 -2v-477h-208v639h208v-41q19 20 54.5 30.5t80.5 10.5q46 0 71.5 -12t42.5 -36q23 29 57.5 38.5t83.5 9.5q27 0 50.5 -6.5t40.5 -18.5t27 -28.5
t10 -35.5v-588q0 -2 2 -2h547v-159h-651zM938 0q-104 0 -104 79v361h-51v158h51v41h208v-41h259v-158h-259v-279q0 -2 2 -2h48q2 0 2 2v238h207v-320q0 -79 -104 -79h-259z" />
    <glyph glyph-name="M.alt_U" unicode="MU" horiz-adv-x="1294" 
d="M650 -199q-19 0 -37.5 6.5t-33.5 17.5t-24 25.5t-9 29.5v597q0 2 -2 2h-49q-2 0 -2 -2v-477h-208v477q0 2 -2 2h-47q-2 0 -2 -2v-477h-208v639h208v-41q19 20 54.5 30.5t80.5 10.5q46 0 71.5 -12t42.5 -36q23 29 57.5 38.5t83.5 9.5q27 0 50.5 -6.5t40.5 -18.5t27 -28.5
t10 -35.5v-588q0 -2 2 -2h515v-159h-619zM906 0q-104 0 -104 79v560h208v-478q0 -2 2 -2h47q2 0 2 2v478h208v-560q0 -79 -104 -79h-259z" />
    <glyph glyph-name="M.alt_Y" unicode="MY" horiz-adv-x="1278" 
d="M650 -199q-19 0 -37.5 6.5t-33.5 17.5t-24 25.5t-9 29.5v597q0 2 -2 2h-49q-2 0 -2 -2v-477h-208v477q0 2 -2 2h-47q-2 0 -2 -2v-477h-208v639h208v-41q19 20 54.5 30.5t80.5 10.5q46 0 71.5 -12t42.5 -36q23 29 57.5 38.5t83.5 9.5q27 0 50.5 -6.5t40.5 -18.5t27 -28.5
t10 -35.5v-588q0 -2 2 -2h380v-159h-484zM926 0v228q-131 0 -131 130v281h208v-259q0 -2 2 -2h47q2 0 2 2v259h208v-281q0 -130 -128 -130v-228h-208z" />
    <glyph glyph-name="N.alt_a" unicode="Na" horiz-adv-x="1034" 
d="M390 -199q-105 0 -105 79v597q0 2 -2 2h-47q-2 0 -2 -2v-477h-208v639h208v-41q53 41 155 41q104 0 104 -81v-596q0 -2 2 -2h514v-159h-619zM801 259h-49q-2 0 -2 -2v-96q0 -2 2 -2h49v100zM646 0q-104 0 -104 79v241q0 79 104 79h155v78q0 2 -2 2h-47q-2 0 -2 -2v-37
h-208v118q0 81 104 81h259q104 0 104 -81v-558h-363z" />
    <glyph glyph-name="N.alt_A" unicode="NA" horiz-adv-x="1035" 
d="M390 -199q-105 0 -105 79v597q0 2 -2 2h-47q-2 0 -2 -2v-477h-208v639h208v-41q53 41 155 41q104 0 104 -81v-596q0 -2 2 -2h515v-159h-620zM802 477q0 2 -2 2h-47q-2 0 -2 -2v-78h51v78zM802 0v239h-51v-239h-208v558q0 81 104 81h259q104 0 104 -81v-558h-208z" />
    <glyph glyph-name="N.alt_b" unicode="Nb" horiz-adv-x="1036" 
d="M390 -199q-105 0 -105 79v597q0 2 -2 2h-47q-2 0 -2 -2v-477h-208v639h208v-41q53 41 155 41q104 0 104 -81v-596q0 -2 2 -2h516v-159h-621zM544 0v799h208v-160h155q104 0 104 -81v-479q0 -79 -104 -79h-363zM803 477q0 2 -2 2h-49v-320h49q2 0 2 2v316z" />
    <glyph glyph-name="N.alt_B" unicode="NB" horiz-adv-x="1036" 
d="M390 -199q-105 0 -105 79v597q0 2 -2 2h-47q-2 0 -2 -2v-477h-208v639h208v-41q53 41 155 41q104 0 104 -81v-596q0 -2 2 -2h516v-159h-621zM803 477q0 2 -2 2h-49v-96h49q2 0 2 2v92zM544 0v639h363q103 0 103 -81v-186q0 -46 -51 -52q52 -7 52 -53v-188q0 -79 -104 -79
h-363zM803 254q0 2 -2 2h-49v-97h49q2 0 2 2v93z" />
    <glyph glyph-name="N.alt_C" unicode="NC" horiz-adv-x="1033" 
d="M390 -199q-105 0 -105 79v597q0 2 -2 2h-47q-2 0 -2 -2v-477h-208v639h208v-41q53 41 155 41q104 0 104 -81v-596q0 -2 2 -2h514v-159h-619zM646 0q-104 0 -104 79v479q0 81 104 81h259q104 0 104 -81v-189h-208v108q0 2 -2 2h-47q-2 0 -2 -2v-316q0 -2 2 -2h47q2 0 2 2
v149h208v-231q0 -79 -104 -79h-259z" />
    <glyph glyph-name="N.alt_d" unicode="Nd" horiz-adv-x="1035" 
d="M390 -199q-105 0 -105 79v597q0 2 -2 2h-47q-2 0 -2 -2v-477h-208v639h208v-41q53 41 155 41q104 0 104 -81v-596q0 -2 2 -2h514v-159h-619zM646 0q-54 0 -79 19.5t-25 59.5v479q0 81 104 81h155v160h208v-799h-363zM801 479h-49q-2 0 -2 -2v-316q0 -2 2 -2h49v320z" />
    <glyph glyph-name="N.alt_D" unicode="ND" horiz-adv-x="1035" 
d="M390 -199q-105 0 -105 79v597q0 2 -2 2h-47q-2 0 -2 -2v-477h-208v639h208v-41q53 41 155 41q104 0 104 -81v-596q0 -2 2 -2h516v-159h-621zM803 477q0 2 -2 2h-49v-320h49q2 0 2 2v316zM544 0v639h363q104 0 104 -81v-479q0 -79 -104 -79h-363z" />
    <glyph glyph-name="N.alt_e" unicode="Ne" horiz-adv-x="1033" 
d="M390 -199q-105 0 -105 79v597q0 2 -2 2h-47q-2 0 -2 -2v-477h-208v639h208v-41q53 41 155 41q104 0 104 -81v-596q0 -2 2 -2h514v-159h-619zM801 477q0 2 -2 2h-47q-2 0 -2 -2v-89h51v89zM646 0q-104 0 -104 79v479q0 81 104 81h259q104 0 104 -81v-319h-259v-78
q0 -2 2 -2h47q2 0 2 2v38h208v-120q0 -79 -104 -79h-259z" />
    <glyph glyph-name="N.alt_E" unicode="NE" horiz-adv-x="921" 
d="M390 -199q-105 0 -105 79v597q0 2 -2 2h-47q-2 0 -2 -2v-477h-208v639h208v-41q53 41 155 41q104 0 104 -81v-596q0 -2 2 -2h402v-159h-507zM544 0v639h352v-160h-144v-80h142v-160h-142v-80h145v-159h-353z" />
    <glyph glyph-name="N.alt_exclam" unicode="N&#x21;" horiz-adv-x="792" 
d="M390 -199q-105 0 -105 79v597q0 2 -2 2h-47q-2 0 -2 -2v-477h-208v639h208v-41q53 41 155 41q104 0 104 -81v-596q0 -2 2 -2h264v-159h-369zM551 0v159h208v-159h-208zM551 199v440h208v-440h-208z" />
    <glyph glyph-name="N.alt_F" unicode="NF" horiz-adv-x="948" 
d="M390 -199q-105 0 -105 79v597q0 2 -2 2h-47q-2 0 -2 -2v-477h-208v639h208v-41q53 41 155 41q104 0 104 -81v-596q0 -2 2 -2h256v-159h-361zM543 0v558q0 81 104 81h286v-160h-180q-2 0 -2 -2v-37h180v-160h-180v-280h-208z" />
    <glyph glyph-name="N.alt_G" unicode="NG" horiz-adv-x="1034" 
d="M390 -199q-105 0 -105 79v597q0 2 -2 2h-47q-2 0 -2 -2v-477h-208v639h208v-41q53 41 155 41q104 0 104 -81v-596q0 -2 2 -2h514v-159h-619zM646 0q-104 0 -104 79v479q0 81 104 81h259q104 0 104 -81v-108h-208v27q0 2 -2 2h-47q-2 0 -2 -2v-316q0 -2 2 -2h49v232h208
v-391h-363z" />
    <glyph glyph-name="N.alt_h" unicode="NH" horiz-adv-x="1036" 
d="M390 -199q-105 0 -105 79v597q0 2 -2 2h-47q-2 0 -2 -2v-477h-208v639h208v-41q53 41 155 41q104 0 104 -81v-596q0 -2 2 -2h516v-159h-621zM803 0v477q0 2 -2 2h-49v-479h-208v799h208v-160h155q104 0 104 -81v-558h-208z" />
    <glyph glyph-name="N.alt_H" unicode="Nh" horiz-adv-x="1037" 
d="M390 -199q-105 0 -105 79v597q0 2 -2 2h-47q-2 0 -2 -2v-477h-208v639h208v-41q53 41 155 41q104 0 104 -81v-596q0 -2 2 -2h516v-159h-621zM803 0v246h-51v-246h-208v639h208v-246h51v246h208v-639h-208z" />
    <glyph glyph-name="N.alt_I" unicode="NI" horiz-adv-x="778" 
d="M390 -199q-105 0 -105 79v597q0 2 -2 2h-47q-2 0 -2 -2v-477h-208v639h208v-41q53 41 155 41q104 0 104 -81v-596q0 -2 2 -2h257v-159h-362zM544 0v639h208v-639h-208z" />
    <glyph glyph-name="N.alt_J" unicode="NJ" horiz-adv-x="1028" 
d="M390 -199q-105 0 -105 79v597q0 2 -2 2h-47q-2 0 -2 -2v-477h-208v639h208v-41q53 41 155 41q104 0 104 -81v-596q0 -2 2 -2h508v-159h-613zM640 0q-104 0 -104 79v241h208v-159q0 -2 2 -2h47q2 0 2 2v478h208v-560q0 -79 -104 -79h-259z" />
    <glyph glyph-name="N.alt_K" unicode="NK" horiz-adv-x="1030" 
d="M390 -199q-105 0 -105 79v597q0 2 -2 2h-47q-2 0 -2 -2v-477h-208v639h208v-41q53 41 155 41q104 0 104 -81v-596q0 -2 2 -2h537v-159h-642zM813 0l-68 171v-171h-201v639h201v-163l62 163h219l-143 -308l149 -331h-219z" />
    <glyph glyph-name="N.alt_L" unicode="NL" horiz-adv-x="902" 
d="M390 -199q-105 0 -105 79v597q0 2 -2 2h-47q-2 0 -2 -2v-477h-208v639h208v-41q53 41 155 41q104 0 104 -81v-596q0 -2 2 -2h392v-159h-497zM544 0v639h208v-480h135v-159h-343z" />
    <glyph glyph-name="N.alt_M" unicode="NM" horiz-adv-x="1295" 
d="M390 -199q-105 0 -105 79v597q0 2 -2 2h-47q-2 0 -2 -2v-477h-208v639h208v-41q53 41 155 41q104 0 104 -81v-596q0 -2 2 -2h775v-159h-880zM1064 0v477q0 2 -2 2h-49q-2 0 -2 -2v-477h-208v477q0 2 -2 2h-47q-2 0 -2 -2v-477h-208v639h208v-41q19 20 54.5 30.5
t80.5 10.5q46 0 71.5 -12t42.5 -36q23 29 57.5 38.5t83.5 9.5q27 0 50.5 -6.5t40.5 -18.5t27 -28.5t10 -35.5v-550h-206z" />
    <glyph glyph-name="N.alt_N" unicode="NN" horiz-adv-x="1036" 
d="M390 -199q-105 0 -105 79v597q0 2 -2 2h-47q-2 0 -2 -2v-477h-208v639h208v-41q53 41 155 41q104 0 104 -81v-596q0 -2 2 -2h516v-159h-621zM803 0v477q0 2 -2 2h-47q-2 0 -2 -2v-477h-208v639h208v-41q53 41 155 41q104 0 104 -81v-558h-208z" />
    <glyph glyph-name="N.alt_O" unicode="NO" horiz-adv-x="1033" 
d="M390 -199q-105 0 -105 79v597q0 2 -2 2h-47q-2 0 -2 -2v-477h-208v639h208v-41q53 41 155 41q104 0 104 -81v-596q0 -2 2 -2h514v-159h-619zM801 477q0 2 -2 2h-47q-2 0 -2 -2v-316q0 -2 2 -2h47q2 0 2 2v316zM646 0q-104 0 -104 79v479q0 81 104 81h259q104 0 104 -81
v-479q0 -79 -104 -79h-259z" />
    <glyph glyph-name="N.alt_P" unicode="NP" horiz-adv-x="1026" 
d="M390 -199q-105 0 -105 79v597q0 2 -2 2h-47q-2 0 -2 -2v-477h-208v639h208v-41q53 41 155 41q104 0 104 -81v-596q0 -2 2 -2h258v-159h-363zM803 477q0 2 -2 2h-49v-89h49q2 0 2 2v85zM544 0v639h363q104 0 104 -81v-238q0 -81 -104 -81h-155v-239h-208z" />
    <glyph glyph-name="N.alt_period" unicode="N&#x2e;" horiz-adv-x="778" 
d="M390 -199q-105 0 -105 79v597q0 2 -2 2h-47q-2 0 -2 -2v-477h-208v639h208v-41q53 41 155 41q104 0 104 -81v-596q0 -2 2 -2h258v-159h-363zM544 0v159h208v-159h-208z" />
    <glyph glyph-name="N.alt_Q" unicode="NQ" horiz-adv-x="1035" 
d="M390 -199q-105 0 -105 79v597q0 2 -2 2h-47q-2 0 -2 -2v-477h-208v639h208v-41q53 41 155 41q104 0 104 -81v-596q0 -2 2 -2h258v-159h-363zM801 -199v199h-155q-54 0 -79 19.5t-25 59.5v479q0 81 104 81h363v-838h-208zM801 479h-49q-2 0 -2 -2v-316q0 -2 2 -2h49v320z
" />
    <glyph glyph-name="N.alt_question" unicode="N&#x3f;" horiz-adv-x="1018" 
d="M390 -199q-105 0 -105 79v597q0 2 -2 2h-47q-2 0 -2 -2v-477h-208v639h208v-41q53 41 155 41q104 0 104 -81v-596q0 -2 2 -2h259v-159h-364zM546 0v159h208v-159h-208zM756 239q-2 0 -2 -2v-38h-208v121q0 79 104 79h145q2 0 2 2v76q0 2 -2 2h-47q-2 0 -2 -2v-37h-208
v118q0 81 104 81h259q104 0 104 -81v-238q0 -81 -104 -81h-145z" />
    <glyph glyph-name="N.alt_R" unicode="NR" horiz-adv-x="1036" 
d="M390 -199q-105 0 -105 79v597q0 2 -2 2h-47q-2 0 -2 -2v-477h-208v639h208v-41q53 41 155 41q104 0 104 -81v-596q0 -2 2 -2h516v-159h-621zM803 0v254q0 2 -2 2h-49v-256h-208v639h363q103 0 103 -81v-186q0 -46 -51 -52q52 -7 52 -53v-267h-208zM803 477q0 2 -2 2h-49
v-96h49q2 0 2 2v92z" />
    <glyph glyph-name="N.alt_S" unicode="NS" horiz-adv-x="1033" 
d="M390 -199q-105 0 -105 79v597q0 2 -2 2h-47q-2 0 -2 -2v-477h-208v639h208v-41q53 41 155 41q104 0 104 -81v-596q0 -2 2 -2h514v-159h-619zM646 0q-104 0 -104 79v120h208v-38q0 -2 2 -2h47q2 0 2 2v76q0 2 -2 2h-153q-104 0 -104 81v238q0 81 104 81h259q104 0 104 -81
v-118h-208v37q0 2 -2 2h-47q-2 0 -2 -2v-76q0 -2 2 -2h153q104 0 104 -79v-241q0 -79 -104 -79h-259z" />
    <glyph glyph-name="N.alt_T" unicode="NT" horiz-adv-x="1067" 
d="M390 -199q-105 0 -105 79v597q0 2 -2 2h-47q-2 0 -2 -2v-477h-208v639h208v-41q53 41 155 41q104 0 104 -81v-596q0 -2 2 -2h547v-159h-652zM679 0q-104 0 -104 79v361h-51v158h51v41h208v-41h259v-158h-259v-279q0 -2 2 -2h48q2 0 2 2v238h207v-320q0 -79 -104 -79h-259
z" />
    <glyph glyph-name="N.alt_U" unicode="NU" horiz-adv-x="1035" 
d="M390 -199q-105 0 -105 79v597q0 2 -2 2h-47q-2 0 -2 -2v-477h-208v639h208v-41q53 41 155 41q104 0 104 -81v-596q0 -2 2 -2h515v-159h-620zM647 0q-104 0 -104 79v560h208v-478q0 -2 2 -2h47q2 0 2 2v478h208v-560q0 -79 -104 -79h-259z" />
    <glyph glyph-name="N.alt_Y" unicode="NY" horiz-adv-x="1019" 
d="M390 -199q-105 0 -105 79v597q0 2 -2 2h-47q-2 0 -2 -2v-477h-208v639h208v-41q53 41 155 41q104 0 104 -81v-596q0 -2 2 -2h380v-159h-485zM667 0v228q-131 0 -131 130v281h208v-259q0 -2 2 -2h47q2 0 2 2v259h208v-281q0 -130 -128 -130v-228h-208z" />
    <glyph glyph-name="N.alt_Z" unicode="NZ" horiz-adv-x="1028" 
d="M390 -199q-105 0 -105 79v597q0 2 -2 2h-47q-2 0 -2 -2v-477h-208v639h208v-41q53 41 155 41q104 0 104 -81v-596q0 -2 2 -2h513v-159h-618zM541 0v164l223 315h-223v160h467v-149l-216 -331h216v-159h-467z" />
    <glyph glyph-name="O_F.2" unicode="OF" horiz-adv-x="945" 
d="M283 477q0 2 -2 2h-47q-2 0 -2 -2v-316q0 -2 2 -2h47q2 0 2 2v316zM128 0q-104 0 -104 79v479q0 81 104 81h259q104 0 104 -81v-479q0 -79 -104 -79h-259zM24 -199v159h514q2 0 2 2v596q0 81 104 81h286v-160h-180q-2 0 -2 -2v-37h180v-160h-180v-400q0 -79 -104 -79
h-620z" />
    <glyph glyph-name="O_G.2" unicode="Og" horiz-adv-x="1032" 
d="M283 477q0 2 -2 2h-47q-2 0 -2 -2v-316q0 -2 2 -2h47q2 0 2 2v316zM128 0q-104 0 -104 79v479q0 81 104 81h259q104 0 104 -81v-479q0 -79 -104 -79h-259zM24 -199v159h772q2 0 2 2v38h-155q-104 0 -104 79v479q0 81 104 81h363v-759q0 -79 -104 -79h-878zM798 479h-49
q-2 0 -2 -2v-316q0 -2 2 -2h49v320z" />
    <glyph glyph-name="O_Y.2" unicode="OY" horiz-adv-x="1032" 
d="M283 477q0 2 -2 2h-47q-2 0 -2 -2v-316q0 -2 2 -2h47q2 0 2 2v316zM128 0q-104 0 -104 79v479q0 81 104 81h259q104 0 104 -81v-479q0 -79 -104 -79h-259zM24 -199v159h772q2 0 2 2v38h-155q-104 0 -104 79v560h208v-478q0 -2 2 -2h49v480h208v-759q0 -79 -104 -79h-878z
" />
    <glyph glyph-name="P_Y.2" unicode="Py" horiz-adv-x="1025" 
d="M285 477q0 2 -2 2h-49v-89h49q2 0 2 2v85zM26 0v639h363q104 0 104 -81v-238q0 -81 -104 -81h-155v-239h-208zM27 -199v159h762q2 0 2 2v38h-155q-104 0 -104 79v560h208v-478q0 -2 2 -2h49v480h208v-759q0 -79 -104 -79h-868z" />
    <glyph glyph-name="Q.alt_U" unicode="QU" horiz-adv-x="1033" 
d="M387 -199q-104 0 -104 79v120h-155q-104 0 -104 79v479q0 81 104 81h259q104 0 104 -81v-596q0 -2 2 -2h515v-159h-621zM283 477q0 2 -2 2h-47q-2 0 -2 -2v-316q0 -2 2 -2h49v318zM645 0q-104 0 -104 79v560h208v-478q0 -2 2 -2h47q2 0 2 2v478h208v-560q0 -79 -104 -79
h-259z" />
    <glyph glyph-name="R.alt_a" unicode="Ra" horiz-adv-x="1034" 
d="M389 -199q-104 0 -104 79v374q0 2 -2 2h-49v-256h-208v639h363q103 0 103 -81v-186q0 -46 -51 -52q52 -7 52 -53v-305q0 -2 2 -2h514v-159h-620zM285 477q0 2 -2 2h-49v-96h49q2 0 2 2v92zM801 259h-49q-2 0 -2 -2v-96q0 -2 2 -2h49v100zM646 0q-104 0 -104 79v241
q0 79 104 79h155v78q0 2 -2 2h-47q-2 0 -2 -2v-37h-208v118q0 81 104 81h259q104 0 104 -81v-558h-363z" />
    <glyph glyph-name="R.alt_A" unicode="RA" horiz-adv-x="1035" 
d="M389 -199q-104 0 -104 79v374q0 2 -2 2h-49v-256h-208v639h363q103 0 103 -81v-186q0 -46 -51 -52q52 -7 52 -53v-305q0 -2 2 -2h515v-159h-621zM285 477q0 2 -2 2h-49v-96h49q2 0 2 2v92zM802 477q0 2 -2 2h-47q-2 0 -2 -2v-78h51v78zM802 0v239h-51v-239h-208v558
q0 81 104 81h259q104 0 104 -81v-558h-208z" />
    <glyph glyph-name="R.alt_b" unicode="Rb" horiz-adv-x="1036" 
d="M389 -199q-104 0 -104 79v374q0 2 -2 2h-49v-256h-208v639h363q103 0 103 -81v-186q0 -46 -51 -52q52 -7 52 -53v-305q0 -2 2 -2h515v-159h-621zM285 477q0 2 -2 2h-49v-96h49q2 0 2 2v92zM544 0v799h208v-160h155q104 0 104 -81v-479q0 -79 -104 -79h-363zM803 477
q0 2 -2 2h-49v-320h49q2 0 2 2v316z" />
    <glyph glyph-name="R.alt_B" unicode="RB" horiz-adv-x="1036" 
d="M389 -199q-104 0 -104 79v374q0 2 -2 2h-49v-256h-208v639h363q103 0 103 -81v-186q0 -46 -51 -52q52 -7 52 -53v-305q0 -2 2 -2h515v-159h-621zM285 477q0 2 -2 2h-49v-96h49q2 0 2 2v92zM803 477q0 2 -2 2h-49v-96h49q2 0 2 2v92zM544 0v639h363q103 0 103 -81v-186
q0 -46 -51 -52q52 -7 52 -53v-188q0 -79 -104 -79h-363zM803 254q0 2 -2 2h-49v-97h49q2 0 2 2v93z" />
    <glyph glyph-name="R.alt_C" unicode="RC" horiz-adv-x="1033" 
d="M389 -199q-104 0 -104 79v374q0 2 -2 2h-49v-256h-208v639h363q103 0 103 -81v-186q0 -46 -51 -52q52 -7 52 -53v-305q0 -2 2 -2h514v-159h-620zM285 477q0 2 -2 2h-49v-96h49q2 0 2 2v92zM646 0q-104 0 -104 79v479q0 81 104 81h259q104 0 104 -81v-189h-208v108
q0 2 -2 2h-47q-2 0 -2 -2v-316q0 -2 2 -2h47q2 0 2 2v149h208v-231q0 -79 -104 -79h-259z" />
    <glyph glyph-name="R.alt_d" unicode="Rd" horiz-adv-x="1035" 
d="M389 -199q-104 0 -104 79v374q0 2 -2 2h-49v-256h-208v639h363q103 0 103 -81v-186q0 -46 -51 -52q52 -7 52 -53v-305q0 -2 2 -2h514v-159h-620zM285 477q0 2 -2 2h-49v-96h49q2 0 2 2v92zM646 0q-54 0 -79 19.5t-25 59.5v479q0 81 104 81h155v160h208v-799h-363z
M801 479h-49q-2 0 -2 -2v-316q0 -2 2 -2h49v320z" />
    <glyph glyph-name="R.alt_D" unicode="RD" horiz-adv-x="1035" 
d="M389 -199q-104 0 -104 79v374q0 2 -2 2h-49v-256h-208v639h363q103 0 103 -81v-186q0 -46 -51 -52q52 -7 52 -53v-305q0 -2 2 -2h515v-159h-621zM285 477q0 2 -2 2h-49v-96h49q2 0 2 2v92zM803 477q0 2 -2 2h-49v-320h49q2 0 2 2v316zM544 0v639h363q104 0 104 -81v-479
q0 -79 -104 -79h-363z" />
    <glyph glyph-name="R.alt_e" unicode="Re" horiz-adv-x="1033" 
d="M389 -199q-104 0 -104 79v374q0 2 -2 2h-49v-256h-208v639h363q103 0 103 -81v-186q0 -46 -51 -52q52 -7 52 -53v-305q0 -2 2 -2h514v-159h-620zM285 477q0 2 -2 2h-49v-96h49q2 0 2 2v92zM801 477q0 2 -2 2h-47q-2 0 -2 -2v-89h51v89zM646 0q-104 0 -104 79v479
q0 81 104 81h259q104 0 104 -81v-319h-259v-78q0 -2 2 -2h47q2 0 2 2v38h208v-120q0 -79 -104 -79h-259z" />
    <glyph glyph-name="R.alt_E" unicode="RE" horiz-adv-x="921" 
d="M389 -199q-104 0 -104 79v374q0 2 -2 2h-49v-256h-208v639h363q103 0 103 -81v-186q0 -46 -51 -52q52 -7 52 -53v-305q0 -2 2 -2h402v-159h-508zM285 477q0 2 -2 2h-49v-96h49q2 0 2 2v92zM544 0v639h352v-160h-144v-80h142v-160h-142v-80h145v-159h-353z" />
    <glyph glyph-name="R.alt_exclam" unicode="R&#x21;" horiz-adv-x="792" 
d="M389 -199q-104 0 -104 79v374q0 2 -2 2h-49v-256h-208v639h363q103 0 103 -81v-186q0 -46 -51 -52q52 -7 52 -53v-305q0 -2 2 -2h264v-159h-370zM285 477q0 2 -2 2h-49v-96h49q2 0 2 2v92zM551 0v159h208v-159h-208zM551 199v440h208v-440h-208z" />
    <glyph glyph-name="R.alt_F" unicode="RF" horiz-adv-x="948" 
d="M389 -199q-104 0 -104 79v374q0 2 -2 2h-49v-256h-208v639h363q103 0 103 -81v-186q0 -46 -51 -52q52 -7 52 -53v-305q0 -2 2 -2h256v-159h-362zM285 477q0 2 -2 2h-49v-96h49q2 0 2 2v92zM543 0v558q0 81 104 81h286v-160h-180q-2 0 -2 -2v-37h180v-160h-180v-280h-208z
" />
    <glyph glyph-name="R.alt_G" unicode="RG" horiz-adv-x="1034" 
d="M389 -199q-104 0 -104 79v374q0 2 -2 2h-49v-256h-208v639h363q103 0 103 -81v-186q0 -46 -51 -52q52 -7 52 -53v-305q0 -2 2 -2h514v-159h-620zM285 477q0 2 -2 2h-49v-96h49q2 0 2 2v92zM646 0q-104 0 -104 79v479q0 81 104 81h259q104 0 104 -81v-108h-208v27
q0 2 -2 2h-47q-2 0 -2 -2v-316q0 -2 2 -2h49v232h208v-391h-363z" />
    <glyph glyph-name="R.alt_h" unicode="Rh" horiz-adv-x="1036" 
d="M389 -199q-104 0 -104 79v374q0 2 -2 2h-49v-256h-208v639h363q103 0 103 -81v-186q0 -46 -51 -52q52 -7 52 -53v-305q0 -2 2 -2h515v-159h-621zM285 477q0 2 -2 2h-49v-96h49q2 0 2 2v92zM803 0v477q0 2 -2 2h-49v-479h-208v799h208v-160h155q104 0 104 -81v-558h-208z
" />
    <glyph glyph-name="R.alt_H" unicode="RH" horiz-adv-x="1037" 
d="M389 -199q-104 0 -104 79v374q0 2 -2 2h-49v-256h-208v639h363q103 0 103 -81v-186q0 -46 -51 -52q52 -7 52 -53v-305q0 -2 2 -2h516v-159h-622zM285 477q0 2 -2 2h-49v-96h49q2 0 2 2v92zM803 0v246h-51v-246h-208v639h208v-246h51v246h208v-639h-208z" />
    <glyph glyph-name="R.alt_I" unicode="RI" horiz-adv-x="778" 
d="M389 -199q-104 0 -104 79v374q0 2 -2 2h-49v-256h-208v639h363q103 0 103 -81v-186q0 -46 -51 -52q52 -7 52 -53v-305q0 -2 2 -2h258v-159h-364zM285 477q0 2 -2 2h-49v-96h49q2 0 2 2v92zM544 0v639h208v-639h-208z" />
    <glyph glyph-name="R.alt_K" unicode="RK" horiz-adv-x="1030" 
d="M389 -199q-104 0 -104 79v374q0 2 -2 2h-49v-256h-208v639h363q103 0 103 -81v-186q0 -46 -51 -52q52 -7 52 -53v-305q0 -2 2 -2h537v-159h-643zM285 477q0 2 -2 2h-49v-96h49q2 0 2 2v92zM813 0l-68 171v-171h-201v639h201v-163l62 163h219l-143 -308l149 -331h-219z
" />
    <glyph glyph-name="R.alt_L" unicode="RL" horiz-adv-x="902" 
d="M389 -199q-104 0 -104 79v374q0 2 -2 2h-49v-256h-208v639h363q103 0 103 -81v-186q0 -46 -51 -52q52 -7 52 -53v-305q0 -2 2 -2h392v-159h-498zM285 477q0 2 -2 2h-49v-96h49q2 0 2 2v92zM544 0v639h208v-480h135v-159h-343z" />
    <glyph glyph-name="R.alt_M" unicode="RM" horiz-adv-x="1295" 
d="M389 -199q-104 0 -104 79v374q0 2 -2 2h-49v-256h-208v639h363q103 0 103 -81v-186q0 -46 -51 -52q52 -7 52 -53v-305q0 -2 2 -2h775v-159h-881zM285 477q0 2 -2 2h-49v-96h49q2 0 2 2v92zM1064 0v477q0 2 -2 2h-49q-2 0 -2 -2v-477h-208v477q0 2 -2 2h-47q-2 0 -2 -2
v-477h-208v639h208v-41q19 20 54.5 30.5t80.5 10.5q46 0 71.5 -12t42.5 -36q23 29 57.5 38.5t83.5 9.5q27 0 50.5 -6.5t40.5 -18.5t27 -28.5t10 -35.5v-550h-206z" />
    <glyph glyph-name="R.alt_N" unicode="RN" horiz-adv-x="1036" 
d="M389 -199q-104 0 -104 79v374q0 2 -2 2h-49v-256h-208v639h363q103 0 103 -81v-186q0 -46 -51 -52q52 -7 52 -53v-305q0 -2 2 -2h516v-159h-622zM285 477q0 2 -2 2h-49v-96h49q2 0 2 2v92zM803 0v477q0 2 -2 2h-47q-2 0 -2 -2v-477h-208v639h208v-41q53 41 155 41
q104 0 104 -81v-558h-208z" />
    <glyph glyph-name="R.alt_O" unicode="RO" horiz-adv-x="1033" 
d="M389 -199q-104 0 -104 79v374q0 2 -2 2h-49v-256h-208v639h363q103 0 103 -81v-186q0 -46 -51 -52q52 -7 52 -53v-305q0 -2 2 -2h514v-159h-620zM285 477q0 2 -2 2h-49v-96h49q2 0 2 2v92zM801 477q0 2 -2 2h-47q-2 0 -2 -2v-316q0 -2 2 -2h47q2 0 2 2v316zM646 0
q-104 0 -104 79v479q0 81 104 81h259q104 0 104 -81v-479q0 -79 -104 -79h-259z" />
    <glyph glyph-name="R.alt_P" unicode="RP" horiz-adv-x="1026" 
d="M389 -199q-104 0 -104 79v374q0 2 -2 2h-49v-256h-208v639h363q103 0 103 -81v-186q0 -46 -51 -52q52 -7 52 -53v-305q0 -2 2 -2h258v-159h-364zM285 477q0 2 -2 2h-49v-96h49q2 0 2 2v92zM803 477q0 2 -2 2h-49v-89h49q2 0 2 2v85zM544 0v639h363q104 0 104 -81v-238
q0 -81 -104 -81h-155v-239h-208z" />
    <glyph glyph-name="R.alt_period" unicode="R&#x2e;" horiz-adv-x="778" 
d="M389 -199q-104 0 -104 79v374q0 2 -2 2h-49v-256h-208v639h363q103 0 103 -81v-186q0 -46 -51 -52q52 -7 52 -53v-305q0 -2 2 -2h258v-159h-364zM285 477q0 2 -2 2h-49v-96h49q2 0 2 2v92zM544 0v159h208v-159h-208z" />
    <glyph glyph-name="R.alt_Q" unicode="RQ" horiz-adv-x="1035" 
d="M389 -199q-104 0 -104 79v374q0 2 -2 2h-49v-256h-208v639h363q103 0 103 -81v-186q0 -46 -51 -52q52 -7 52 -53v-305q0 -2 2 -2h258v-159h-364zM285 477q0 2 -2 2h-49v-96h49q2 0 2 2v92zM801 -199v199h-155q-54 0 -79 19.5t-25 59.5v479q0 81 104 81h363v-838h-208z
M801 479h-49q-2 0 -2 -2v-316q0 -2 2 -2h49v320z" />
    <glyph glyph-name="R.alt_question" unicode="R&#x3f;" horiz-adv-x="1018" 
d="M389 -199q-104 0 -104 79v374q0 2 -2 2h-49v-256h-208v639h363q103 0 103 -81v-186q0 -46 -51 -52q52 -7 52 -53v-305q0 -2 2 -2h259v-159h-365zM285 477q0 2 -2 2h-49v-96h49q2 0 2 2v92zM546 0v159h208v-159h-208zM756 239q-2 0 -2 -2v-38h-208v121q0 79 104 79h145
q2 0 2 2v76q0 2 -2 2h-47q-2 0 -2 -2v-37h-208v118q0 81 104 81h259q104 0 104 -81v-238q0 -81 -104 -81h-145z" />
    <glyph glyph-name="R.alt_R" unicode="RR" horiz-adv-x="1036" 
d="M389 -199q-104 0 -104 79v374q0 2 -2 2h-49v-256h-208v639h363q103 0 103 -81v-186q0 -46 -51 -52q52 -7 52 -53v-305q0 -2 2 -2h515v-159h-621zM285 477q0 2 -2 2h-49v-96h49q2 0 2 2v92zM803 0v254q0 2 -2 2h-49v-256h-208v639h363q103 0 103 -81v-186q0 -46 -51 -52
q52 -7 52 -53v-267h-208zM803 477q0 2 -2 2h-49v-96h49q2 0 2 2v92z" />
    <glyph glyph-name="R.alt_S" unicode="RS" horiz-adv-x="1033" 
d="M389 -199q-104 0 -104 79v374q0 2 -2 2h-49v-256h-208v639h363q103 0 103 -81v-186q0 -46 -51 -52q52 -7 52 -53v-305q0 -2 2 -2h514v-159h-620zM285 477q0 2 -2 2h-49v-96h49q2 0 2 2v92zM646 0q-104 0 -104 79v120h208v-38q0 -2 2 -2h47q2 0 2 2v76q0 2 -2 2h-153
q-104 0 -104 81v238q0 81 104 81h259q104 0 104 -81v-118h-208v37q0 2 -2 2h-47q-2 0 -2 -2v-76q0 -2 2 -2h153q104 0 104 -79v-241q0 -79 -104 -79h-259z" />
    <glyph glyph-name="R.alt_T" unicode="RT" horiz-adv-x="1067" 
d="M389 -199q-104 0 -104 79v374q0 2 -2 2h-49v-256h-208v639h363q103 0 103 -81v-186q0 -46 -51 -52q52 -7 52 -53v-305q0 -2 2 -2h547v-159h-653zM285 477q0 2 -2 2h-49v-96h49q2 0 2 2v92zM679 0q-104 0 -104 79v361h-51v158h51v41h208v-41h259v-158h-259v-279q0 -2 2 -2
h48q2 0 2 2v238h207v-320q0 -79 -104 -79h-259z" />
    <glyph glyph-name="R.alt_U" unicode="RU" horiz-adv-x="1035" 
d="M389 -199q-104 0 -104 79v374q0 2 -2 2h-49v-256h-208v639h363q103 0 103 -81v-186q0 -46 -51 -52q52 -7 52 -53v-305q0 -2 2 -2h515v-159h-621zM285 477q0 2 -2 2h-49v-96h49q2 0 2 2v92zM647 0q-104 0 -104 79v560h208v-478q0 -2 2 -2h47q2 0 2 2v478h208v-560
q0 -79 -104 -79h-259z" />
    <glyph glyph-name="R.alt_Y" unicode="RY" horiz-adv-x="1019" 
d="M389 -199q-104 0 -104 79v374q0 2 -2 2h-49v-256h-208v639h363q103 0 103 -81v-186q0 -46 -51 -52q52 -7 52 -53v-305q0 -2 2 -2h380v-159h-486zM285 477q0 2 -2 2h-49v-96h49q2 0 2 2v92zM667 0v228q-131 0 -131 130v281h208v-259q0 -2 2 -2h47q2 0 2 2v259h208v-281
q0 -130 -128 -130v-228h-208z" />
    <glyph glyph-name="S_F.2" unicode="SF" horiz-adv-x="945" 
d="M128 0q-104 0 -104 79v120h208v-38q0 -2 2 -2h47q2 0 2 2v76q0 2 -2 2h-153q-104 0 -104 81v238q0 81 104 81h259q104 0 104 -81v-118h-208v37q0 2 -2 2h-47q-2 0 -2 -2v-76q0 -2 2 -2h153q104 0 104 -79v-241q0 -79 -104 -79h-259zM24 -199v159h514q2 0 2 2v596
q0 81 104 81h286v-160h-180q-2 0 -2 -2v-37h180v-160h-180v-400q0 -79 -104 -79h-620z" />
    <glyph glyph-name="S_Y.2" unicode="Sy" horiz-adv-x="1032" 
d="M128 0q-104 0 -104 79v120h208v-38q0 -2 2 -2h47q2 0 2 2v76q0 2 -2 2h-153q-104 0 -104 81v238q0 81 104 81h259q104 0 104 -81v-118h-208v37q0 2 -2 2h-47q-2 0 -2 -2v-76q0 -2 2 -2h153q104 0 104 -79v-241q0 -79 -104 -79h-259zM24 -199v159h772q2 0 2 2v38h-155
q-104 0 -104 79v560h208v-478q0 -2 2 -2h49v480h208v-759q0 -79 -104 -79h-878z" />
    <glyph glyph-name="T_F.2" unicode="TF" horiz-adv-x="979" 
d="M161 0q-104 0 -104 79v361h-51v158h51v41h208v-41h259v-158h-259v-279q0 -2 2 -2h48q2 0 2 2v238h207v-320q0 -79 -104 -79h-259zM57 -199v159h515q2 0 2 2v596q0 81 104 81h286v-160h-180q-2 0 -2 -2v-37h180v-160h-180v-400q0 -79 -104 -79h-621z" />
    <glyph glyph-name="T_G.2" unicode="Tg" horiz-adv-x="1066" 
d="M161 0q-104 0 -104 79v361h-51v158h51v41h208v-41h259v-158h-259v-279q0 -2 2 -2h48q2 0 2 2v238h207v-320q0 -79 -104 -79h-259zM57 -199v159h773q2 0 2 2v38h-155q-104 0 -104 79v479q0 81 104 81h363v-759q0 -79 -104 -79h-879zM832 479h-49q-2 0 -2 -2v-316
q0 -2 2 -2h49v320z" />
    <glyph glyph-name="T_Y.2" unicode="Ty" horiz-adv-x="1066" 
d="M161 0q-104 0 -104 79v361h-51v158h51v41h208v-41h259v-158h-259v-279q0 -2 2 -2h48q2 0 2 2v238h207v-320q0 -79 -104 -79h-259zM57 -199v159h773q2 0 2 2v38h-155q-104 0 -104 79v560h208v-478q0 -2 2 -2h49v480h208v-759q0 -79 -104 -79h-879z" />
    <glyph glyph-name="U_F.2" unicode="UF" horiz-adv-x="947" 
d="M129 0q-104 0 -104 79v560h208v-478q0 -2 2 -2h47q2 0 2 2v478h208v-560q0 -79 -104 -79h-259zM25 -199v159h515q2 0 2 2v596q0 81 104 81h286v-160h-180q-2 0 -2 -2v-37h180v-160h-180v-400q0 -79 -104 -79h-621z" />
    <glyph glyph-name="U_G.2" unicode="Ug" horiz-adv-x="1034" 
d="M129 0q-104 0 -104 79v560h208v-478q0 -2 2 -2h47q2 0 2 2v478h208v-560q0 -79 -104 -79h-259zM25 -199v159h773q2 0 2 2v38h-155q-104 0 -104 79v479q0 81 104 81h363v-759q0 -79 -104 -79h-879zM800 479h-49q-2 0 -2 -2v-316q0 -2 2 -2h49v320z" />
    <glyph glyph-name="U_Y.2" unicode="Uy" horiz-adv-x="1034" 
d="M129 0q-104 0 -104 79v560h208v-478q0 -2 2 -2h47q2 0 2 2v478h208v-560q0 -79 -104 -79h-259zM25 -199v159h773q2 0 2 2v38h-155q-104 0 -104 79v560h208v-478q0 -2 2 -2h49v480h208v-759q0 -79 -104 -79h-879z" />
    <glyph glyph-name="Z_A.2" unicode="ZA" horiz-adv-x="1027" 
d="M23 0v164l223 315h-223v160h467v-149l-216 -331h216v-159h-467zM795 477q0 2 -2 2h-47q-2 0 -2 -2v-78h51v78zM795 0v239h-51v-359q0 -79 -104 -79h-617v159h511q2 0 2 2v596q0 81 104 81h259q104 0 104 -81v-558h-208z" />
    <glyph glyph-name="Z_Y.2" unicode="Zy" horiz-adv-x="1027" 
d="M23 0v164l223 315h-223v160h467v-149l-216 -331h216v-159h-467zM23 -199v159h768q2 0 2 2v38h-155q-104 0 -104 79v560h208v-478q0 -2 2 -2h49v480h208v-759q0 -79 -104 -79h-874z" />
    <glyph glyph-name=".notdef" horiz-adv-x="452" 
d="M129 0q-97 0 -97 84v488q0 85 97 85h193q98 0 98 -85v-488q0 -84 -98 -84h-193zM368 572q0 39 -46 39h-193q-46 0 -46 -39v-488q0 -39 46 -39h193q46 0 46 39v488z" />
    <glyph glyph-name=".null" horiz-adv-x="0" 
 />
    <glyph glyph-name="nonmarkingreturn" horiz-adv-x="223" 
 />
    <glyph glyph-name="uni0017" horiz-adv-x="223" 
 />
    <glyph glyph-name="space" unicode=" " horiz-adv-x="223" 
 />
    <glyph glyph-name="exclam" unicode="!" horiz-adv-x="274" 
d="M33 0v159h208v-159h-208zM33 199v440h208v-440h-208z" />
    <glyph glyph-name="quotedbl" unicode="&#x22;" horiz-adv-x="494" 
d="M20 525zM46 525l-26 240h208l-25 -240h-157zM293 525l-26 240h208l-25 -240h-157z" />
    <glyph glyph-name="numbersign" unicode="#" horiz-adv-x="615" 
d="M364 382h-120v-132h120v132zM364 0v130h-120v-130h-119v130h-106v120h106v132h-106v120h106v137h119v-137h120v137h119v-137h115v-120h-115v-132h115v-120h-115v-130h-119z" />
    <glyph glyph-name="dollar" unicode="$" horiz-adv-x="516" 
d="M318 40v-40h-123v40h-171v159h257q2 0 2 2v36q0 2 -2 2h-153q-104 0 -104 86v194q0 81 104 81h67v39h123v-39h173v-160h-257q-2 0 -2 -2v-37q0 -2 2 -2h153q104 0 104 -84v-195q0 -80 -104 -80h-69z" />
    <glyph glyph-name="percent" unicode="%" horiz-adv-x="682" 
d="M25 0zM154 568q0 1 -1 1h-23q-1 0 -1 -1v-158l1 -1h23q1 0 1 1v158zM77 330q-52 0 -52 39v240q0 40 52 40h129q52 0 52 -40v-240q0 -39 -52 -39h-129zM106 -40l365 719h114l-367 -719h-112zM554 228q0 1 -1 1h-23q-1 0 -1 -1v-158l1 -1h23q1 0 1 1v158zM477 -10
q-52 0 -52 39v240q0 40 52 40h129q52 0 52 -40v-240q0 -39 -52 -39h-129z" />
    <glyph glyph-name="ampersand" unicode="&#x26;" horiz-adv-x="537" 
d="M127 0q-104 0 -104 79v190q0 41 52 51q-52 6 -52 50v188q0 81 104 81h232q104 0 104 -81v-98h-181v17q0 2 -2 2h-47q-2 0 -2 -2v-82q0 -2 2 -2h295v-148h-65v-86h65v-159h-401zM282 245h-49q-2 0 -2 -2v-82q0 -2 2 -2h49v86z" />
    <glyph glyph-name="quotesingle" unicode="'" horiz-adv-x="247" 
d="M46 525l-26 240h208l-25 -240h-157z" />
    <glyph glyph-name="parenleft" unicode="(" horiz-adv-x="437" 
d="M233 -199q-104 0 -104 79v876q0 81 104 81h174v-160h-68q-2 0 -2 -2v-713q0 -2 2 -2h68v-159h-174z" />
    <glyph glyph-name="parenright" unicode=")" horiz-adv-x="440" 
d="M28 -199v159h68q2 0 2 2v713q0 2 -2 2h-68v160h174q104 0 104 -81v-876q0 -79 -104 -79h-174z" />
    <glyph glyph-name="asterisk" unicode="*" horiz-adv-x="451" 
d="M360 300q-18 0 -50 53q-16 26 -26 39.5t-20 13.5q-9 0 -14 -5t-5 -10q0 -16 10 -28t28 -40q18 -27 18 -47q0 -31 -76 -31t-76 31q0 20 18 47q18 28 28 40t10 28q0 5 -5 10t-14 5q-10 0 -20 -13.5t-26 -39.5q-32 -53 -50 -53q-13 0 -24.5 11t-20.5 26t-14 31.5t-5 27.5
q0 29 46 29q20 0 31.5 -2t28.5 -2q39 0 39 21t-39 21q-17 0 -28.5 -2t-31.5 -2q-46 0 -46 29q0 11 5 27.5t14 31.5t20.5 26t24.5 11q18 0 50 -53q16 -26 26 -39.5t20 -13.5q9 0 14 5t5 10q0 16 -10 28t-28 40q-18 27 -18 47q0 31 76 31t76 -31q0 -20 -18 -47
q-18 -28 -28 -40t-10 -28q0 -5 5 -10t14 -5q10 0 20 13.5t26 39.5q32 53 50 53q13 0 24.5 -11t20.5 -26t14 -31.5t5 -27.5q0 -29 -46 -29q-20 0 -31.5 2t-28.5 2q-39 0 -39 -21t39 -21q17 0 28.5 2t31.5 2q46 0 46 -29q0 -11 -5 -27.5t-14 -31.5t-20.5 -26t-24.5 -11z" />
    <glyph glyph-name="plus" unicode="+" horiz-adv-x="484" 
d="M185 111v148h-147v120h147v147h120v-147h148v-120h-148v-148h-120z" />
    <glyph glyph-name="comma" unicode="," horiz-adv-x="260" 
d="M26 -120v80h102q2 0 2 2v38h-104v159h208v-199q0 -80 -104 -80h-104z" />
    <glyph glyph-name="hyphen" unicode="-" horiz-adv-x="283" 
d="M12 239v160h259v-160h-259z" />
    <glyph glyph-name="period" unicode="." horiz-adv-x="260" 
d="M26 0v159h208v-159h-208z" />
    <glyph glyph-name="slash" unicode="/" horiz-adv-x="423" 
d="M12 -100l259 839h142l-259 -839h-142z" />
    <glyph glyph-name="zero" unicode="0" 
d="M24 0zM283 477q0 2 -2 2h-47q-2 0 -2 -2v-316q0 -2 2 -2h47q2 0 2 2v316zM128 0q-104 0 -104 79v479q0 81 104 81h259q104 0 104 -81v-479q0 -79 -104 -79h-259z" />
    <glyph glyph-name="one" unicode="1" horiz-adv-x="260" 
d="M26 0zM26 0v639h208v-639h-208z" />
    <glyph glyph-name="two" unicode="2" horiz-adv-x="517" 
d="M25 0v320q0 79 104 79h153q2 0 2 2v76q0 2 -2 2h-47q-2 0 -2 -2v-37h-208v118q0 81 104 81h259q104 0 104 -81v-238q0 -81 -104 -81h-153q-2 0 -2 -2v-78h51v40h208v-199h-467z" />
    <glyph glyph-name="three" unicode="3" 
d="M126 0q-104 0 -104 79v120h208v-38q0 -2 2 -2h47q2 0 2 2v93q0 2 -2 2h-254v127h254q2 0 2 2v92q0 2 -2 2h-47q-2 0 -2 -2v-37h-206v118q0 81 104 81h257q104 0 104 -81v-186q0 -46 -52 -52q52 -7 52 -53v-188q0 -79 -104 -79h-259z" />
    <glyph glyph-name="four" unicode="4" horiz-adv-x="545" 
d="M278 0v178h-259v461h208v-301h51v301h208v-301h53v-160h-53v-178h-208z" />
    <glyph glyph-name="five" unicode="5" horiz-adv-x="516" 
d="M129 0q-104 0 -104 81v118h208v-37q0 -2 2 -2h47q2 0 2 2v76q0 2 -2 2h-257v399h467v-199h-208v40h-51v-80h155q104 0 104 -81v-238q0 -81 -104 -81h-259z" />
    <glyph glyph-name="six" unicode="6" 
d="M128 0q-104 0 -104 79v479q0 81 104 81h259q104 0 104 -81v-118h-208v37q0 2 -2 2h-47q-2 0 -2 -2v-78h155q104 0 104 -79v-241q0 -79 -104 -79h-259zM283 247q0 2 -2 2h-49v-88q0 -2 2 -2h47q2 0 2 2v86z" />
    <glyph glyph-name="seven" unicode="7" horiz-adv-x="494" 
d="M19 0l261 479h-266v160h467v-148l-247 -491h-215z" />
    <glyph glyph-name="eight" unicode="8" 
d="M126 0q-104 0 -104 79v188q0 46 52 53q-52 6 -52 52v186q0 81 104 81h259q104 0 104 -81v-186q0 -46 -52 -52q52 -7 52 -53v-188q0 -79 -104 -79h-259zM281 254q0 2 -2 2h-47q-2 0 -2 -2v-93q0 -2 2 -2h47q2 0 2 2v93zM281 477q0 2 -2 2h-47q-2 0 -2 -2v-92q0 -2 2 -2h47
q2 0 2 2v92z" />
    <glyph glyph-name="nine" unicode="9" 
d="M128 0q-104 0 -104 81v118h208v-37q0 -2 2 -2h47q2 0 2 2v78h-155q-104 0 -104 79v241q0 79 104 79h259q104 0 104 -79v-479q0 -81 -104 -81h-259zM283 478q0 2 -2 2h-47q-2 0 -2 -2v-86q0 -2 2 -2h49v88z" />
    <glyph glyph-name="colon" unicode=":" horiz-adv-x="290" 
d="M43 0v159h208v-159h-208zM43 299v160h208v-160h-208z" />
    <glyph glyph-name="semicolon" unicode=";" horiz-adv-x="290" 
d="M43 299v160h208v-160h-208zM43 -120v80h102q2 0 2 2v38h-104v159h208v-199q0 -80 -104 -80h-104z" />
    <glyph glyph-name="less" unicode="&#x3c;" horiz-adv-x="484" 
d="M38 253v120l415 172v-130l-279 -101l279 -97v-130z" />
    <glyph glyph-name="equal" unicode="=" horiz-adv-x="484" 
d="M38 129v120h415v-120h-415zM38 389v120h415v-120h-415z" />
    <glyph glyph-name="greater" unicode="&#x3e;" horiz-adv-x="484" 
d="M38 87v130l279 97l-279 101v130l415 -172v-120z" />
    <glyph glyph-name="question" unicode="?" horiz-adv-x="500" 
d="M28 0v159h208v-159h-208zM238 239q-2 0 -2 -2v-38h-208v121q0 79 104 79h145q2 0 2 2v76q0 2 -2 2h-47q-2 0 -2 -2v-37h-208v118q0 81 104 81h259q104 0 104 -81v-238q0 -81 -104 -81h-145z" />
    <glyph glyph-name="at" unicode="@" horiz-adv-x="499" 
d="M93 0q-60 0 -60 58v527q0 54 60 54h311q60 0 60 -54v-372q0 -47 -46 -47h-159q-49 0 -49 47v230q0 47 49 47h118v54q0 4 -5 4h-226q-6 0 -6 -4v-432q0 -3 5 -3h322v-109h-374zM377 402h-77q-3 0 -3 -3v-135q0 -4 4 -4h71q5 0 5 5v137z" />
    <glyph glyph-name="A" unicode="A" horiz-adv-x="517" 
d="M284 477q0 2 -2 2h-47q-2 0 -2 -2v-78h51v78zM284 0v239h-51v-239h-208v558q0 81 104 81h259q104 0 104 -81v-558h-208z" />
    <glyph glyph-name="B" unicode="B" horiz-adv-x="518" 
d="M285 477q0 2 -2 2h-49v-96h49q2 0 2 2v92zM26 0v639h363q103 0 103 -81v-186q0 -46 -51 -52q52 -7 52 -53v-188q0 -79 -104 -79h-363zM285 254q0 2 -2 2h-49v-97h49q2 0 2 2v93z" />
    <glyph glyph-name="C" unicode="C" 
d="M128 0q-104 0 -104 79v479q0 81 104 81h259q104 0 104 -81v-189h-208v108q0 2 -2 2h-47q-2 0 -2 -2v-316q0 -2 2 -2h47q2 0 2 2v149h208v-231q0 -79 -104 -79h-259z" />
    <glyph glyph-name="D" unicode="D" horiz-adv-x="517" 
d="M285 477q0 2 -2 2h-49v-320h49q2 0 2 2v316zM26 0v639h363q104 0 104 -81v-479q0 -79 -104 -79h-363z" />
    <glyph glyph-name="E" unicode="E" horiz-adv-x="403" 
d="M26 0v639h352v-160h-144v-80h142v-160h-142v-80h145v-159h-353z" />
    <glyph glyph-name="F" unicode="F" horiz-adv-x="430" 
d="M25 0v558q0 81 104 81h286v-160h-180q-2 0 -2 -2v-37h180v-160h-180v-280h-208z" />
    <glyph glyph-name="G" unicode="G" horiz-adv-x="516" 
d="M128 0q-104 0 -104 79v479q0 81 104 81h259q104 0 104 -81v-108h-208v27q0 2 -2 2h-47q-2 0 -2 -2v-316q0 -2 2 -2h49v232h208v-391h-363z" />
    <glyph glyph-name="H" unicode="H" horiz-adv-x="519" 
d="M285 0v246h-51v-246h-208v639h208v-246h51v246h208v-639h-208z" />
    <glyph glyph-name="I" unicode="I" horiz-adv-x="260" 
d="M26 0v639h208v-639h-208z" />
    <glyph glyph-name="J" unicode="J" horiz-adv-x="510" 
d="M122 0q-104 0 -104 79v241h208v-159q0 -2 2 -2h47q2 0 2 2v478h208v-560q0 -79 -104 -79h-259z" />
    <glyph glyph-name="K" unicode="K" horiz-adv-x="512" 
d="M295 0l-68 171v-171h-201v639h201v-163l62 163h219l-143 -308l149 -331h-219z" />
    <glyph glyph-name="L" unicode="L" horiz-adv-x="384" 
d="M26 0v639h208v-480h135v-159h-343z" />
    <glyph glyph-name="M" unicode="M" horiz-adv-x="777" 
d="M546 0v477q0 2 -2 2h-49q-2 0 -2 -2v-477h-208v477q0 2 -2 2h-47q-2 0 -2 -2v-477h-208v639h208v-41q19 20 54.5 30.5t80.5 10.5q46 0 71.5 -12t42.5 -36q23 29 57.5 38.5t83.5 9.5q27 0 50.5 -6.5t40.5 -18.5t27 -28.5t10 -35.5v-550h-206z" />
    <glyph glyph-name="N" unicode="N" horiz-adv-x="518" 
d="M285 0v477q0 2 -2 2h-47q-2 0 -2 -2v-477h-208v639h208v-41q53 41 155 41q104 0 104 -81v-558h-208z" />
    <glyph glyph-name="O" unicode="O" 
d="M283 477q0 2 -2 2h-47q-2 0 -2 -2v-316q0 -2 2 -2h47q2 0 2 2v316zM128 0q-104 0 -104 79v479q0 81 104 81h259q104 0 104 -81v-479q0 -79 -104 -79h-259z" />
    <glyph glyph-name="P" unicode="P" horiz-adv-x="508" 
d="M285 477q0 2 -2 2h-49v-89h49q2 0 2 2v85zM26 0v639h363q104 0 104 -81v-238q0 -81 -104 -81h-155v-239h-208z" />
    <glyph glyph-name="Q" unicode="Q" horiz-adv-x="517" 
d="M283 -199v199h-155q-54 0 -79 19.5t-25 59.5v479q0 81 104 81h363v-838h-208zM283 479h-49q-2 0 -2 -2v-316q0 -2 2 -2h49v320z" />
    <glyph glyph-name="R" unicode="R" horiz-adv-x="518" 
d="M285 0v254q0 2 -2 2h-49v-256h-208v639h363q103 0 103 -81v-186q0 -46 -51 -52q52 -7 52 -53v-267h-208zM285 477q0 2 -2 2h-49v-96h49q2 0 2 2v92z" />
    <glyph glyph-name="S" unicode="S" 
d="M128 0q-104 0 -104 79v120h208v-38q0 -2 2 -2h47q2 0 2 2v76q0 2 -2 2h-153q-104 0 -104 81v238q0 81 104 81h259q104 0 104 -81v-118h-208v37q0 2 -2 2h-47q-2 0 -2 -2v-76q0 -2 2 -2h153q104 0 104 -79v-241q0 -79 -104 -79h-259z" />
    <glyph glyph-name="T" unicode="T" horiz-adv-x="549" 
d="M161 0q-104 0 -104 79v361h-51v158h51v41h208v-41h259v-158h-259v-279q0 -2 2 -2h48q2 0 2 2v238h207v-320q0 -79 -104 -79h-259z" />
    <glyph glyph-name="U" unicode="U" horiz-adv-x="517" 
d="M129 0q-104 0 -104 79v560h208v-478q0 -2 2 -2h47q2 0 2 2v478h208v-560q0 -79 -104 -79h-259z" />
    <glyph glyph-name="V" unicode="V" horiz-adv-x="528" 
d="M107 0l-103 639h211l53 -386l52 386h203l-105 -639h-311z" />
    <glyph glyph-name="W" unicode="W" horiz-adv-x="837" 
d="M473 0l-52 320l-53 -320h-261l-104 639h214l53 -359l52 359h207l51 -359l53 359h201l-104 -639h-257z" />
    <glyph glyph-name="X" unicode="X" horiz-adv-x="509" 
d="M285 0l-50 138l-52 -138h-176l130 342l-119 297h207l49 -138l49 138h165l-113 -292l132 -347h-222z" />
    <glyph glyph-name="Y" unicode="Y" horiz-adv-x="501" 
d="M149 0v228q-131 0 -131 130v281h208v-259q0 -2 2 -2h47q2 0 2 2v259h208v-281q0 -130 -128 -130v-228h-208z" />
    <glyph glyph-name="Z" unicode="Z" horiz-adv-x="510" 
d="M23 0v164l223 315h-223v160h467v-149l-216 -331h216v-159h-467z" />
    <glyph glyph-name="bracketleft" unicode="[" horiz-adv-x="437" 
d="M129 -199v1036h278v-160h-70v-717h70v-159h-278z" />
    <glyph glyph-name="backslash" unicode="\" horiz-adv-x="423" 
d="M271 -100l-259 839h142l259 -839h-142z" />
    <glyph glyph-name="bracketright" unicode="]" horiz-adv-x="439" 
d="M28 -199v159h69v717h-69v160h277v-1036h-277z" />
    <glyph glyph-name="asciicircum" unicode="^" horiz-adv-x="440" 
d="M255 364l-38 164l-37 -164h-125l71 275h191l70 -275h-132z" />
    <glyph glyph-name="underscore" unicode="_" horiz-adv-x="550" 
d="M-2 -117v80h554v-80h-554z" />
    <glyph glyph-name="grave" unicode="`" horiz-adv-x="319" 
d="M20 703v106l283 -69v-70z" />
    <glyph glyph-name="a" unicode="a" horiz-adv-x="516" 
d="M283 259h-49q-2 0 -2 -2v-96q0 -2 2 -2h49v100zM128 0q-104 0 -104 79v241q0 79 104 79h155v78q0 2 -2 2h-47q-2 0 -2 -2v-37h-208v118q0 81 104 81h259q104 0 104 -81v-558h-363z" />
    <glyph glyph-name="b" unicode="b" horiz-adv-x="518" 
d="M26 0v799h208v-160h155q104 0 104 -81v-479q0 -79 -104 -79h-363zM285 477q0 2 -2 2h-49v-320h49q2 0 2 2v316z" />
    <glyph glyph-name="c" unicode="c" 
d="M24 0zM128 0q-104 0 -104 79v479q0 81 104 81h259q104 0 104 -81v-189h-208v108q0 2 -2 2h-47q-2 0 -2 -2v-316q0 -2 2 -2h47q2 0 2 2v149h208v-231q0 -79 -104 -79h-259z" />
    <glyph glyph-name="d" unicode="d" horiz-adv-x="517" 
d="M128 0q-54 0 -79 19.5t-25 59.5v479q0 81 104 81h155v160h208v-799h-363zM283 479h-49q-2 0 -2 -2v-316q0 -2 2 -2h49v320z" />
    <glyph glyph-name="e" unicode="e" 
d="M283 477q0 2 -2 2h-47q-2 0 -2 -2v-89h51v89zM128 0q-104 0 -104 79v479q0 81 104 81h259q104 0 104 -81v-319h-259v-78q0 -2 2 -2h47q2 0 2 2v38h208v-120q0 -79 -104 -79h-259z" />
    <glyph glyph-name="f" unicode="f" horiz-adv-x="430" 
d="M25 0zM25 0v558q0 81 104 81h286v-160h-180q-2 0 -2 -2v-37h180v-160h-180v-280h-208z" />
    <glyph glyph-name="g" unicode="g" horiz-adv-x="517" 
d="M24 -199v159h257q2 0 2 2v38h-155q-104 0 -104 79v479q0 81 104 81h363v-759q0 -79 -104 -79h-363zM283 479h-49q-2 0 -2 -2v-316q0 -2 2 -2h49v320z" />
    <glyph glyph-name="h" unicode="h" horiz-adv-x="518" 
d="M285 0v477q0 2 -2 2h-49v-479h-208v799h208v-160h155q104 0 104 -81v-558h-208z" />
    <glyph glyph-name="i" unicode="i" horiz-adv-x="260" 
d="M26 0zM26 0v639h208v-639h-208z" />
    <glyph glyph-name="j" unicode="j" horiz-adv-x="510" 
d="M18 0zM122 0q-104 0 -104 79v241h208v-159q0 -2 2 -2h47q2 0 2 2v478h208v-560q0 -79 -104 -79h-259z" />
    <glyph glyph-name="k" unicode="k" horiz-adv-x="512" 
d="M26 0zM295 0l-68 171v-171h-201v639h201v-163l62 163h219l-143 -308l149 -331h-219z" />
    <glyph glyph-name="l" unicode="l" horiz-adv-x="384" 
d="M26 0zM26 0v639h208v-480h135v-159h-343z" />
    <glyph glyph-name="m" unicode="m" horiz-adv-x="777" 
d="M26 0zM546 0v477q0 2 -2 2h-49q-2 0 -2 -2v-477h-208v477q0 2 -2 2h-47q-2 0 -2 -2v-477h-208v639h208v-41q19 20 54.5 30.5t80.5 10.5q46 0 71.5 -12t42.5 -36q23 29 57.5 38.5t83.5 9.5q27 0 50.5 -6.5t40.5 -18.5t27 -28.5t10 -35.5v-550h-206z" />
    <glyph glyph-name="n" unicode="n" horiz-adv-x="518" 
d="M26 0zM285 0v477q0 2 -2 2h-47q-2 0 -2 -2v-477h-208v639h208v-41q53 41 155 41q104 0 104 -81v-558h-208z" />
    <glyph glyph-name="o" unicode="o" 
d="M24 0zM283 477q0 2 -2 2h-47q-2 0 -2 -2v-316q0 -2 2 -2h47q2 0 2 2v316zM128 0q-104 0 -104 79v479q0 81 104 81h259q104 0 104 -81v-479q0 -79 -104 -79h-259z" />
    <glyph glyph-name="p" unicode="p" horiz-adv-x="517" 
d="M24 -199v838h363q104 0 104 -81v-479q0 -40 -25 -59.5t-79 -19.5h-155v-199h-208zM283 477q0 2 -2 2h-49v-320h49q2 0 2 2v316z" />
    <glyph glyph-name="q" unicode="q" horiz-adv-x="517" 
d="M24 0zM283 -199v199h-155q-54 0 -79 19.5t-25 59.5v479q0 81 104 81h363v-838h-208zM283 479h-49q-2 0 -2 -2v-316q0 -2 2 -2h49v320z" />
    <glyph glyph-name="r" unicode="r" horiz-adv-x="518" 
d="M26 0zM285 0v254q0 2 -2 2h-49v-256h-208v639h363q103 0 103 -81v-186q0 -46 -51 -52q52 -7 52 -53v-267h-208zM285 477q0 2 -2 2h-49v-96h49q2 0 2 2v92z" />
    <glyph glyph-name="s" unicode="s" 
d="M24 0zM128 0q-104 0 -104 79v120h208v-38q0 -2 2 -2h47q2 0 2 2v76q0 2 -2 2h-153q-104 0 -104 81v238q0 81 104 81h259q104 0 104 -81v-118h-208v37q0 2 -2 2h-47q-2 0 -2 -2v-76q0 -2 2 -2h153q104 0 104 -79v-241q0 -79 -104 -79h-259z" />
    <glyph glyph-name="t" unicode="t" horiz-adv-x="549" 
d="M6 0zM161 0q-104 0 -104 79v361h-51v158h51v41h208v-41h259v-158h-259v-279q0 -2 2 -2h48q2 0 2 2v238h207v-320q0 -79 -104 -79h-259z" />
    <glyph glyph-name="u" unicode="u" horiz-adv-x="517" 
d="M25 0zM129 0q-104 0 -104 79v560h208v-478q0 -2 2 -2h47q2 0 2 2v478h208v-560q0 -79 -104 -79h-259z" />
    <glyph glyph-name="v" unicode="v" horiz-adv-x="528" 
d="M4 0zM107 0l-103 639h211l53 -386l52 386h203l-105 -639h-311z" />
    <glyph glyph-name="w" unicode="w" horiz-adv-x="837" 
d="M3 0zM473 0l-52 320l-53 -320h-261l-104 639h214l53 -359l52 359h207l51 -359l53 359h201l-104 -639h-257z" />
    <glyph glyph-name="x" unicode="x" horiz-adv-x="509" 
d="M7 0zM285 0l-50 138l-52 -138h-176l130 342l-119 297h207l49 -138l49 138h165l-113 -292l132 -347h-222z" />
    <glyph glyph-name="y" unicode="y" horiz-adv-x="517" 
d="M24 -199v159h257q2 0 2 2v38h-155q-104 0 -104 79v560h208v-478q0 -2 2 -2h49v480h208v-759q0 -79 -104 -79h-363z" />
    <glyph glyph-name="z" unicode="z" horiz-adv-x="510" 
d="M23 0zM23 0v164l223 315h-223v160h467v-149l-216 -331h216v-159h-467z" />
    <glyph glyph-name="braceleft" unicode="{" horiz-adv-x="441" 
d="M237 -199q-103 0 -103 79v347l-92 94l92 94v341q0 81 103 81h174v-160h-67q-2 0 -2 -2v-293l-63 -62l63 -60v-298q0 -2 2 -2h67v-159h-174z" />
    <glyph glyph-name="bar" unicode="|" horiz-adv-x="307" 
d="M94 -101v841h117v-841h-117z" />
    <glyph glyph-name="braceright" unicode="}" horiz-adv-x="441" 
d="M29 -199v159h67q2 0 2 2v298l63 60l-63 62v293q0 2 -2 2h-67v160h174q103 0 103 -81v-341l92 -94l-92 -94v-347q0 -79 -103 -79h-174z" />
    <glyph glyph-name="asciitilde" unicode="~" horiz-adv-x="484" 
d="M453 392q0 -71 -27 -106.5t-91 -35.5q-29 0 -53.5 8.5t-45.5 19t-40 19.5t-35 9q-18 0 -26.5 -12t-8.5 -44h-88q0 71 27 106.5t91 35.5q27 0 51.5 -9t46.5 -19.5t40.5 -19t35.5 -8.5q18 0 27 12t9 44h87z" />
    <glyph glyph-name="nonbreakingspace" unicode="&#xa0;" horiz-adv-x="223" 
 />
    <glyph glyph-name="exclamdown" unicode="&#xa1;" horiz-adv-x="274" 
d="M33 0zM241.002 639v-158.99h-207.987v158.99h207.987zM241.002 440.012v-439.973h-207.987v439.973h207.987z" />
    <glyph glyph-name="cent" unicode="&#xa2;" horiz-adv-x="512" 
d="M194 0v52h-68q-104 0 -104 79v377q0 80 104 80h68v51h147v-51h44q104 0 104 -80v-139h-208v57q0 2 -2 2h-47q-2 0 -2 -2v-214q0 -2 2 -2h47q2 0 2 2v98h208v-179q0 -79 -104 -79h-44v-52h-147z" />
    <glyph glyph-name="sterling" unicode="&#xa3;" horiz-adv-x="458" 
d="M20 0v159h26v92h-25v137h25v170q0 81 104 81h286v-160h-180q-2 0 -2 -2v-89h92v-138h-92v-91h182v-159h-416z" />
    <glyph glyph-name="currency" unicode="&#xa4;" horiz-adv-x="500" 
d="M346 338q0 19 -7.5 36.5t-21 30t-31.5 20t-39 7.5t-39.5 -7.5t-32 -20t-21.5 -30t-8 -36.5q0 -20 8 -37t21.5 -29.5t32 -20t39.5 -7.5t39 7.5t31.5 20t21 29.5t7.5 37zM330 199q-38 -20 -83 -20q-23 0 -44 5.5t-41 14.5l-62 -63l-63 66l56 57q-11 17 -17 37t-6 42
q0 43 24 78l-57 59l63 67l62 -66q39 21 85 21q45 0 82 -20l62 65l65 -67l-58 -58q11 -17 18 -37t7 -42q0 -43 -24 -78l57 -58l-65 -66z" />
    <glyph glyph-name="yen" unicode="&#xa5;" horiz-adv-x="519" 
d="M157 0v136h-131v49h131v30h-131v48h131v62q-131 0 -131 130v184h208v-162q0 -2 2 -2h47q2 0 2 2v162h208v-184q0 -130 -128 -130v-62h131v-48h-131v-30h131v-49h-131v-136h-208z" />
    <glyph glyph-name="brokenbar" unicode="&#xa6;" horiz-adv-x="307" 
d="M211 333h-117v407h117v-407zM94 -101v403h117v-403h-117z" />
    <glyph glyph-name="section" unicode="&#xa7;" horiz-adv-x="543" 
d="M218 -199v161h107q19 0 19 19v57h-185q-72 0 -102.5 39.5t-30.5 113.5v297q0 74 30.5 112.5t109.5 38.5h159v-160h-107q-19 0 -19 -21v-57h184q71 0 102 -39.5t31 -112.5v-298q0 -73 -30 -111.5t-109 -38.5h-159zM344 252q0 20 -19 20h-126v-85q0 -20 19 -20h126v85z" />
    <glyph glyph-name="dieresis" unicode="&#xa8;" horiz-adv-x="389" 
d="M249 678v111h120v-111h-120zM19 678v111h120v-111h-120z" />
    <glyph glyph-name="ordfeminine" unicode="&#xaa;" horiz-adv-x="344" 
d="M186 562q0 1 -1 1h-26l-1 -1v-43h28v43zM186 300v131h-28v-131h-114v307q0 44 57 44h142q58 0 58 -44v-307h-115z" />
    <glyph glyph-name="guillemotleft" unicode="&#xab;" horiz-adv-x="396" 
d="M23 154zM23 272v84l152 121v-111l-71 -51l71 -49v-112zM221 272v84l152 121v-111l-71 -51l71 -49v-112z" />
    <glyph glyph-name="logicalnot" unicode="&#xac;" horiz-adv-x="649" 
d="M462 0v293h-426v114h542v-407h-116z" />
    <glyph glyph-name="macron" unicode="&#xaf;" horiz-adv-x="391" 
d="M20 695v87h350v-87h-350z" />
    <glyph glyph-name="degree" unicode="&#xb0;" horiz-adv-x="362" 
d="M257 568q0 33 -19.5 53t-52.5 20t-52.5 -20t-19.5 -53t19.5 -52t52.5 -19t52.5 19t19.5 52zM310 568q0 -57 -34.5 -90.5t-91.5 -33.5t-91 33.5t-34 90.5t34 91.5t91 34.5t91.5 -34.5t34.5 -91.5z" />
    <glyph glyph-name="plusminus" unicode="&#xb1;" horiz-adv-x="484" 
d="M38 0zM185 111v148h-147v120h147v147h120v-147h148v-120h-148v-148h-120zM38 -40v120h415v-120h-415z" />
    <glyph glyph-name="twosuperior" unicode="&#xb2;" horiz-adv-x="288" 
d="M27 330zM27 330v160q0 39 52 39h77l1 1v38q0 1 -1 1h-24l-1 -1v-18h-104v59q0 40 52 40h130q52 0 52 -40v-119q0 -41 -52 -41h-77l-1 -1v-39h26v20h104v-99h-234z" />
    <glyph glyph-name="threesuperior" unicode="&#xb3;" horiz-adv-x="287" 
d="M26 330zM78 330q-52 0 -52 39v60h104v-19l1 -1h23q1 0 1 1v47l-1 1h-127v63h127q1 0 1 1v46q0 1 -1 1h-23q-1 0 -1 -1v-18h-103v59q0 40 52 40h128q52 0 52 -40v-93q0 -23 -26 -26q26 -4 26 -27v-94q0 -39 -52 -39h-129z" />
    <glyph glyph-name="acute" unicode="&#xb4;" horiz-adv-x="319" 
d="M20 670v70l283 69v-106z" />
    <glyph glyph-name="paragraph" unicode="&#xb6;" horiz-adv-x="548" 
d="M388 -100v612h-120v-612h-136v486q-124 15 -124 130q0 26 8 48.5t27 39t48.5 26t73.5 9.5h358v-739h-135z" />
    <glyph glyph-name="periodcentered" unicode="&#xb7;" horiz-adv-x="260" 
d="M26 230v159h208v-159h-208z" />
    <glyph glyph-name="cedilla" unicode="&#xb8;" horiz-adv-x="171" 
d="M12 -199l27 171h120l-63 -171h-84z" />
    <glyph glyph-name="onesuperior" unicode="&#xb9;" horiz-adv-x="160" 
d="M28 330zM28 330v319h104v-319h-104z" />
    <glyph glyph-name="ordmasculine" unicode="&#xba;" horiz-adv-x="343" 
d="M186 562q0 1 -1 1h-26q-1 0 -1 -1v-173q0 -2 1 -2h26l1 2v173zM100 300q-57 0 -57 43v264q0 44 57 44h143q57 0 57 -44v-264q0 -43 -57 -43h-143z" />
    <glyph glyph-name="guillemotright" unicode="&#xbb;" horiz-adv-x="396" 
d="M23 154zM23 154v112l71 49l-71 51v111l152 -121v-84zM221 154v112l71 49l-71 51v111l152 -121v-84z" />
    <glyph glyph-name="onequarter" unicode="&#xbc;" horiz-adv-x="664" 
d="M24 0zM30 330v319h104v-319h-104zM24 -40l365 719h114l-367 -719h-112zM510 -10v89h-130v230h104v-150h26v150h104v-150h26v-80h-26v-89h-104z" />
    <glyph glyph-name="onehalf" unicode="&#xbd;" horiz-adv-x="631" 
d="M24 0zM30 330v319h104v-319h-104zM24 -40l365 719h114l-367 -719h-112zM373 -10v160q0 39 52 39h77l1 1v38q0 1 -1 1h-24l-1 -1v-18h-104v59q0 40 52 40h130q52 0 52 -40v-119q0 -41 -52 -41h-77l-1 -1v-39h26v20h104v-99h-234z" />
    <glyph glyph-name="threequarters" unicode="&#xbe;" horiz-adv-x="737" 
d="M25 0zM77 330q-52 0 -52 39v60h104v-19l1 -1h23q1 0 1 1v47l-1 1h-127v63h127q1 0 1 1v46q0 1 -1 1h-23q-1 0 -1 -1v-18h-103v59q0 40 52 40h128q52 0 52 -40v-93q0 -23 -26 -26q26 -4 26 -27v-94q0 -39 -52 -39h-129zM117 -40l365 719h114l-367 -719h-112zM583 -10v89
h-130v230h104v-150h26v150h104v-150h26v-80h-26v-89h-104z" />
    <glyph glyph-name="questiondown" unicode="&#xbf;" horiz-adv-x="500" 
d="M14 0zM473.002 639v-158.99h-207.987v158.99h207.987zM263.015 400.015q2 0 2 2v37.9971h207.987v-120.992q0 -78.9951 -103.994 -78.9951h-144.991q-2 0 -2 -2v-75.9951q0 -2 2 -2h46.9971q2 0 2 2v36.998h207.987v-117.993q0 -80.9951 -103.993 -80.9951h-258.984
q-103.994 0 -103.994 80.9951v237.985q0 80.9951 103.994 80.9951h144.991z" />
    <glyph glyph-name="Agrave" unicode="&#xc0;" horiz-adv-x="517" 
d="M25 0zM284 477q0 2 -2 2h-47q-2 0 -2 -2v-78h51v78zM284 0v239h-51v-239h-208v558q0 81 104 81h259q104 0 104 -81v-558h-208zM87 703v106l283 -69v-70z" />
    <glyph glyph-name="Aacute" unicode="&#xc1;" horiz-adv-x="517" 
d="M25 0zM284 477q0 2 -2 2h-47q-2 0 -2 -2v-78h51v78zM284 0v239h-51v-239h-208v558q0 81 104 81h259q104 0 104 -81v-558h-208zM147 670v70l283 69v-106z" />
    <glyph glyph-name="Acircumflex" unicode="&#xc2;" horiz-adv-x="517" 
d="M25 0zM284 477q0 2 -2 2h-47q-2 0 -2 -2v-78h51v78zM284 0v239h-51v-239h-208v558q0 81 104 81h259q104 0 104 -81v-558h-208zM313 670l-60 93l-55 -93h-113l101 139h143l102 -139h-118z" />
    <glyph glyph-name="Atilde" unicode="&#xc3;" horiz-adv-x="517" 
d="M25 0zM284 477q0 2 -2 2h-47q-2 0 -2 -2v-78h51v78zM284 0v239h-51v-239h-208v558q0 81 104 81h259q104 0 104 -81v-558h-208zM441 799q0 -62 -23.5 -93t-80.5 -31q-25 0 -47 7.5t-40.5 17t-35 17t-31.5 7.5q-16 0 -23.5 -10t-7.5 -39h-77q0 62 23.5 93t80.5 31
q24 0 45.5 -7.5t41 -17t36 -17t31.5 -7.5q16 0 23.5 10t7.5 39h77z" />
    <glyph glyph-name="Adieresis" unicode="&#xc4;" horiz-adv-x="517" 
d="M25 0zM284 477q0 2 -2 2h-47q-2 0 -2 -2v-78h51v78zM284 0v239h-51v-239h-208v558q0 81 104 81h259q104 0 104 -81v-558h-208zM313 678v111h120v-111h-120zM83 678v111h120v-111h-120z" />
    <glyph glyph-name="Aring" unicode="&#xc5;" horiz-adv-x="517" 
d="M25 0zM284 477q0 2 -2 2h-47q-2 0 -2 -2v-78h51v78zM284 0v239h-51v-239h-208v558q0 81 104 81h259q104 0 104 -81v-558h-208zM300 729q0 17 -11.5 27.5t-31.5 10.5t-31 -10.5t-11 -27.5t11 -28t31 -11t31.5 11t11.5 28zM345 729q0 -35 -23 -57.5t-65 -22.5t-64 22.5
t-22 57.5t22 57.5t64 22.5t65 -22.5t23 -57.5z" />
    <glyph glyph-name="AE" unicode="&#xc6;" horiz-adv-x="660" 
d="M128 0q-104 0 -104 79v241q0 79 104 79h155v80h-49q-2 0 -2 -2v-37h-208v118q0 81 104 81h507v-160h-144v-80h142v-160h-142v-80h145v-159h-508zM283 259h-49q-2 0 -2 -2v-96q0 -2 2 -2h49v100z" />
    <glyph glyph-name="Ccedilla" unicode="&#xc7;" 
d="M24 0zM128 0q-104 0 -104 79v479q0 81 104 81h259q104 0 104 -81v-189h-208v108q0 2 -2 2h-47q-2 0 -2 -2v-316q0 -2 2 -2h47q2 0 2 2v149h208v-231q0 -79 -104 -79h-259zM171 -199l27 171h120l-63 -171h-84z" />
    <glyph glyph-name="Egrave" unicode="&#xc8;" horiz-adv-x="403" 
d="M26 0zM26 0v639h352v-160h-144v-80h142v-160h-142v-80h145v-159h-353zM30 703v106l283 -69v-70z" />
    <glyph glyph-name="Eacute" unicode="&#xc9;" horiz-adv-x="403" 
d="M26 0zM26 0v639h352v-160h-144v-80h142v-160h-142v-80h145v-159h-353zM90 670v70l283 69v-106z" />
    <glyph glyph-name="Ecircumflex" unicode="&#xca;" horiz-adv-x="403" 
d="M26 0zM26 0v639h352v-160h-144v-80h142v-160h-142v-80h145v-159h-353zM256 670l-60 93l-55 -93h-113l101 139h143l102 -139h-118z" />
    <glyph glyph-name="Edieresis" unicode="&#xcb;" horiz-adv-x="403" 
d="M26 0zM26 0v639h352v-160h-144v-80h142v-160h-142v-80h145v-159h-353zM256 678v111h120v-111h-120zM26 678v111h120v-111h-120z" />
    <glyph glyph-name="Igrave" unicode="&#xcc;" horiz-adv-x="260" 
d="M0 0zM26 0v639h208v-639h-208zM-40 703v106l283 -69v-70z" />
    <glyph glyph-name="Iacute" unicode="&#xcd;" horiz-adv-x="260" 
d="M20 0zM26 0v639h208v-639h-208zM20 670v70l283 69v-106z" />
    <glyph glyph-name="Icircumflex" unicode="&#xce;" horiz-adv-x="260" 
d="M0 0zM26 0v639h208v-639h-208zM186 670l-60 93l-55 -93h-113l101 139h143l102 -139h-118z" />
    <glyph glyph-name="Idieresis" unicode="&#xcf;" horiz-adv-x="260" 
d="M0 0zM26 0v639h208v-639h-208zM186 678v111h120v-111h-120zM-44 678v111h120v-111h-120z" />
    <glyph glyph-name="Eth" unicode="&#xd0;" horiz-adv-x="517" 
d="M26 0v263h-26v116h26v260h363q104 0 104 -81v-479q0 -79 -104 -79h-363zM285 477q0 2 -2 2h-54v-100h29v-116h-29v-104h54q2 0 2 2v316z" />
    <glyph glyph-name="Ntilde" unicode="&#xd1;" horiz-adv-x="518" 
d="M26 0zM285 0v477q0 2 -2 2h-47q-2 0 -2 -2v-477h-208v639h208v-41q53 41 155 41q104 0 104 -81v-558h-208zM452 799q0 -62 -23.5 -93t-80.5 -31q-25 0 -47 7.5t-40.5 17t-35 17t-31.5 7.5q-16 0 -23.5 -10t-7.5 -39h-77q0 62 23.5 93t80.5 31q24 0 45.5 -7.5t41 -17
t36 -17t31.5 -7.5q16 0 23.5 10t7.5 39h77z" />
    <glyph glyph-name="Ograve" unicode="&#xd2;" 
d="M24 0zM283 477q0 2 -2 2h-47q-2 0 -2 -2v-316q0 -2 2 -2h47q2 0 2 2v316zM128 0q-104 0 -104 79v479q0 81 104 81h259q104 0 104 -81v-479q0 -79 -104 -79h-259zM86 703v106l283 -69v-70z" />
    <glyph glyph-name="Oacute" unicode="&#xd3;" 
d="M24 0zM283 477q0 2 -2 2h-47q-2 0 -2 -2v-316q0 -2 2 -2h47q2 0 2 2v316zM128 0q-104 0 -104 79v479q0 81 104 81h259q104 0 104 -81v-479q0 -79 -104 -79h-259zM146 670v70l283 69v-106z" />
    <glyph glyph-name="Ocircumflex" unicode="&#xd4;" 
d="M24 0zM283 477q0 2 -2 2h-47q-2 0 -2 -2v-316q0 -2 2 -2h47q2 0 2 2v316zM128 0q-104 0 -104 79v479q0 81 104 81h259q104 0 104 -81v-479q0 -79 -104 -79h-259zM312 670l-60 93l-55 -93h-113l101 139h143l102 -139h-118z" />
    <glyph glyph-name="Otilde" unicode="&#xd5;" 
d="M24 0zM283 477q0 2 -2 2h-47q-2 0 -2 -2v-316q0 -2 2 -2h47q2 0 2 2v316zM128 0q-104 0 -104 79v479q0 81 104 81h259q104 0 104 -81v-479q0 -79 -104 -79h-259zM440 799q0 -62 -23.5 -93t-80.5 -31q-25 0 -47 7.5t-40.5 17t-35 17t-31.5 7.5q-16 0 -23.5 -10t-7.5 -39
h-77q0 62 23.5 93t80.5 31q24 0 45.5 -7.5t41 -17t36 -17t31.5 -7.5q16 0 23.5 10t7.5 39h77z" />
    <glyph glyph-name="Odieresis" unicode="&#xd6;" 
d="M24 0zM283 477q0 2 -2 2h-47q-2 0 -2 -2v-316q0 -2 2 -2h47q2 0 2 2v316zM128 0q-104 0 -104 79v479q0 81 104 81h259q104 0 104 -81v-479q0 -79 -104 -79h-259zM312 678v111h120v-111h-120zM82 678v111h120v-111h-120z" />
    <glyph glyph-name="multiply" unicode="&#xd7;" horiz-adv-x="484" 
d="M349 129l-105 105l-104 -104l-85 85l104 104l-104 104l85 85l104 -104l105 104l85 -85l-105 -104l105 -105z" />
    <glyph glyph-name="Oslash" unicode="&#xd8;" 
d="M127 0l-34 -70l-45 18l28 58q-52 16 -52 73v479q0 81 104 81h259l40 82l46 -18l-35 -71q53 -17 53 -74v-479q0 -79 -104 -79h-260zM283 316l-51 -104v-51q0 -2 2 -2h47q2 0 2 2v155zM283 427v50q0 2 -2 2h-47q-2 0 -2 -2v-154z" />
    <glyph glyph-name="Ugrave" unicode="&#xd9;" horiz-adv-x="517" 
d="M25 0zM129 0q-104 0 -104 79v560h208v-478q0 -2 2 -2h47q2 0 2 2v478h208v-560q0 -79 -104 -79h-259zM87 703v106l283 -69v-70z" />
    <glyph glyph-name="Uacute" unicode="&#xda;" horiz-adv-x="517" 
d="M25 0zM129 0q-104 0 -104 79v560h208v-478q0 -2 2 -2h47q2 0 2 2v478h208v-560q0 -79 -104 -79h-259zM147 670v70l283 69v-106z" />
    <glyph glyph-name="Ucircumflex" unicode="&#xdb;" horiz-adv-x="517" 
d="M25 0zM129 0q-104 0 -104 79v560h208v-478q0 -2 2 -2h47q2 0 2 2v478h208v-560q0 -79 -104 -79h-259zM313 670l-60 93l-55 -93h-113l101 139h143l102 -139h-118z" />
    <glyph glyph-name="Udieresis" unicode="&#xdc;" horiz-adv-x="517" 
d="M25 0zM129 0q-104 0 -104 79v560h208v-478q0 -2 2 -2h47q2 0 2 2v478h208v-560q0 -79 -104 -79h-259zM313 678v111h120v-111h-120zM83 678v111h120v-111h-120z" />
    <glyph glyph-name="Yacute" unicode="&#xdd;" horiz-adv-x="501" 
d="M18 0zM149 0v228q-131 0 -131 130v281h208v-259q0 -2 2 -2h47q2 0 2 2v259h208v-281q0 -130 -128 -130v-228h-208zM139 670v70l283 69v-106z" />
    <glyph glyph-name="Thorn" unicode="&#xde;" horiz-adv-x="507" 
d="M285 359q0 2 -2 2h-49v-88h49q2 0 2 2v84zM234 117v-117h-208v639h208v-122h155q104 0 104 -81v-238q0 -81 -104 -81h-155z" />
    <glyph glyph-name="germandbls" unicode="&#xdf;" horiz-adv-x="1030" 
d="M24 0zM128 0q-104 0 -104 79v120h208v-38q0 -2 2 -2h47q2 0 2 2v76q0 2 -2 2h-153q-104 0 -104 81v238q0 81 104 81h259q104 0 104 -81v-118h-208v37q0 2 -2 2h-47q-2 0 -2 -2v-76q0 -2 2 -2h153q104 0 104 -79v-241q0 -79 -104 -79h-259zM643 0q-104 0 -104 79v120h208
v-38q0 -2 2 -2h47q2 0 2 2v76q0 2 -2 2h-153q-104 0 -104 81v238q0 81 104 81h259q104 0 104 -81v-118h-208v37q0 2 -2 2h-47q-2 0 -2 -2v-76q0 -2 2 -2h153q104 0 104 -79v-241q0 -79 -104 -79h-259z" />
    <glyph glyph-name="agrave" unicode="&#xe0;" horiz-adv-x="516" 
d="M24 0zM283 259h-49q-2 0 -2 -2v-96q0 -2 2 -2h49v100zM128 0q-104 0 -104 79v241q0 79 104 79h155v78q0 2 -2 2h-47q-2 0 -2 -2v-37h-208v118q0 81 104 81h259q104 0 104 -81v-558h-363zM86 703v106l283 -69v-70z" />
    <glyph glyph-name="aacute" unicode="&#xe1;" horiz-adv-x="516" 
d="M24 0zM283 259h-49q-2 0 -2 -2v-96q0 -2 2 -2h49v100zM128 0q-104 0 -104 79v241q0 79 104 79h155v78q0 2 -2 2h-47q-2 0 -2 -2v-37h-208v118q0 81 104 81h259q104 0 104 -81v-558h-363zM146 670v70l283 69v-106z" />
    <glyph glyph-name="acircumflex" unicode="&#xe2;" horiz-adv-x="516" 
d="M24 0zM283 259h-49q-2 0 -2 -2v-96q0 -2 2 -2h49v100zM128 0q-104 0 -104 79v241q0 79 104 79h155v78q0 2 -2 2h-47q-2 0 -2 -2v-37h-208v118q0 81 104 81h259q104 0 104 -81v-558h-363zM313 670l-60 93l-55 -93h-113l101 139h143l102 -139h-118z" />
    <glyph glyph-name="atilde" unicode="&#xe3;" horiz-adv-x="516" 
d="M24 0zM283 259h-49q-2 0 -2 -2v-96q0 -2 2 -2h49v100zM128 0q-104 0 -104 79v241q0 79 104 79h155v78q0 2 -2 2h-47q-2 0 -2 -2v-37h-208v118q0 81 104 81h259q104 0 104 -81v-558h-363zM441 799q0 -62 -23.5 -93t-80.5 -31q-25 0 -47 7.5t-40.5 17t-35 17t-31.5 7.5
q-16 0 -23.5 -10t-7.5 -39h-77q0 62 23.5 93t80.5 31q24 0 45.5 -7.5t41 -17t36 -17t31.5 -7.5q16 0 23.5 10t7.5 39h77z" />
    <glyph glyph-name="adieresis" unicode="&#xe4;" horiz-adv-x="516" 
d="M24 0zM283 259h-49q-2 0 -2 -2v-96q0 -2 2 -2h49v100zM128 0q-104 0 -104 79v241q0 79 104 79h155v78q0 2 -2 2h-47q-2 0 -2 -2v-37h-208v118q0 81 104 81h259q104 0 104 -81v-558h-363zM313 678v111h120v-111h-120zM83 678v111h120v-111h-120z" />
    <glyph glyph-name="aring" unicode="&#xe5;" horiz-adv-x="516" 
d="M24 0zM283 259h-49q-2 0 -2 -2v-96q0 -2 2 -2h49v100zM128 0q-104 0 -104 79v241q0 79 104 79h155v78q0 2 -2 2h-47q-2 0 -2 -2v-37h-208v118q0 81 104 81h259q104 0 104 -81v-558h-363zM300 729q0 17 -11.5 27.5t-31.5 10.5t-31 -10.5t-11 -27.5t11 -28t31 -11t31.5 11
t11.5 28zM345 729q0 -35 -23 -57.5t-65 -22.5t-64 22.5t-22 57.5t22 57.5t64 22.5t65 -22.5t23 -57.5z" />
    <glyph glyph-name="ae" unicode="&#xe6;" horiz-adv-x="660" 
d="M24 0zM128 0q-104 0 -104 79v241q0 79 104 79h155v80h-49q-2 0 -2 -2v-37h-208v118q0 81 104 81h507v-160h-144v-80h142v-160h-142v-80h145v-159h-508zM283 259h-49q-2 0 -2 -2v-96q0 -2 2 -2h49v100z" />
    <glyph glyph-name="ccedilla" unicode="&#xe7;" 
d="M24 0zM128 0q-104 0 -104 79v479q0 81 104 81h259q104 0 104 -81v-189h-208v108q0 2 -2 2h-47q-2 0 -2 -2v-316q0 -2 2 -2h47q2 0 2 2v149h208v-231q0 -79 -104 -79h-259zM171 -199l27 171h120l-63 -171h-84z" />
    <glyph glyph-name="egrave" unicode="&#xe8;" 
d="M24 0zM283 477q0 2 -2 2h-47q-2 0 -2 -2v-89h51v89zM128 0q-104 0 -104 79v479q0 81 104 81h259q104 0 104 -81v-319h-259v-78q0 -2 2 -2h47q2 0 2 2v38h208v-120q0 -79 -104 -79h-259zM86 703v106l283 -69v-70z" />
    <glyph glyph-name="eacute" unicode="&#xe9;" 
d="M24 0zM283 477q0 2 -2 2h-47q-2 0 -2 -2v-89h51v89zM128 0q-104 0 -104 79v479q0 81 104 81h259q104 0 104 -81v-319h-259v-78q0 -2 2 -2h47q2 0 2 2v38h208v-120q0 -79 -104 -79h-259zM146 670v70l283 69v-106z" />
    <glyph glyph-name="ecircumflex" unicode="&#xea;" 
d="M24 0zM283 477q0 2 -2 2h-47q-2 0 -2 -2v-89h51v89zM128 0q-104 0 -104 79v479q0 81 104 81h259q104 0 104 -81v-319h-259v-78q0 -2 2 -2h47q2 0 2 2v38h208v-120q0 -79 -104 -79h-259zM312 670l-60 93l-55 -93h-113l101 139h143l102 -139h-118z" />
    <glyph glyph-name="edieresis" unicode="&#xeb;" 
d="M24 0zM283 477q0 2 -2 2h-47q-2 0 -2 -2v-89h51v89zM128 0q-104 0 -104 79v479q0 81 104 81h259q104 0 104 -81v-319h-259v-78q0 -2 2 -2h47q2 0 2 2v38h208v-120q0 -79 -104 -79h-259zM312 678v111h120v-111h-120zM82 678v111h120v-111h-120z" />
    <glyph glyph-name="igrave" unicode="&#xec;" horiz-adv-x="260" 
d="M0 0zM26 0v639h208v-639h-208zM-40 703v106l283 -69v-70z" />
    <glyph glyph-name="iacute" unicode="&#xed;" horiz-adv-x="260" 
d="M20 0zM26 0v639h208v-639h-208zM20 670v70l283 69v-106z" />
    <glyph glyph-name="icircumflex" unicode="&#xee;" horiz-adv-x="260" 
d="M0 0zM26 0v639h208v-639h-208zM186 670l-60 93l-55 -93h-113l101 139h143l102 -139h-118z" />
    <glyph glyph-name="idieresis" unicode="&#xef;" horiz-adv-x="260" 
d="M0 0zM26 0v639h208v-639h-208zM186 678v111h120v-111h-120zM-44 678v111h120v-111h-120z" />
    <glyph glyph-name="eth" unicode="&#xf0;" 
d="M283 249h-49q-2 0 -2 -2v-86q0 -2 2 -2h47q2 0 2 2v88zM128 0q-104 0 -104 79v241q0 79 104 79h155v78q0 2 -2 2h-47q-2 0 -2 -2v-37h-208v118q0 81 104 81h259q104 0 104 -81v-479q0 -79 -104 -79h-259z" />
    <glyph glyph-name="ntilde" unicode="&#xf1;" horiz-adv-x="518" 
d="M26 0zM285 0v477q0 2 -2 2h-47q-2 0 -2 -2v-477h-208v639h208v-41q53 41 155 41q104 0 104 -81v-558h-208zM452 799q0 -62 -23.5 -93t-80.5 -31q-25 0 -47 7.5t-40.5 17t-35 17t-31.5 7.5q-16 0 -23.5 -10t-7.5 -39h-77q0 62 23.5 93t80.5 31q24 0 45.5 -7.5t41 -17
t36 -17t31.5 -7.5q16 0 23.5 10t7.5 39h77z" />
    <glyph glyph-name="ograve" unicode="&#xf2;" 
d="M24 0zM283 477q0 2 -2 2h-47q-2 0 -2 -2v-316q0 -2 2 -2h47q2 0 2 2v316zM128 0q-104 0 -104 79v479q0 81 104 81h259q104 0 104 -81v-479q0 -79 -104 -79h-259zM86 703v106l283 -69v-70z" />
    <glyph glyph-name="oacute" unicode="&#xf3;" 
d="M24 0zM283 477q0 2 -2 2h-47q-2 0 -2 -2v-316q0 -2 2 -2h47q2 0 2 2v316zM128 0q-104 0 -104 79v479q0 81 104 81h259q104 0 104 -81v-479q0 -79 -104 -79h-259zM146 670v70l283 69v-106z" />
    <glyph glyph-name="ocircumflex" unicode="&#xf4;" 
d="M24 0zM283 477q0 2 -2 2h-47q-2 0 -2 -2v-316q0 -2 2 -2h47q2 0 2 2v316zM128 0q-104 0 -104 79v479q0 81 104 81h259q104 0 104 -81v-479q0 -79 -104 -79h-259zM312 670l-60 93l-55 -93h-113l101 139h143l102 -139h-118z" />
    <glyph glyph-name="otilde" unicode="&#xf5;" 
d="M24 0zM283 477q0 2 -2 2h-47q-2 0 -2 -2v-316q0 -2 2 -2h47q2 0 2 2v316zM128 0q-104 0 -104 79v479q0 81 104 81h259q104 0 104 -81v-479q0 -79 -104 -79h-259zM440 799q0 -62 -23.5 -93t-80.5 -31q-25 0 -47 7.5t-40.5 17t-35 17t-31.5 7.5q-16 0 -23.5 -10t-7.5 -39
h-77q0 62 23.5 93t80.5 31q24 0 45.5 -7.5t41 -17t36 -17t31.5 -7.5q16 0 23.5 10t7.5 39h77z" />
    <glyph glyph-name="odieresis" unicode="&#xf6;" 
d="M24 0zM283 477q0 2 -2 2h-47q-2 0 -2 -2v-316q0 -2 2 -2h47q2 0 2 2v316zM128 0q-104 0 -104 79v479q0 81 104 81h259q104 0 104 -81v-479q0 -79 -104 -79h-259zM312 678v111h120v-111h-120zM82 678v111h120v-111h-120z" />
    <glyph glyph-name="divide" unicode="&#xf7;" horiz-adv-x="484" 
d="M38 39zM38 259v120h415v-120h-415zM138 439v159h208v-159h-208zM138 39v159h208v-159h-208z" />
    <glyph glyph-name="oslash" unicode="&#xf8;" 
d="M24 0zM127 0l-34 -70l-45 18l28 58q-52 16 -52 73v479q0 81 104 81h259l40 82l46 -18l-35 -71q53 -17 53 -74v-479q0 -79 -104 -79h-260zM283 316l-51 -104v-51q0 -2 2 -2h47q2 0 2 2v155zM283 427v50q0 2 -2 2h-47q-2 0 -2 -2v-154z" />
    <glyph glyph-name="ugrave" unicode="&#xf9;" horiz-adv-x="517" 
d="M25 0zM129 0q-104 0 -104 79v560h208v-478q0 -2 2 -2h47q2 0 2 2v478h208v-560q0 -79 -104 -79h-259zM87 703v106l283 -69v-70z" />
    <glyph glyph-name="uacute" unicode="&#xfa;" horiz-adv-x="517" 
d="M25 0zM129 0q-104 0 -104 79v560h208v-478q0 -2 2 -2h47q2 0 2 2v478h208v-560q0 -79 -104 -79h-259zM147 670v70l283 69v-106z" />
    <glyph glyph-name="ucircumflex" unicode="&#xfb;" horiz-adv-x="517" 
d="M25 0zM129 0q-104 0 -104 79v560h208v-478q0 -2 2 -2h47q2 0 2 2v478h208v-560q0 -79 -104 -79h-259zM313 670l-60 93l-55 -93h-113l101 139h143l102 -139h-118z" />
    <glyph glyph-name="udieresis" unicode="&#xfc;" horiz-adv-x="517" 
d="M25 0zM129 0q-104 0 -104 79v560h208v-478q0 -2 2 -2h47q2 0 2 2v478h208v-560q0 -79 -104 -79h-259zM313 678v111h120v-111h-120zM83 678v111h120v-111h-120z" />
    <glyph glyph-name="yacute" unicode="&#xfd;" horiz-adv-x="517" 
d="M24 0zM24 -199v159h257q2 0 2 2v38h-155q-104 0 -104 79v560h208v-478q0 -2 2 -2h49v480h208v-759q0 -79 -104 -79h-363zM147 670v70l283 69v-106z" />
    <glyph glyph-name="thorn" unicode="&#xfe;" horiz-adv-x="507" 
d="M26 0zM285 359q0 2 -2 2h-49v-88h49q2 0 2 2v84zM234 117v-117h-208v639h208v-122h155q104 0 104 -81v-238q0 -81 -104 -81h-155z" />
    <glyph glyph-name="ydieresis" unicode="&#xff;" horiz-adv-x="517" 
d="M24 0zM24 -199v159h257q2 0 2 2v38h-155q-104 0 -104 79v560h208v-478q0 -2 2 -2h49v480h208v-759q0 -79 -104 -79h-363zM313 678v111h120v-111h-120zM83 678v111h120v-111h-120z" />
    <glyph glyph-name="Amacron" unicode="&#x100;" horiz-adv-x="517" 
d="M25 0zM284 477q0 2 -2 2h-47q-2 0 -2 -2v-78h51v78zM284 0v239h-51v-239h-208v558q0 81 104 81h259q104 0 104 -81v-558h-208zM83 695v87h350v-87h-350z" />
    <glyph glyph-name="amacron" unicode="&#x101;" horiz-adv-x="516" 
d="M24 0zM283 259h-49q-2 0 -2 -2v-96q0 -2 2 -2h49v100zM128 0q-104 0 -104 79v241q0 79 104 79h155v78q0 2 -2 2h-47q-2 0 -2 -2v-37h-208v118q0 81 104 81h259q104 0 104 -81v-558h-363zM83 695v87h350v-87h-350z" />
    <glyph glyph-name="Abreve" unicode="&#x102;" horiz-adv-x="517" 
d="M25 0zM284 477q0 2 -2 2h-47q-2 0 -2 -2v-78h51v78zM284 0v239h-51v-239h-208v558q0 81 104 81h259q104 0 104 -81v-558h-208zM431 809q-5 -22 -14 -46.5t-28 -45t-51 -34t-83 -13.5q-46 0 -76.5 13.5t-49.5 33.5t-29 44.5t-15 47.5h106q7 -68 66 -68q30 0 47 15.5
t21 52.5h106z" />
    <glyph glyph-name="abreve" unicode="&#x103;" horiz-adv-x="516" 
d="M24 0zM283 259h-49q-2 0 -2 -2v-96q0 -2 2 -2h49v100zM128 0q-104 0 -104 79v241q0 79 104 79h155v78q0 2 -2 2h-47q-2 0 -2 -2v-37h-208v118q0 81 104 81h259q104 0 104 -81v-558h-363zM431 809q-5 -22 -14 -46.5t-28 -45t-51 -34t-83 -13.5q-46 0 -76.5 13.5
t-49.5 33.5t-29 44.5t-15 47.5h106q7 -68 66 -68q30 0 47 15.5t21 52.5h106z" />
    <glyph glyph-name="Aogonek" unicode="&#x104;" horiz-adv-x="517" 
d="M381 -199q-89 0 -89 87t163 112h-171v239h-51v-239h-208v558q0 81 104 81h259q104 0 104 -81v-558q-91 -37 -91 -63q0 -17 18 -17h73v-119h-111zM284 477q0 2 -2 2h-47q-2 0 -2 -2v-78h51v78z" />
    <glyph glyph-name="aogonek" unicode="&#x105;" horiz-adv-x="516" 
d="M380 -199q-89 0 -89 87t163 112h-326q-104 0 -104 79v241q0 79 104 79h155v78q0 2 -2 2h-47q-2 0 -2 -2v-37h-208v118q0 81 104 81h259q104 0 104 -81v-558q-91 -37 -91 -63q0 -17 18 -17h73v-119h-111zM283 259h-49q-2 0 -2 -2v-96q0 -2 2 -2h49v100z" />
    <glyph glyph-name="Cacute" unicode="&#x106;" 
d="M24 0zM128 0q-104 0 -104 79v479q0 81 104 81h259q104 0 104 -81v-189h-208v108q0 2 -2 2h-47q-2 0 -2 -2v-316q0 -2 2 -2h47q2 0 2 2v149h208v-231q0 -79 -104 -79h-259zM146 670v70l283 69v-106z" />
    <glyph glyph-name="cacute" unicode="&#x107;" 
d="M24 0zM128 0q-104 0 -104 79v479q0 81 104 81h259q104 0 104 -81v-189h-208v108q0 2 -2 2h-47q-2 0 -2 -2v-316q0 -2 2 -2h47q2 0 2 2v149h208v-231q0 -79 -104 -79h-259zM146 670v70l283 69v-106z" />
    <glyph glyph-name="Cdotaccent" unicode="&#x10a;" 
d="M24 0zM128 0q-104 0 -104 79v479q0 81 104 81h259q104 0 104 -81v-189h-208v108q0 2 -2 2h-47q-2 0 -2 -2v-316q0 -2 2 -2h47q2 0 2 2v149h208v-231q0 -79 -104 -79h-259zM197 678v111h120v-111h-120z" />
    <glyph glyph-name="cdotaccent" unicode="&#x10b;" 
d="M24 0zM128 0q-104 0 -104 79v479q0 81 104 81h259q104 0 104 -81v-189h-208v108q0 2 -2 2h-47q-2 0 -2 -2v-316q0 -2 2 -2h47q2 0 2 2v149h208v-231q0 -79 -104 -79h-259zM197 678v111h120v-111h-120z" />
    <glyph glyph-name="Ccaron" unicode="&#x10c;" 
d="M24 0zM128 0q-104 0 -104 79v479q0 81 104 81h259q104 0 104 -81v-189h-208v108q0 2 -2 2h-47q-2 0 -2 -2v-316q0 -2 2 -2h47q2 0 2 2v149h208v-231q0 -79 -104 -79h-259zM234 657l-130 152h118l40 -63l35 63h113l-122 -152h-54z" />
    <glyph glyph-name="ccaron" unicode="&#x10d;" 
d="M24 0zM128 0q-104 0 -104 79v479q0 81 104 81h259q104 0 104 -81v-189h-208v108q0 2 -2 2h-47q-2 0 -2 -2v-316q0 -2 2 -2h47q2 0 2 2v149h208v-231q0 -79 -104 -79h-259zM234 657l-130 152h118l40 -63l35 63h113l-122 -152h-54z" />
    <glyph glyph-name="Dcaron" unicode="&#x10e;" horiz-adv-x="517" 
d="M26 0zM285 477q0 2 -2 2h-49v-320h49q2 0 2 2v316zM26 0v639h363q104 0 104 -81v-479q0 -79 -104 -79h-363zM234 657l-130 152h118l40 -63l35 63h113l-122 -152h-54z" />
    <glyph glyph-name="dcaron" unicode="&#x10f;" horiz-adv-x="724" 
d="M24 0zM128 0q-54 0 -79 19.5t-25 59.5v479q0 81 104 81h155v160h208v-799h-363zM283 479h-49q-2 0 -2 -2v-316q0 -2 2 -2h49v320zM516 520v80h102q2 0 2 2v38h-104v159h208v-199q0 -80 -104 -80h-104z" />
    <glyph glyph-name="Dcroat" unicode="&#x110;" horiz-adv-x="517" 
d="M0 0zM26 0v263h-26v116h26v260h363q104 0 104 -81v-479q0 -79 -104 -79h-363zM285 477q0 2 -2 2h-54v-100h29v-116h-29v-104h54q2 0 2 2v316z" />
    <glyph glyph-name="dcroat" unicode="&#x111;" horiz-adv-x="517" 
d="M128 0q-54 0 -79 19.5t-25 59.5v479q0 81 104 81h155v36h-116v87h116v37h208v-37h26v-87h-26v-675h-363zM283 479h-49q-2 0 -2 -2v-316q0 -2 2 -2h49v320z" />
    <glyph glyph-name="Emacron" unicode="&#x112;" horiz-adv-x="403" 
d="M26 0zM26 0v639h352v-160h-144v-80h142v-160h-142v-80h145v-159h-353zM26 695v87h350v-87h-350z" />
    <glyph glyph-name="emacron" unicode="&#x113;" 
d="M24 0zM283 477q0 2 -2 2h-47q-2 0 -2 -2v-89h51v89zM128 0q-104 0 -104 79v479q0 81 104 81h259q104 0 104 -81v-319h-259v-78q0 -2 2 -2h47q2 0 2 2v38h208v-120q0 -79 -104 -79h-259zM82 695v87h350v-87h-350z" />
    <glyph glyph-name="Ebreve" unicode="&#x114;" horiz-adv-x="403" 
d="M26 0zM26 0v639h352v-160h-144v-80h142v-160h-142v-80h145v-159h-353zM381 809q-5 -22 -14 -46.5t-28 -45t-51 -34t-83 -13.5q-46 0 -76.5 13.5t-49.5 33.5t-29 44.5t-15 47.5h106q7 -68 66 -68q30 0 47 15.5t21 52.5h106z" />
    <glyph glyph-name="ebreve" unicode="&#x115;" 
d="M24 0zM283 477q0 2 -2 2h-47q-2 0 -2 -2v-89h51v89zM128 0q-104 0 -104 79v479q0 81 104 81h259q104 0 104 -81v-319h-259v-78q0 -2 2 -2h47q2 0 2 2v38h208v-120q0 -79 -104 -79h-259zM430 809q-5 -22 -14 -46.5t-28 -45t-51 -34t-83 -13.5q-46 0 -76.5 13.5t-49.5 33.5
t-29 44.5t-15 47.5h106q7 -68 66 -68q30 0 47 15.5t21 52.5h106z" />
    <glyph glyph-name="Edotaccent" unicode="&#x116;" horiz-adv-x="403" 
d="M26 0zM26 0v639h352v-160h-144v-80h142v-160h-142v-80h145v-159h-353zM141 678v111h120v-111h-120z" />
    <glyph glyph-name="edotaccent" unicode="&#x117;" 
d="M24 0zM283 477q0 2 -2 2h-47q-2 0 -2 -2v-89h51v89zM128 0q-104 0 -104 79v479q0 81 104 81h259q104 0 104 -81v-319h-259v-78q0 -2 2 -2h47q2 0 2 2v38h208v-120q0 -79 -104 -79h-259zM197 678v111h120v-111h-120z" />
    <glyph glyph-name="Eogonek" unicode="&#x118;" horiz-adv-x="403" 
d="M268 -199q-89 0 -89 87t163 112h-316v639h352v-160h-144v-80h142v-160h-142v-80h145v-159q-91 -37 -91 -63q0 -17 18 -17h73v-119h-111z" />
    <glyph glyph-name="eogonek" unicode="&#x119;" 
d="M290 -199q-89 0 -89 87t163 112h-236q-104 0 -104 79v479q0 81 104 81h259q104 0 104 -81v-319h-259v-78q0 -2 2 -2h47q2 0 2 2v38h208v-120q0 -38 -23 -57.5t-67 -21.5q-91 -37 -91 -63q0 -17 18 -17h73v-119h-111zM283 477q0 2 -2 2h-47q-2 0 -2 -2v-89h51v89z" />
    <glyph glyph-name="Ecaron" unicode="&#x11a;" horiz-adv-x="403" 
d="M26 0zM26 0v639h352v-160h-144v-80h142v-160h-142v-80h145v-159h-353zM178 657l-130 152h118l40 -63l35 63h113l-122 -152h-54z" />
    <glyph glyph-name="ecaron" unicode="&#x11b;" 
d="M24 0zM283 477q0 2 -2 2h-47q-2 0 -2 -2v-89h51v89zM128 0q-104 0 -104 79v479q0 81 104 81h259q104 0 104 -81v-319h-259v-78q0 -2 2 -2h47q2 0 2 2v38h208v-120q0 -79 -104 -79h-259zM234 657l-130 152h118l40 -63l35 63h113l-122 -152h-54z" />
    <glyph glyph-name="Gbreve" unicode="&#x11e;" horiz-adv-x="516" 
d="M24 0zM128 0q-104 0 -104 79v479q0 81 104 81h259q104 0 104 -81v-108h-208v27q0 2 -2 2h-47q-2 0 -2 -2v-316q0 -2 2 -2h49v232h208v-391h-363zM431 809q-5 -22 -14 -46.5t-28 -45t-51 -34t-83 -13.5q-46 0 -76.5 13.5t-49.5 33.5t-29 44.5t-15 47.5h106q7 -68 66 -68
q30 0 47 15.5t21 52.5h106z" />
    <glyph glyph-name="gbreve" unicode="&#x11f;" horiz-adv-x="517" 
d="M24 0zM24 -199v159h257q2 0 2 2v38h-155q-104 0 -104 79v479q0 81 104 81h363v-759q0 -79 -104 -79h-363zM283 479h-49q-2 0 -2 -2v-316q0 -2 2 -2h49v320zM431 809q-5 -22 -14 -46.5t-28 -45t-51 -34t-83 -13.5q-46 0 -76.5 13.5t-49.5 33.5t-29 44.5t-15 47.5h106
q7 -68 66 -68q30 0 47 15.5t21 52.5h106z" />
    <glyph glyph-name="Gdotaccent" unicode="&#x120;" horiz-adv-x="516" 
d="M24 0zM128 0q-104 0 -104 79v479q0 81 104 81h259q104 0 104 -81v-108h-208v27q0 2 -2 2h-47q-2 0 -2 -2v-316q0 -2 2 -2h49v232h208v-391h-363zM198 678v111h120v-111h-120z" />
    <glyph glyph-name="gdotaccent" unicode="&#x121;" horiz-adv-x="517" 
d="M24 0zM24 -199v159h257q2 0 2 2v38h-155q-104 0 -104 79v479q0 81 104 81h363v-759q0 -79 -104 -79h-363zM283 479h-49q-2 0 -2 -2v-316q0 -2 2 -2h49v320zM198 678v111h120v-111h-120z" />
    <glyph glyph-name="Gcommaaccent" unicode="&#x122;" horiz-adv-x="516" 
d="M24 0zM128 0q-104 0 -104 79v479q0 81 104 81h259q104 0 104 -81v-108h-208v27q0 2 -2 2h-47q-2 0 -2 -2v-316q0 -2 2 -2h49v232h208v-391h-363zM174 -199l27 171h120l-63 -171h-84z" />
    <glyph glyph-name="gcommaaccent" unicode="&#x123;" horiz-adv-x="516" 
d="M24 0zM128 0q-104 0 -104 79v479q0 81 104 81h259q104 0 104 -81v-108h-208v27q0 2 -2 2h-47q-2 0 -2 -2v-316q0 -2 2 -2h49v232h208v-391h-363zM174 -199l27 171h120l-63 -171h-84z" />
    <glyph glyph-name="Hbar" unicode="&#x126;" horiz-adv-x="519" 
d="M285 0v246h-51v-246h-208v639h208v-84h51v84h208v-639h-208zM285 393v75h-51v-75h51z" />
    <glyph glyph-name="hbar" unicode="&#x127;" horiz-adv-x="518" 
d="M234 674v-35h155q104 0 104 -81v-558h-208v477q0 2 -2 2h-49v-479h-208v674h-26v87h26v38h208v-38h116v-87h-116z" />
    <glyph glyph-name="uni012A" unicode="&#x12a;" horiz-adv-x="260" 
d="M0 0zM26 0v639h208v-639h-208zM-44 695v87h350v-87h-350z" />
    <glyph glyph-name="imacron" unicode="&#x12b;" horiz-adv-x="260" 
d="M0 0zM26 0v639h208v-639h-208zM-44 695v87h350v-87h-350z" />
    <glyph glyph-name="Ibreve" unicode="&#x12c;" horiz-adv-x="260" 
d="M0 0zM26 0v639h208v-639h-208zM304 809q-5 -22 -14 -46.5t-28 -45t-51 -34t-83 -13.5q-46 0 -76.5 13.5t-49.5 33.5t-29 44.5t-15 47.5h106q7 -68 66 -68q30 0 47 15.5t21 52.5h106z" />
    <glyph glyph-name="ibreve" unicode="&#x12d;" horiz-adv-x="260" 
d="M0 0zM26 0v639h208v-639h-208zM304 809q-5 -22 -14 -46.5t-28 -45t-51 -34t-83 -13.5q-46 0 -76.5 13.5t-49.5 33.5t-29 44.5t-15 47.5h106q7 -68 66 -68q30 0 47 15.5t21 52.5h106z" />
    <glyph glyph-name="Iogonek" unicode="&#x12e;" horiz-adv-x="260" 
d="M123 -199q-89 0 -89 87t163 112h-171v639h208v-639q-91 -37 -91 -63q0 -17 18 -17h73v-119h-111z" />
    <glyph glyph-name="iogonek" unicode="&#x12f;" horiz-adv-x="260" 
d="M26 0zM123 -199q-89 0 -89 87t163 112h-171v639h208v-639q-91 -37 -91 -63q0 -17 18 -17h73v-119h-111z" />
    <glyph glyph-name="Idotaccent" unicode="&#x130;" horiz-adv-x="260" 
d="M26 0zM26 0v639h208v-639h-208zM70 678v111h120v-111h-120z" />
    <glyph glyph-name="dotlessi" unicode="&#x131;" horiz-adv-x="260" 
d="M26 0v639h208v-639h-208z" />
    <glyph glyph-name="IJ" unicode="&#x132;" horiz-adv-x="770" 
d="M26 0zM26 0v639h208v-639h-208zM382 0q-104 0 -104 79v241h208v-159q0 -2 2 -2h47q2 0 2 2v478h208v-560q0 -79 -104 -79h-259z" />
    <glyph glyph-name="ij" unicode="&#x133;" horiz-adv-x="770" 
d="M26 0zM26 0v639h208v-639h-208zM382 0q-104 0 -104 79v241h208v-159q0 -2 2 -2h47q2 0 2 2v478h208v-560q0 -79 -104 -79h-259z" />
    <glyph glyph-name="Kcommaaccent" unicode="&#x136;" horiz-adv-x="512" 
d="M26 0zM295 0l-68 171v-171h-201v639h201v-163l62 163h219l-143 -308l149 -331h-219zM172 -199l27 171h120l-63 -171h-84z" />
    <glyph glyph-name="kcommaaccent" unicode="&#x137;" horiz-adv-x="512" 
d="M26 0zM295 0l-68 171v-171h-201v639h201v-163l62 163h219l-143 -308l149 -331h-219zM172 -199l27 171h120l-63 -171h-84z" />
    <glyph glyph-name="Lacute" unicode="&#x139;" horiz-adv-x="384" 
d="M26 0zM26 0v639h208v-480h135v-159h-343zM30 670v70l283 69v-106z" />
    <glyph glyph-name="lacute" unicode="&#x13a;" horiz-adv-x="384" 
d="M26 0zM26 0v639h208v-480h135v-159h-343zM30 670v70l283 69v-106z" />
    <glyph glyph-name="Lcommaaccent" unicode="&#x13b;" horiz-adv-x="384" 
d="M26 0zM26 0v639h208v-480h135v-159h-343zM113 -199l27 171h120l-63 -171h-84z" />
    <glyph glyph-name="lcommaaccent" unicode="&#x13c;" horiz-adv-x="384" 
d="M26 0zM26 0v639h208v-480h135v-159h-343zM113 -199l27 171h120l-63 -171h-84z" />
    <glyph glyph-name="Lcaron" unicode="&#x13d;" horiz-adv-x="469" 
d="M26 0zM26 0v639h208v-480h135v-159h-343zM261 520v80h102q2 0 2 2v38h-104v159h208v-199q0 -80 -104 -80h-104z" />
    <glyph glyph-name="lcaron" unicode="&#x13e;" horiz-adv-x="469" 
d="M26 0zM26 0v639h208v-480h135v-159h-343zM261 520v80h102q2 0 2 2v38h-104v159h208v-199q0 -80 -104 -80h-104z" />
    <glyph glyph-name="Ldot" unicode="&#x13f;" horiz-adv-x="384" 
d="M26 0zM26 0v639h208v-480h135v-159h-343zM255 320v111h120v-111h-120z" />
    <glyph glyph-name="ldot" unicode="&#x140;" horiz-adv-x="384" 
d="M26 0zM26 0v639h208v-480h135v-159h-343zM255 320v111h120v-111h-120z" />
    <glyph glyph-name="Lslash" unicode="&#x141;" horiz-adv-x="382" 
d="M26 0v259l-26 -8v104l26 8v276h208v-216l72 21v-104l-72 -21v-160h135v-159h-343z" />
    <glyph glyph-name="lslash" unicode="&#x142;" horiz-adv-x="382" 
d="M0 0zM26 0v259l-26 -8v104l26 8v276h208v-216l72 21v-104l-72 -21v-160h135v-159h-343z" />
    <glyph glyph-name="Nacute" unicode="&#x143;" horiz-adv-x="518" 
d="M26 0zM285 0v477q0 2 -2 2h-47q-2 0 -2 -2v-477h-208v639h208v-41q53 41 155 41q104 0 104 -81v-558h-208zM147 670v70l283 69v-106z" />
    <glyph glyph-name="nacute" unicode="&#x144;" horiz-adv-x="518" 
d="M26 0zM285 0v477q0 2 -2 2h-47q-2 0 -2 -2v-477h-208v639h208v-41q53 41 155 41q104 0 104 -81v-558h-208zM147 670v70l283 69v-106z" />
    <glyph glyph-name="Ncommaaccent" unicode="&#x145;" horiz-adv-x="518" 
d="M26 0zM285 0v477q0 2 -2 2h-47q-2 0 -2 -2v-477h-208v639h208v-41q53 41 155 41q104 0 104 -81v-558h-208zM173 -199l27 171h120l-63 -171h-84z" />
    <glyph glyph-name="ncommaaccent" unicode="&#x146;" horiz-adv-x="518" 
d="M26 0zM285 0v477q0 2 -2 2h-47q-2 0 -2 -2v-477h-208v639h208v-41q53 41 155 41q104 0 104 -81v-558h-208zM173 -199l27 171h120l-63 -171h-84z" />
    <glyph glyph-name="Ncaron" unicode="&#x147;" horiz-adv-x="518" 
d="M26 0zM285 0v477q0 2 -2 2h-47q-2 0 -2 -2v-477h-208v639h208v-41q53 41 155 41q104 0 104 -81v-558h-208zM236 657l-130 152h118l40 -63l35 63h113l-122 -152h-54z" />
    <glyph glyph-name="ncaron" unicode="&#x148;" horiz-adv-x="518" 
d="M26 0zM285 0v477q0 2 -2 2h-47q-2 0 -2 -2v-477h-208v639h208v-41q53 41 155 41q104 0 104 -81v-558h-208zM236 657l-130 152h118l40 -63l35 63h113l-122 -152h-54z" />
    <glyph glyph-name="Eng" unicode="&#x14a;" horiz-adv-x="518" 
d="M493 -120q0 -79 -104 -79h-363v159h257q2 0 2 2v515q0 2 -2 2h-47q-2 0 -2 -2v-477h-208v639h208v-41q53 41 155 41q104 0 104 -81v-678z" />
    <glyph glyph-name="eng" unicode="&#x14b;" horiz-adv-x="518" 
d="M26 0zM493 -120q0 -79 -104 -79h-363v159h257q2 0 2 2v515q0 2 -2 2h-47q-2 0 -2 -2v-477h-208v639h208v-41q53 41 155 41q104 0 104 -81v-678z" />
    <glyph glyph-name="Omacron" unicode="&#x14c;" 
d="M24 0zM283 477q0 2 -2 2h-47q-2 0 -2 -2v-316q0 -2 2 -2h47q2 0 2 2v316zM128 0q-104 0 -104 79v479q0 81 104 81h259q104 0 104 -81v-479q0 -79 -104 -79h-259zM82 695v87h350v-87h-350z" />
    <glyph glyph-name="omacron" unicode="&#x14d;" 
d="M24 0zM283 477q0 2 -2 2h-47q-2 0 -2 -2v-316q0 -2 2 -2h47q2 0 2 2v316zM128 0q-104 0 -104 79v479q0 81 104 81h259q104 0 104 -81v-479q0 -79 -104 -79h-259zM82 695v87h350v-87h-350z" />
    <glyph glyph-name="Obreve" unicode="&#x14e;" 
d="M24 0zM283 477q0 2 -2 2h-47q-2 0 -2 -2v-316q0 -2 2 -2h47q2 0 2 2v316zM128 0q-104 0 -104 79v479q0 81 104 81h259q104 0 104 -81v-479q0 -79 -104 -79h-259zM430 809q-5 -22 -14 -46.5t-28 -45t-51 -34t-83 -13.5q-46 0 -76.5 13.5t-49.5 33.5t-29 44.5t-15 47.5h106
q7 -68 66 -68q30 0 47 15.5t21 52.5h106z" />
    <glyph glyph-name="obreve" unicode="&#x14f;" 
d="M24 0zM283 477q0 2 -2 2h-47q-2 0 -2 -2v-316q0 -2 2 -2h47q2 0 2 2v316zM128 0q-104 0 -104 79v479q0 81 104 81h259q104 0 104 -81v-479q0 -79 -104 -79h-259zM430 809q-5 -22 -14 -46.5t-28 -45t-51 -34t-83 -13.5q-46 0 -76.5 13.5t-49.5 33.5t-29 44.5t-15 47.5h106
q7 -68 66 -68q30 0 47 15.5t21 52.5h106z" />
    <glyph glyph-name="Ohungarumlaut" unicode="&#x150;" 
d="M24 0zM283 477q0 2 -2 2h-47q-2 0 -2 -2v-316q0 -2 2 -2h47q2 0 2 2v316zM128 0q-104 0 -104 79v479q0 81 104 81h259q104 0 104 -81v-479q0 -79 -104 -79h-259zM295 670l43 138h90l-53 -138h-80zM136 670l43 138h91l-53 -138h-81z" />
    <glyph glyph-name="ohungarumlaut" unicode="&#x151;" 
d="M24 0zM283 477q0 2 -2 2h-47q-2 0 -2 -2v-316q0 -2 2 -2h47q2 0 2 2v316zM128 0q-104 0 -104 79v479q0 81 104 81h259q104 0 104 -81v-479q0 -79 -104 -79h-259zM295 670l43 138h90l-53 -138h-80zM136 670l43 138h91l-53 -138h-81z" />
    <glyph glyph-name="OE" unicode="&#x152;" horiz-adv-x="660" 
d="M128 0q-104 0 -104 79v479q0 81 104 81h507v-160h-144v-80h142v-160h-142v-80h145v-159h-508zM283 479h-49q-2 0 -2 -2v-316q0 -2 2 -2h49v320z" />
    <glyph glyph-name="oe" unicode="&#x153;" horiz-adv-x="660" 
d="M24 0zM128 0q-104 0 -104 79v479q0 81 104 81h507v-160h-144v-80h142v-160h-142v-80h145v-159h-508zM283 479h-49q-2 0 -2 -2v-316q0 -2 2 -2h49v320z" />
    <glyph glyph-name="Racute" unicode="&#x154;" horiz-adv-x="518" 
d="M26 0zM285 0v254q0 2 -2 2h-49v-256h-208v639h363q103 0 103 -81v-186q0 -46 -51 -52q52 -7 52 -53v-267h-208zM285 477q0 2 -2 2h-49v-96h49q2 0 2 2v92zM147 670v70l283 69v-106z" />
    <glyph glyph-name="racute" unicode="&#x155;" horiz-adv-x="518" 
d="M26 0zM285 0v254q0 2 -2 2h-49v-256h-208v639h363q103 0 103 -81v-186q0 -46 -51 -52q52 -7 52 -53v-267h-208zM285 477q0 2 -2 2h-49v-96h49q2 0 2 2v92zM147 670v70l283 69v-106z" />
    <glyph glyph-name="Rcommaaccent" unicode="&#x156;" horiz-adv-x="518" 
d="M26 0zM285 0v254q0 2 -2 2h-49v-256h-208v639h363q103 0 103 -81v-186q0 -46 -51 -52q52 -7 52 -53v-267h-208zM285 477q0 2 -2 2h-49v-96h49q2 0 2 2v92zM178 -199l27 171h120l-63 -171h-84z" />
    <glyph glyph-name="rcommaaccent" unicode="&#x157;" horiz-adv-x="518" 
d="M26 0zM285 0v254q0 2 -2 2h-49v-256h-208v639h363q103 0 103 -81v-186q0 -46 -51 -52q52 -7 52 -53v-267h-208zM285 477q0 2 -2 2h-49v-96h49q2 0 2 2v92zM178 -199l27 171h120l-63 -171h-84z" />
    <glyph glyph-name="Rcaron" unicode="&#x158;" horiz-adv-x="518" 
d="M26 0zM285 0v254q0 2 -2 2h-49v-256h-208v639h363q103 0 103 -81v-186q0 -46 -51 -52q52 -7 52 -53v-267h-208zM285 477q0 2 -2 2h-49v-96h49q2 0 2 2v92zM236 657l-130 152h118l40 -63l35 63h113l-122 -152h-54z" />
    <glyph glyph-name="rcaron" unicode="&#x159;" horiz-adv-x="518" 
d="M26 0zM285 0v254q0 2 -2 2h-49v-256h-208v639h363q103 0 103 -81v-186q0 -46 -51 -52q52 -7 52 -53v-267h-208zM285 477q0 2 -2 2h-49v-96h49q2 0 2 2v92zM236 657l-130 152h118l40 -63l35 63h113l-122 -152h-54z" />
    <glyph glyph-name="Sacute" unicode="&#x15a;" 
d="M24 0zM128 0q-104 0 -104 79v120h208v-38q0 -2 2 -2h47q2 0 2 2v76q0 2 -2 2h-153q-104 0 -104 81v238q0 81 104 81h259q104 0 104 -81v-118h-208v37q0 2 -2 2h-47q-2 0 -2 -2v-76q0 -2 2 -2h153q104 0 104 -79v-241q0 -79 -104 -79h-259zM146 670v70l283 69v-106z" />
    <glyph glyph-name="sacute" unicode="&#x15b;" 
d="M24 0zM128 0q-104 0 -104 79v120h208v-38q0 -2 2 -2h47q2 0 2 2v76q0 2 -2 2h-153q-104 0 -104 81v238q0 81 104 81h259q104 0 104 -81v-118h-208v37q0 2 -2 2h-47q-2 0 -2 -2v-76q0 -2 2 -2h153q104 0 104 -79v-241q0 -79 -104 -79h-259zM146 670v70l283 69v-106z" />
    <glyph glyph-name="Scedilla" unicode="&#x15e;" 
d="M24 0zM128 0q-104 0 -104 79v120h208v-38q0 -2 2 -2h47q2 0 2 2v76q0 2 -2 2h-153q-104 0 -104 81v238q0 81 104 81h259q104 0 104 -81v-118h-208v37q0 2 -2 2h-47q-2 0 -2 -2v-76q0 -2 2 -2h153q104 0 104 -79v-241q0 -79 -104 -79h-259zM184 -199l27 171h120l-63 -171
h-84z" />
    <glyph glyph-name="scedilla" unicode="&#x15f;" 
d="M24 0zM128 0q-104 0 -104 79v120h208v-38q0 -2 2 -2h47q2 0 2 2v76q0 2 -2 2h-153q-104 0 -104 81v238q0 81 104 81h259q104 0 104 -81v-118h-208v37q0 2 -2 2h-47q-2 0 -2 -2v-76q0 -2 2 -2h153q104 0 104 -79v-241q0 -79 -104 -79h-259zM184 -199l27 171h120l-63 -171
h-84z" />
    <glyph glyph-name="Scaron" unicode="&#x160;" 
d="M24 0zM128 0q-104 0 -104 79v120h208v-38q0 -2 2 -2h47q2 0 2 2v76q0 2 -2 2h-153q-104 0 -104 81v238q0 81 104 81h259q104 0 104 -81v-118h-208v37q0 2 -2 2h-47q-2 0 -2 -2v-76q0 -2 2 -2h153q104 0 104 -79v-241q0 -79 -104 -79h-259zM234 657l-130 152h118l40 -63
l35 63h113l-122 -152h-54z" />
    <glyph glyph-name="scaron" unicode="&#x161;" 
d="M24 0zM128 0q-104 0 -104 79v120h208v-38q0 -2 2 -2h47q2 0 2 2v76q0 2 -2 2h-153q-104 0 -104 81v238q0 81 104 81h259q104 0 104 -81v-118h-208v37q0 2 -2 2h-47q-2 0 -2 -2v-76q0 -2 2 -2h153q104 0 104 -79v-241q0 -79 -104 -79h-259zM234 657l-130 152h118l40 -63
l35 63h113l-122 -152h-54z" />
    <glyph glyph-name="Tcommaaccent" unicode="&#x162;" horiz-adv-x="549" 
d="M6 0zM161 0q-104 0 -104 79v361h-51v158h51v41h208v-41h259v-158h-259v-279q0 -2 2 -2h48q2 0 2 2v238h207v-320q0 -79 -104 -79h-259zM207 -199l27 171h120l-63 -171h-84z" />
    <glyph glyph-name="tcommaaccent" unicode="&#x163;" horiz-adv-x="549" 
d="M6 0zM161 0q-104 0 -104 79v361h-51v158h51v41h208v-41h259v-158h-259v-279q0 -2 2 -2h48q2 0 2 2v238h207v-320q0 -79 -104 -79h-259zM207 -199l27 171h120l-63 -171h-84z" />
    <glyph glyph-name="Tcaron" unicode="&#x164;" horiz-adv-x="549" 
d="M6 0zM161 0q-104 0 -104 79v361h-51v158h51v41h208v-41h259v-158h-259v-279q0 -2 2 -2h48q2 0 2 2v238h207v-320q0 -79 -104 -79h-259zM251 657l-130 152h118l40 -63l35 63h113l-122 -152h-54z" />
    <glyph glyph-name="tcaron" unicode="&#x165;" horiz-adv-x="549" 
d="M6 0zM161 0q-104 0 -104 79v361h-51v158h51v41h208v-41h259v-158h-259v-279q0 -2 2 -2h48q2 0 2 2v238h207v-320q0 -79 -104 -79h-259zM251 657l-130 152h118l40 -63l35 63h113l-122 -152h-54z" />
    <glyph glyph-name="Tbar" unicode="&#x166;" horiz-adv-x="549" 
d="M265 239v-78q0 -2 2 -2h48q2 0 2 2v38h207v-120q0 -79 -104 -79h-259q-104 0 -104 79v160h-52v160h52v41h-51v158h51v41h208v-41h259v-158h-259v-41h139v-160h-139z" />
    <glyph glyph-name="tbar" unicode="&#x167;" horiz-adv-x="549" 
d="M5 0zM265 239v-78q0 -2 2 -2h48q2 0 2 2v38h207v-120q0 -79 -104 -79h-259q-104 0 -104 79v160h-52v160h52v41h-51v158h51v41h208v-41h259v-158h-259v-41h139v-160h-139z" />
    <glyph glyph-name="Utilde" unicode="&#x168;" horiz-adv-x="517" 
d="M25 0zM129 0q-104 0 -104 79v560h208v-478q0 -2 2 -2h47q2 0 2 2v478h208v-560q0 -79 -104 -79h-259zM441 799q0 -62 -23.5 -93t-80.5 -31q-25 0 -47 7.5t-40.5 17t-35 17t-31.5 7.5q-16 0 -23.5 -10t-7.5 -39h-77q0 62 23.5 93t80.5 31q24 0 45.5 -7.5t41 -17t36 -17
t31.5 -7.5q16 0 23.5 10t7.5 39h77z" />
    <glyph glyph-name="utilde" unicode="&#x169;" horiz-adv-x="517" 
d="M25 0zM129 0q-104 0 -104 79v560h208v-478q0 -2 2 -2h47q2 0 2 2v478h208v-560q0 -79 -104 -79h-259zM441 799q0 -62 -23.5 -93t-80.5 -31q-25 0 -47 7.5t-40.5 17t-35 17t-31.5 7.5q-16 0 -23.5 -10t-7.5 -39h-77q0 62 23.5 93t80.5 31q24 0 45.5 -7.5t41 -17t36 -17
t31.5 -7.5q16 0 23.5 10t7.5 39h77z" />
    <glyph glyph-name="Umacron" unicode="&#x16a;" horiz-adv-x="517" 
d="M25 0zM129 0q-104 0 -104 79v560h208v-478q0 -2 2 -2h47q2 0 2 2v478h208v-560q0 -79 -104 -79h-259zM83 695v87h350v-87h-350z" />
    <glyph glyph-name="umacron" unicode="&#x16b;" horiz-adv-x="517" 
d="M25 0zM129 0q-104 0 -104 79v560h208v-478q0 -2 2 -2h47q2 0 2 2v478h208v-560q0 -79 -104 -79h-259zM83 695v87h350v-87h-350z" />
    <glyph glyph-name="Ubreve" unicode="&#x16c;" horiz-adv-x="517" 
d="M25 0zM129 0q-104 0 -104 79v560h208v-478q0 -2 2 -2h47q2 0 2 2v478h208v-560q0 -79 -104 -79h-259zM431 809q-5 -22 -14 -46.5t-28 -45t-51 -34t-83 -13.5q-46 0 -76.5 13.5t-49.5 33.5t-29 44.5t-15 47.5h106q7 -68 66 -68q30 0 47 15.5t21 52.5h106z" />
    <glyph glyph-name="ubreve" unicode="&#x16d;" horiz-adv-x="517" 
d="M25 0zM129 0q-104 0 -104 79v560h208v-478q0 -2 2 -2h47q2 0 2 2v478h208v-560q0 -79 -104 -79h-259zM431 809q-5 -22 -14 -46.5t-28 -45t-51 -34t-83 -13.5q-46 0 -76.5 13.5t-49.5 33.5t-29 44.5t-15 47.5h106q7 -68 66 -68q30 0 47 15.5t21 52.5h106z" />
    <glyph glyph-name="Uring" unicode="&#x16e;" horiz-adv-x="517" 
d="M25 0zM129 0q-104 0 -104 79v560h208v-478q0 -2 2 -2h47q2 0 2 2v478h208v-560q0 -79 -104 -79h-259zM300 729q0 17 -11.5 27.5t-31.5 10.5t-31 -10.5t-11 -27.5t11 -28t31 -11t31.5 11t11.5 28zM345 729q0 -35 -23 -57.5t-65 -22.5t-64 22.5t-22 57.5t22 57.5t64 22.5
t65 -22.5t23 -57.5z" />
    <glyph glyph-name="uring" unicode="&#x16f;" horiz-adv-x="517" 
d="M25 0zM129 0q-104 0 -104 79v560h208v-478q0 -2 2 -2h47q2 0 2 2v478h208v-560q0 -79 -104 -79h-259zM300 729q0 17 -11.5 27.5t-31.5 10.5t-31 -10.5t-11 -27.5t11 -28t31 -11t31.5 11t11.5 28zM345 729q0 -35 -23 -57.5t-65 -22.5t-64 22.5t-22 57.5t22 57.5t64 22.5
t65 -22.5t23 -57.5z" />
    <glyph glyph-name="Uhungarumlaut" unicode="&#x170;" horiz-adv-x="517" 
d="M25 0zM129 0q-104 0 -104 79v560h208v-478q0 -2 2 -2h47q2 0 2 2v478h208v-560q0 -79 -104 -79h-259zM305 670l43 138h90l-53 -138h-80zM146 670l43 138h91l-53 -138h-81z" />
    <glyph glyph-name="uhungarumlaut" unicode="&#x171;" horiz-adv-x="517" 
d="M25 0zM129 0q-104 0 -104 79v560h208v-478q0 -2 2 -2h47q2 0 2 2v478h208v-560q0 -79 -104 -79h-259zM305 670l43 138h90l-53 -138h-80zM146 670l43 138h91l-53 -138h-81z" />
    <glyph glyph-name="Uogonek" unicode="&#x172;" horiz-adv-x="517" 
d="M277 -199q-89 0 -89 87t163 112h-222q-104 0 -104 79v560h208v-478q0 -2 2 -2h47q2 0 2 2v478h208v-560q0 -79 -104 -79q-91 -37 -91 -63q0 -17 18 -17h73v-119h-111z" />
    <glyph glyph-name="uogonek" unicode="&#x173;" horiz-adv-x="517" 
d="M25 0zM277 -199q-89 0 -89 87t163 112h-222q-104 0 -104 79v560h208v-478q0 -2 2 -2h47q2 0 2 2v478h208v-560q0 -79 -104 -79q-91 -37 -91 -63q0 -17 18 -17h73v-119h-111z" />
    <glyph glyph-name="Wcircumflex" unicode="&#x174;" horiz-adv-x="837" 
d="M3 0zM473 0l-52 320l-53 -320h-261l-104 639h214l53 -359l52 359h207l51 -359l53 359h201l-104 -639h-257zM473 670l-60 93l-55 -93h-113l101 139h143l102 -139h-118z" />
    <glyph glyph-name="wcircumflex" unicode="&#x175;" horiz-adv-x="837" 
d="M3 0zM473 0l-52 320l-53 -320h-261l-104 639h214l53 -359l52 359h207l51 -359l53 359h201l-104 -639h-257zM473 670l-60 93l-55 -93h-113l101 139h143l102 -139h-118z" />
    <glyph glyph-name="Ycircumflex" unicode="&#x176;" horiz-adv-x="501" 
d="M18 0zM149 0v228q-131 0 -131 130v281h208v-259q0 -2 2 -2h47q2 0 2 2v259h208v-281q0 -130 -128 -130v-228h-208zM305 670l-60 93l-55 -93h-113l101 139h143l102 -139h-118z" />
    <glyph glyph-name="ycircumflex" unicode="&#x177;" horiz-adv-x="517" 
d="M24 0zM24 -199v159h257q2 0 2 2v38h-155q-104 0 -104 79v560h208v-478q0 -2 2 -2h49v480h208v-759q0 -79 -104 -79h-363zM313 670l-60 93l-55 -93h-113l101 139h143l102 -139h-118z" />
    <glyph glyph-name="Ydieresis" unicode="&#x178;" horiz-adv-x="501" 
d="M18 0zM149 0v228q-131 0 -131 130v281h208v-259q0 -2 2 -2h47q2 0 2 2v259h208v-281q0 -130 -128 -130v-228h-208zM305 678v111h120v-111h-120zM75 678v111h120v-111h-120z" />
    <glyph glyph-name="Zacute" unicode="&#x179;" horiz-adv-x="510" 
d="M23 0zM23 0v164l223 315h-223v160h467v-149l-216 -331h216v-159h-467zM143 670v70l283 69v-106z" />
    <glyph glyph-name="zacute" unicode="&#x17a;" horiz-adv-x="510" 
d="M23 0zM23 0v164l223 315h-223v160h467v-149l-216 -331h216v-159h-467zM143 670v70l283 69v-106z" />
    <glyph glyph-name="Zdotaccent" unicode="&#x17b;" horiz-adv-x="510" 
d="M23 0zM23 0v164l223 315h-223v160h467v-149l-216 -331h216v-159h-467zM195 678v111h120v-111h-120z" />
    <glyph glyph-name="zdotaccent" unicode="&#x17c;" horiz-adv-x="510" 
d="M23 0zM23 0v164l223 315h-223v160h467v-149l-216 -331h216v-159h-467zM195 678v111h120v-111h-120z" />
    <glyph glyph-name="Zcaron" unicode="&#x17d;" horiz-adv-x="510" 
d="M23 0zM23 0v164l223 315h-223v160h467v-149l-216 -331h216v-159h-467zM232 657l-130 152h118l40 -63l35 63h113l-122 -152h-54z" />
    <glyph glyph-name="zcaron" unicode="&#x17e;" horiz-adv-x="510" 
d="M23 0zM23 0v164l223 315h-223v160h467v-149l-216 -331h216v-159h-467zM232 657l-130 152h118l40 -63l35 63h113l-122 -152h-54z" />
    <glyph glyph-name="florin" unicode="&#x192;" horiz-adv-x="611" 
d="M37 -35q17 -9 32.5 -13.5t34.5 -4.5q35 0 57.5 19t30.5 64l55 305h-66v93h81l16 85q10 57 29.5 93.5t47.5 58t64 29.5t80 8q27 0 44.5 -2.5t31.5 -7.5v-115q-32 18 -67 18t-58 -19t-30 -63l-13 -85h84v-93h-102l-54 -303q-10 -59 -29.5 -96t-47 -58.5t-64 -29.5t-80.5 -8
q-27 0 -45 2.5t-32 7.5v115z" />
    <glyph glyph-name="Scommaaccent" unicode="&#x218;" 
d="M24 0zM128 0q-104 0 -104 79v120h208v-38q0 -2 2 -2h47q2 0 2 2v76q0 2 -2 2h-153q-104 0 -104 81v238q0 81 104 81h259q104 0 104 -81v-118h-208v37q0 2 -2 2h-47q-2 0 -2 -2v-76q0 -2 2 -2h153q104 0 104 -79v-241q0 -79 -104 -79h-259zM184 -199l27 171h120l-63 -171
h-84z" />
    <glyph glyph-name="scommaaccent" unicode="&#x219;" 
d="M24 0zM128 0q-104 0 -104 79v120h208v-38q0 -2 2 -2h47q2 0 2 2v76q0 2 -2 2h-153q-104 0 -104 81v238q0 81 104 81h259q104 0 104 -81v-118h-208v37q0 2 -2 2h-47q-2 0 -2 -2v-76q0 -2 2 -2h153q104 0 104 -79v-241q0 -79 -104 -79h-259zM184 -199l27 171h120l-63 -171
h-84z" />
    <glyph glyph-name="uni021A" unicode="&#x21a;" horiz-adv-x="549" 
d="M6 0zM161 0q-104 0 -104 79v361h-51v158h51v41h208v-41h259v-158h-259v-279q0 -2 2 -2h48q2 0 2 2v238h207v-320q0 -79 -104 -79h-259zM207 -199l27 171h120l-63 -171h-84z" />
    <glyph glyph-name="uni021B" unicode="&#x21b;" horiz-adv-x="549" 
d="M6 0zM161 0q-104 0 -104 79v361h-51v158h51v41h208v-41h259v-158h-259v-279q0 -2 2 -2h48q2 0 2 2v238h207v-320q0 -79 -104 -79h-259zM207 -199l27 171h120l-63 -171h-84z" />
    <glyph glyph-name="circumflex" unicode="&#x2c6;" horiz-adv-x="373" 
d="M241 670l-60 93l-55 -93h-113l101 139h143l102 -139h-118z" />
    <glyph glyph-name="caron" unicode="&#x2c7;" horiz-adv-x="335" 
d="M144 657l-130 152h118l40 -63l35 63h113l-122 -152h-54z" />
    <glyph glyph-name="breve" unicode="&#x2d8;" horiz-adv-x="371" 
d="M358 809q-5 -22 -14 -46.5t-28 -45t-51 -34t-83 -13.5q-46 0 -76.5 13.5t-49.5 33.5t-29 44.5t-15 47.5h106q7 -68 66 -68q30 0 47 15.5t21 52.5h106z" />
    <glyph glyph-name="dotaccent" unicode="&#x2d9;" horiz-adv-x="159" 
d="M19 678v111h120v-111h-120z" />
    <glyph glyph-name="ring" unicode="&#x2da;" horiz-adv-x="202" 
d="M143 729q0 17 -11.5 27.5t-31.5 10.5t-31 -10.5t-11 -27.5t11 -28t31 -11t31.5 11t11.5 28zM188 729q0 -35 -23 -57.5t-65 -22.5t-64 22.5t-22 57.5t22 57.5t64 22.5t65 -22.5t23 -57.5z" />
    <glyph glyph-name="ogonek" unicode="&#x2db;" horiz-adv-x="339" 
d="M159 -199q-89 0 -89 87t163 112h37q-91 -37 -91 -63q0 -17 18 -17h73v-119h-111z" />
    <glyph glyph-name="tilde" unicode="&#x2dc;" horiz-adv-x="401" 
d="M383 799q0 -62 -23.5 -93t-80.5 -31q-25 0 -47 7.5t-40.5 17t-35 17t-31.5 7.5q-16 0 -23.5 -10t-7.5 -39h-77q0 62 23.5 93t80.5 31q24 0 45.5 -7.5t41 -17t36 -17t31.5 -7.5q16 0 23.5 10t7.5 39h77z" />
    <glyph glyph-name="hungarumlaut" unicode="&#x2dd;" horiz-adv-x="325" 
d="M175 670l43 138h90l-53 -138h-80zM16 670l43 138h91l-53 -138h-81z" />
    <glyph glyph-name="Delta" unicode="&#x394;" horiz-adv-x="528" 
d="M109 639h311l103 -639h-519zM228 159h62l-31 227z" />
    <glyph glyph-name="Omega" unicode="&#x3a9;" horiz-adv-x="723" 
d="M422 0v152q28 22 42.5 64t14.5 115q0 44 -9.5 72t-25 44t-37 22t-45.5 6q-25 0 -47 -6t-38 -22t-25 -44t-9 -72q0 -73 14.5 -115t42.5 -64v-152h-264v126h104q-15 12 -31.5 32.5t-30 50t-22.5 69t-9 90.5q0 64 19.5 116t59 89t98.5 57.5t138 20.5q78 0 137.5 -20.5
t99 -57.5t59.5 -89t20 -116q0 -51 -9 -90.5t-23.5 -69.5t-31.5 -50t-32 -32h106v-126h-266z" />
    <glyph glyph-name="pi" unicode="&#x3c0;" horiz-adv-x="519" 
d="M285 0v479h-51v-479h-208v639h467v-639h-208z" />
    <glyph glyph-name="Wgrave" unicode="&#x1e80;" horiz-adv-x="837" 
d="M3 0zM473 0l-52 320l-53 -320h-261l-104 639h214l53 -359l52 359h207l51 -359l53 359h201l-104 -639h-257zM247 703v106l283 -69v-70z" />
    <glyph glyph-name="wgrave" unicode="&#x1e81;" horiz-adv-x="837" 
d="M3 0zM473 0l-52 320l-53 -320h-261l-104 639h214l53 -359l52 359h207l51 -359l53 359h201l-104 -639h-257zM247 703v106l283 -69v-70z" />
    <glyph glyph-name="Wacute" unicode="&#x1e82;" horiz-adv-x="837" 
d="M3 0zM473 0l-52 320l-53 -320h-261l-104 639h214l53 -359l52 359h207l51 -359l53 359h201l-104 -639h-257zM307 670v70l283 69v-106z" />
    <glyph glyph-name="wacute" unicode="&#x1e83;" horiz-adv-x="837" 
d="M3 0zM473 0l-52 320l-53 -320h-261l-104 639h214l53 -359l52 359h207l51 -359l53 359h201l-104 -639h-257zM307 670v70l283 69v-106z" />
    <glyph glyph-name="Wdieresis" unicode="&#x1e84;" horiz-adv-x="837" 
d="M3 0zM473 0l-52 320l-53 -320h-261l-104 639h214l53 -359l52 359h207l51 -359l53 359h201l-104 -639h-257zM473 678v111h120v-111h-120zM243 678v111h120v-111h-120z" />
    <glyph glyph-name="wdieresis" unicode="&#x1e85;" horiz-adv-x="837" 
d="M3 0zM473 0l-52 320l-53 -320h-261l-104 639h214l53 -359l52 359h207l51 -359l53 359h201l-104 -639h-257zM473 678v111h120v-111h-120zM243 678v111h120v-111h-120z" />
    <glyph glyph-name="Ygrave" unicode="&#x1ef2;" horiz-adv-x="501" 
d="M18 0zM149 0v228q-131 0 -131 130v281h208v-259q0 -2 2 -2h47q2 0 2 2v259h208v-281q0 -130 -128 -130v-228h-208zM79 703v106l283 -69v-70z" />
    <glyph glyph-name="ygrave" unicode="&#x1ef3;" horiz-adv-x="517" 
d="M24 0zM24 -199v159h257q2 0 2 2v38h-155q-104 0 -104 79v560h208v-478q0 -2 2 -2h49v480h208v-759q0 -79 -104 -79h-363zM87 703v106l283 -69v-70z" />
    <glyph glyph-name="endash" unicode="&#x2013;" horiz-adv-x="479" 
d="M26 239v160h426v-160h-426z" />
    <glyph glyph-name="emdash" unicode="&#x2014;" horiz-adv-x="842" 
d="M26 239v160h782v-160h-782z" />
    <glyph glyph-name="quoteleft" unicode="&#x2018;" horiz-adv-x="241" 
d="M120 520q-104 0 -104 80v199h208v-159h-104v-38q0 -2 2 -2h102v-80h-104z" />
    <glyph glyph-name="quoteright" unicode="&#x2019;" horiz-adv-x="241" 
d="M16 520v80h102q2 0 2 2v38h-104v159h208v-199q0 -80 -104 -80h-104z" />
    <glyph glyph-name="quotesinglbase" unicode="&#x201a;" horiz-adv-x="241" 
d="M16 -120v80h102q2 0 2 2v38h-104v159h208v-199q0 -80 -104 -80h-104z" />
    <glyph glyph-name="quotedblleft" unicode="&#x201c;" horiz-adv-x="482" 
d="M16 520zM120 520q-104 0 -104 80v199h208v-159h-104v-38q0 -2 2 -2h102v-80h-104zM361 520q-104 0 -104 80v199h208v-159h-104v-38q0 -2 2 -2h102v-80h-104z" />
    <glyph glyph-name="quotedblright" unicode="&#x201d;" horiz-adv-x="482" 
d="M16 520zM16 520v80h102q2 0 2 2v38h-104v159h208v-199q0 -80 -104 -80h-104zM257 520v80h102q2 0 2 2v38h-104v159h208v-199q0 -80 -104 -80h-104z" />
    <glyph glyph-name="quotedblbase" unicode="&#x201e;" horiz-adv-x="482" 
d="M16 0zM16 -120v80h102q2 0 2 2v38h-104v159h208v-199q0 -80 -104 -80h-104zM257 -120v80h102q2 0 2 2v38h-104v159h208v-199q0 -80 -104 -80h-104z" />
    <glyph glyph-name="dagger" unicode="&#x2020;" horiz-adv-x="533" 
d="M213 -1v497h-177v98h177v107h115v-107h169v-98h-169v-497h-115z" />
    <glyph glyph-name="daggerdbl" unicode="&#x2021;" horiz-adv-x="533" 
d="M328 106v-107h-115v107h-177v98h177v292h-177v98h177v107h115v-107h169v-98h-169v-292h169v-98h-169z" />
    <glyph glyph-name="bullet" unicode="&#x2022;" horiz-adv-x="307" 
d="M267 339q0 -25 -9.5 -46.5t-25.5 -37.5t-37.5 -25t-46.5 -9q-26 0 -47.5 9t-37 24.5t-24.5 37t-9 47.5q0 25 9 46.5t25 37.5t37.5 25.5t46.5 9.5t46.5 -9.5t37.5 -25.5t25.5 -37.5t9.5 -46.5z" />
    <glyph glyph-name="ellipsis" unicode="&#x2026;" horiz-adv-x="1300" 
d="M26 0zM26 0v159h208v-159h-208zM546 0v159h208v-159h-208zM1066 0v159h208v-159h-208z" />
    <glyph glyph-name="perthousand" unicode="&#x2030;" horiz-adv-x="899" 
d="M25 0zM154 568q0 1 -1 1h-23q-1 0 -1 -1v-158l1 -1h23q1 0 1 1v158zM77 330q-52 0 -52 39v240q0 40 52 40h129q52 0 52 -40v-240q0 -39 -52 -39h-129zM86 -40l365 719h114l-367 -719h-112zM514 228q0 1 -1 1h-23q-1 0 -1 -1v-158l1 -1h23q1 0 1 1v158zM437 -10
q-52 0 -52 39v240q0 40 52 40h129q52 0 52 -40v-240q0 -39 -52 -39h-129zM771 228q0 1 -1 1h-23q-1 0 -1 -1v-158l1 -1h23q1 0 1 1v158zM694 -10q-52 0 -52 39v240q0 40 52 40h129q52 0 52 -40v-240q0 -39 -52 -39h-129z" />
    <glyph glyph-name="guilsinglleft" unicode="&#x2039;" horiz-adv-x="198" 
d="M23 272v84l152 121v-111l-71 -51l71 -49v-112z" />
    <glyph glyph-name="guilsinglright" unicode="&#x203a;" horiz-adv-x="198" 
d="M23 154v112l71 49l-71 51v111l152 -121v-84z" />
    <glyph glyph-name="fraction" unicode="&#x2044;" horiz-adv-x="214" 
d="M-128 -40l365 719h114l-367 -719h-112z" />
    <glyph glyph-name="zerosuperior" unicode="&#x2070;" horiz-adv-x="287" 
d="M27 330zM156 568q0 1 -1 1h-23q-1 0 -1 -1v-158l1 -1h23q1 0 1 1v158zM79 330q-52 0 -52 39v240q0 40 52 40h129q52 0 52 -40v-240q0 -39 -52 -39h-129z" />
    <glyph glyph-name="foursuperior" unicode="&#x2074;" horiz-adv-x="302" 
d="M24 330zM154 330v89h-130v230h104v-150h26v150h104v-150h26v-80h-26v-89h-104z" />
    <glyph glyph-name="fivesuperior" unicode="&#x2075;" horiz-adv-x="288" 
d="M27 330zM79 330q-52 0 -52 40v59h104v-18q0 -1 1 -1h24l1 1v38l-1 1h-129v199h234v-99h-104v20h-26v-40h78q52 0 52 -41v-119q0 -40 -52 -40h-130z" />
    <glyph glyph-name="sixsuperior" unicode="&#x2076;" horiz-adv-x="287" 
d="M27 330zM79 330q-52 0 -52 39v240q0 40 52 40h129q52 0 52 -40v-59h-104v18q0 1 -1 1h-23q-1 0 -1 -1v-39h77q52 0 52 -39v-121q0 -39 -52 -39h-129zM156 453q0 1 -1 1h-24v-44l1 -1h23q1 0 1 1v43z" />
    <glyph glyph-name="sevensuperior" unicode="&#x2077;" horiz-adv-x="277" 
d="M22 330zM24 330l131 239h-133v80h233v-74l-123 -245h-108z" />
    <glyph glyph-name="eightsuperior" unicode="&#x2078;" horiz-adv-x="287" 
d="M26 330zM78 330q-52 0 -52 39v94q0 23 26 27q-26 3 -26 26v93q0 40 52 40h129q52 0 52 -40v-93q0 -23 -26 -26q26 -4 26 -27v-94q0 -39 -52 -39h-129zM155 457l-1 1h-23q-1 0 -1 -1v-47l1 -1h23q1 0 1 1v47zM155 568q0 1 -1 1h-23q-1 0 -1 -1v-46l1 -1h23q1 0 1 1v46z
" />
    <glyph glyph-name="ninesuperior" unicode="&#x2079;" horiz-adv-x="287" 
d="M27 330zM79 330q-52 0 -52 40v59h104v-18q0 -1 1 -1h23q1 0 1 1v39h-77q-52 0 -52 39v121q0 39 52 39h129q52 0 52 -39v-240q0 -40 -52 -40h-129zM156 569l-1 1h-23q-1 0 -1 -1v-43q0 -1 1 -1h24v44z" />
    <glyph glyph-name="zeroinferior" unicode="&#x2080;" horiz-adv-x="287" 
d="M156 228q0 1 -1 1h-23q-1 0 -1 -1v-158l1 -1h23q1 0 1 1v158zM79 -10q-52 0 -52 39v240q0 40 52 40h129q52 0 52 -40v-240q0 -39 -52 -39h-129z" />
    <glyph glyph-name="oneinferior" unicode="&#x2081;" horiz-adv-x="160" 
d="M28 -10v319h104v-319h-104z" />
    <glyph glyph-name="twoinferior" unicode="&#x2082;" horiz-adv-x="288" 
d="M27 -10v160q0 39 52 39h77l1 1v38q0 1 -1 1h-24l-1 -1v-18h-104v59q0 40 52 40h130q52 0 52 -40v-119q0 -41 -52 -41h-77l-1 -1v-39h26v20h104v-99h-234z" />
    <glyph glyph-name="threeinferior" unicode="&#x2083;" horiz-adv-x="287" 
d="M78 -10q-52 0 -52 39v60h104v-19l1 -1h23q1 0 1 1v47l-1 1h-127v63h127q1 0 1 1v46q0 1 -1 1h-23q-1 0 -1 -1v-18h-103v59q0 40 52 40h128q52 0 52 -40v-93q0 -23 -26 -26q26 -4 26 -27v-94q0 -39 -52 -39h-129z" />
    <glyph glyph-name="fourinferior" unicode="&#x2084;" horiz-adv-x="302" 
d="M154 -10v89h-130v230h104v-150h26v150h104v-150h26v-80h-26v-89h-104z" />
    <glyph glyph-name="fiveinferior" unicode="&#x2085;" horiz-adv-x="288" 
d="M79 -10q-52 0 -52 40v59h104v-18q0 -1 1 -1h24l1 1v38l-1 1h-129v199h234v-99h-104v20h-26v-40h78q52 0 52 -41v-119q0 -40 -52 -40h-130z" />
    <glyph glyph-name="sixinferior" unicode="&#x2086;" horiz-adv-x="287" 
d="M79 -10q-52 0 -52 39v240q0 40 52 40h129q52 0 52 -40v-59h-104v18q0 1 -1 1h-23q-1 0 -1 -1v-39h77q52 0 52 -39v-121q0 -39 -52 -39h-129zM156 113q0 1 -1 1h-24v-44l1 -1h23q1 0 1 1v43z" />
    <glyph glyph-name="seveninferior" unicode="&#x2087;" horiz-adv-x="277" 
d="M24 -10l131 239h-133v80h233v-74l-123 -245h-108z" />
    <glyph glyph-name="eightinferior" unicode="&#x2088;" horiz-adv-x="287" 
d="M78 -10q-52 0 -52 39v94q0 23 26 27q-26 3 -26 26v93q0 40 52 40h129q52 0 52 -40v-93q0 -23 -26 -26q26 -4 26 -27v-94q0 -39 -52 -39h-129zM155 117l-1 1h-23q-1 0 -1 -1v-47l1 -1h23q1 0 1 1v47zM155 228q0 1 -1 1h-23q-1 0 -1 -1v-46l1 -1h23q1 0 1 1v46z" />
    <glyph glyph-name="nineinferior" unicode="&#x2089;" horiz-adv-x="287" 
d="M79 -10q-52 0 -52 40v59h104v-18q0 -1 1 -1h23q1 0 1 1v39h-77q-52 0 -52 39v121q0 39 52 39h129q52 0 52 -39v-240q0 -40 -52 -40h-129zM156 229l-1 1h-23q-1 0 -1 -1v-43q0 -1 1 -1h24v44z" />
    <glyph glyph-name="Euro" unicode="&#x20ac;" horiz-adv-x="537" 
d="M149 0q-104 0 -104 79v169h-40l11 51h29v46h-40l11 57h29v156q0 81 104 81h259q104 0 104 -81v-126h-208v45q0 2 -2 2h-47q-2 0 -2 -2v-75h250l-33 -57h-217v-46h189l-30 -51h-159v-87q0 -2 2 -2h47q2 0 2 2v51h208v-133q0 -79 -104 -79h-259z" />
    <glyph glyph-name="trademark" unicode="&#x2122;" horiz-adv-x="645" 
d="M88 342q-48 0 -48 37v168h-24v73h24v19h96v-19h121v-73h-121v-129q0 -2 2 -2h21q2 0 2 2v109h96v-148q0 -37 -49 -37h-120zM522 342v221q0 2 -2 2h-20q-2 0 -2 -2v-221h-97v221q0 2 -2 2h-20q-2 0 -2 -2v-221h-97v297h97v-19q19 19 63 19q21 0 33 -5.5t20 -16.5
q11 13 27 17.5t38 4.5q26 0 43 -12t17 -29v-256h-96z" />
    <glyph glyph-name="onethird" unicode="&#x2153;" horiz-adv-x="629" 
d="M24 0zM30 330v319h104v-319h-104zM24 -40l365 719h114l-367 -719h-112zM424 -10q-52 0 -52 39v60h104v-19l1 -1h23q1 0 1 1v47l-1 1h-127v63h127q1 0 1 1v46q0 1 -1 1h-23q-1 0 -1 -1v-18h-103v59q0 40 52 40h128q52 0 52 -40v-93q0 -23 -26 -26q26 -4 26 -27v-94
q0 -39 -52 -39h-129z" />
    <glyph glyph-name="twothirds" unicode="&#x2154;" horiz-adv-x="712" 
d="M25 0zM25 330v160q0 39 52 39h77l1 1v38q0 1 -1 1h-24l-1 -1v-18h-104v59q0 40 52 40h130q52 0 52 -40v-119q0 -41 -52 -41h-77l-1 -1v-39h26v20h104v-99h-234zM117 -40l365 719h114l-367 -719h-112zM507 -10q-52 0 -52 39v60h104v-19l1 -1h23q1 0 1 1v47l-1 1h-127v63
h127q1 0 1 1v46q0 1 -1 1h-23q-1 0 -1 -1v-18h-103v59q0 40 52 40h128q52 0 52 -40v-93q0 -23 -26 -26q26 -4 26 -27v-94q0 -39 -52 -39h-129z" />
    <glyph glyph-name="oneeighth" unicode="&#x215b;" horiz-adv-x="629" 
d="M24 0zM30 330v319h104v-319h-104zM24 -40l365 719h114l-367 -719h-112zM424 -10q-52 0 -52 39v94q0 23 26 27q-26 3 -26 26v93q0 40 52 40h129q52 0 52 -40v-93q0 -23 -26 -26q26 -4 26 -27v-94q0 -39 -52 -39h-129zM501 117l-1 1h-23q-1 0 -1 -1v-47l1 -1h23q1 0 1 1v47
zM501 228q0 1 -1 1h-23q-1 0 -1 -1v-46l1 -1h23q1 0 1 1v46z" />
    <glyph glyph-name="threeeighths" unicode="&#x215c;" horiz-adv-x="712" 
d="M25 0zM77 330q-52 0 -52 39v60h104v-19l1 -1h23q1 0 1 1v47l-1 1h-127v63h127q1 0 1 1v46q0 1 -1 1h-23q-1 0 -1 -1v-18h-103v59q0 40 52 40h128q52 0 52 -40v-93q0 -23 -26 -26q26 -4 26 -27v-94q0 -39 -52 -39h-129zM117 -40l365 719h114l-367 -719h-112zM507 -10
q-52 0 -52 39v94q0 23 26 27q-26 3 -26 26v93q0 40 52 40h129q52 0 52 -40v-93q0 -23 -26 -26q26 -4 26 -27v-94q0 -39 -52 -39h-129zM584 117l-1 1h-23q-1 0 -1 -1v-47l1 -1h23q1 0 1 1v47zM584 228q0 1 -1 1h-23q-1 0 -1 -1v-46l1 -1h23q1 0 1 1v46z" />
    <glyph glyph-name="fiveeighths" unicode="&#x215d;" horiz-adv-x="692" 
d="M25 0zM77 330q-52 0 -52 40v59h104v-18q0 -1 1 -1h24l1 1v38l-1 1h-129v199h234v-99h-104v20h-26v-40h78q52 0 52 -41v-119q0 -40 -52 -40h-130zM107 -40l365 719h114l-367 -719h-112zM487 -10q-52 0 -52 39v94q0 23 26 27q-26 3 -26 26v93q0 40 52 40h129q52 0 52 -40
v-93q0 -23 -26 -26q26 -4 26 -27v-94q0 -39 -52 -39h-129zM564 117l-1 1h-23q-1 0 -1 -1v-47l1 -1h23q1 0 1 1v47zM564 228q0 1 -1 1h-23q-1 0 -1 -1v-46l1 -1h23q1 0 1 1v46z" />
    <glyph glyph-name="seveneighths" unicode="&#x215e;" horiz-adv-x="686" 
d="M24 0zM26 330l131 239h-133v80h233v-74l-123 -245h-108zM81 -40l365 719h114l-367 -719h-112zM481 -10q-52 0 -52 39v94q0 23 26 27q-26 3 -26 26v93q0 40 52 40h129q52 0 52 -40v-93q0 -23 -26 -26q26 -4 26 -27v-94q0 -39 -52 -39h-129zM558 117l-1 1h-23q-1 0 -1 -1
v-47l1 -1h23q1 0 1 1v47zM558 228q0 1 -1 1h-23q-1 0 -1 -1v-46l1 -1h23q1 0 1 1v46z" />
    <glyph glyph-name="partialdiff" unicode="&#x2202;" horiz-adv-x="603" 
d="M61 627q14 8 35 17.5t46.5 18t54.5 14t59 5.5q66 0 123 -17t99.5 -59.5t67 -113.5t24.5 -179q0 -65 -13.5 -124t-45.5 -104t-85.5 -72t-134.5 -27q-54 0 -101.5 17.5t-83 49t-55.5 75.5t-20 97q0 48 17 89.5t49 72t78 47.5t104 17q18 0 38 -4t39 -11t36 -17t29 -23
q0 42 -13.5 74t-36 53t-50.5 31.5t-58 10.5q-39 0 -77 -9.5t-79 -31.5zM421 277q-20 24 -55 40t-69 16q-22 0 -43 -6.5t-37 -20.5t-26 -35.5t-10 -52.5q0 -48 25.5 -81t84.5 -33q68 0 98 43t32 130z" />
    <glyph glyph-name="product" unicode="&#x220f;" horiz-adv-x="682" 
d="M506 -199v715h-330v-715h-140v838h610v-838h-140z" />
    <glyph glyph-name="summation" unicode="&#x2211;" horiz-adv-x="536" 
d="M37 -145v69l191 352l-191 354v71h462v-101h-325l174 -324l-174 -323h325v-98h-462z" />
    <glyph glyph-name="minus" unicode="&#x2212;" horiz-adv-x="484" 
d="M38 259v120h415v-120h-415z" />
    <glyph glyph-name="radical" unicode="&#x221a;" horiz-adv-x="664" 
d="M215 0l-104 326h-85v124h215l76 -280l166 620h160l-224 -790h-204z" />
    <glyph glyph-name="infinity" unicode="&#x221e;" horiz-adv-x="607" 
d="M340 320q13 -25 33 -45t53 -20q37 0 53.5 20.5t16.5 45.5q0 26 -17.5 45t-52.5 19q-29 0 -50 -19t-36 -46zM265 325q-13 26 -33.5 45.5t-51.5 19.5q-38 0 -55 -20.5t-17 -44.5q0 -25 18 -45t54 -20q29 0 49 19t36 46zM303 250q-17 -42 -50.5 -63.5t-76.5 -21.5
q-66 0 -107 42.5t-41 115.5q0 72 41 115.5t107 43.5q42 0 77 -21.5t49 -63.5q16 42 49.5 63.5t77.5 21.5q33 0 60 -11.5t46.5 -32t30.5 -50t11 -65.5q0 -75 -41 -116.5t-107 -41.5q-42 0 -77 20.5t-49 64.5z" />
    <glyph glyph-name="integral" unicode="&#x222b;" horiz-adv-x="510" 
d="M36 -58q9 -8 20 -12.5t22 -7t21 -3t16 -0.5q39 0 52 20.5t13 49.5v619q0 54 16.5 89t44.5 56t65.5 29t79.5 8q23 0 49.5 -6.5t38.5 -20.5v-114q-17 14 -37.5 20.5t-41.5 6.5q-38 0 -51.5 -22.5t-13.5 -51.5v-618q0 -55 -16.5 -90.5t-44.5 -56t-66 -28.5t-80 -8
q-12 0 -25 1.5t-25 5t-22 8.5t-15 12v114z" />
    <glyph glyph-name="approxequal" unicode="&#x2248;" horiz-adv-x="484" 
d="M36 131zM453 273q0 -71 -27 -106.5t-91 -35.5q-29 0 -53.5 8.5t-45.5 19t-40 19.5t-35 9q-18 0 -26.5 -12t-8.5 -44h-88q0 71 27 106.5t91 35.5q27 0 51.5 -9t46.5 -19.5t40.5 -19t35.5 -8.5q18 0 27 12t9 44h87zM451 512q0 -71 -27 -106.5t-91 -35.5q-29 0 -53.5 8.5
t-45.5 19t-40 19.5t-35 9q-18 0 -26.5 -12t-8.5 -44h-88q0 71 27 106.5t91 35.5q27 0 51.5 -9t46.5 -19.5t40.5 -19t35.5 -8.5q18 0 27 12t9 44h87z" />
    <glyph glyph-name="notequal" unicode="&#x2260;" horiz-adv-x="484" 
d="M333 389l-72 -140h192v-120h-253l-86 -169h-112l86 169h-50v120h111l71 140h-182v120h243l86 170h114l-87 -170h59v-120h-120z" />
    <glyph glyph-name="lessequal" unicode="&#x2264;" horiz-adv-x="484" 
d="M38 0zM38 253v120l415 172v-130l-279 -101l279 -97v-130zM38 -50v120h415v-120h-415z" />
    <glyph glyph-name="greaterequal" unicode="&#x2265;" horiz-adv-x="484" 
d="M38 0zM38 87v130l279 97l-279 101v130l415 -172v-120zM38 -50v120h415v-120h-415z" />
    <glyph glyph-name="star" unicode="&#x22c6;" horiz-adv-x="604" 
d="M310 344l-164 -103l42 189l-149 123l193 19l70 180l79 -177l194 -13l-145 -129l48 -187z" />
    <glyph glyph-name="lozenge" unicode="&#x25ca;" horiz-adv-x="568" 
d="M380 319l-94 168l-95 -168l95 -167zM213 0l-177 319l177 320h149l170 -320l-170 -319h-149z" />
    <glyph glyph-name="A.alt" unicode="&#xe000;" horiz-adv-x="517" 
d="M284 477q0 2 -2 2h-47q-2 0 -2 -2v-78h51v78zM388 -199q-104 0 -104 79v359h-51v-239h-208v558q0 81 104 81h259q104 0 104 -81v-596q0 -2 2 -2h258v-159h-364z" />
    <glyph glyph-name="H.alt" unicode="&#xe001;" horiz-adv-x="519" 
d="M389 -199q-104 0 -104 79v366h-51v-246h-208v639h208v-246h51v246h208v-677q0 -2 2 -2h258v-159h-364z" />
    <glyph glyph-name="h.alt" unicode="&#xe002;" horiz-adv-x="518" 
d="M390 -199q-105 0 -105 79v597q0 2 -2 2h-49v-479h-208v799h208v-160h155q104 0 104 -81v-596q0 -2 2 -2h258v-159h-363z" />
    <glyph glyph-name="L.alt" unicode="&#xe003;" horiz-adv-x="260" 
d="M26 -199v838h208v-679h260v-159h-468z" />
    <glyph glyph-name="M.alt" unicode="&#xe004;" horiz-adv-x="777" 
d="M650 -199q-19 0 -37.5 6.5t-33.5 17.5t-24 25.5t-9 29.5v597q0 2 -2 2h-49q-2 0 -2 -2v-477h-208v477q0 2 -2 2h-47q-2 0 -2 -2v-477h-208v639h208v-41q19 20 54.5 30.5t80.5 10.5q46 0 71.5 -12t42.5 -36q23 29 57.5 38.5t83.5 9.5q27 0 50.5 -6.5t40.5 -18.5t27 -28.5
t10 -35.5v-588q0 -2 2 -2h258v-159h-362z" />
    <glyph glyph-name="N.alt" unicode="&#xe005;" horiz-adv-x="518" 
d="M390 -199q-105 0 -105 79v597q0 2 -2 2h-47q-2 0 -2 -2v-477h-208v639h208v-41q53 41 155 41q104 0 104 -81v-596q0 -2 2 -2h258v-159h-363z" />
    <glyph glyph-name="Q.alt" unicode="&#xe006;" horiz-adv-x="516" 
d="M387 -199q-104 0 -104 79v120h-155q-104 0 -104 79v479q0 81 104 81h259q104 0 104 -81v-596q0 -2 2 -2h258v-159h-364zM283 477q0 2 -2 2h-47q-2 0 -2 -2v-316q0 -2 2 -2h49v318z" />
    <glyph glyph-name="R.alt" unicode="&#xe007;" horiz-adv-x="518" 
d="M389 -199q-104 0 -104 79v374q0 2 -2 2h-49v-256h-208v639h363q103 0 103 -81v-186q0 -46 -51 -52q52 -7 52 -53v-305q0 -2 2 -2h258v-159h-364zM285 477q0 2 -2 2h-49v-96h49q2 0 2 2v92z" />
    <glyph glyph-name="F.alt" unicode="&#xe008;" horiz-adv-x="445" 
d="M26 0v639h404v-160h-196v-39h194v-160h-194v-280h-208z" />
    <glyph glyph-name="special.i" unicode="&#xe009;" horiz-adv-x="260" 
d="M-37 0v159h63v320h-63v160h331v-160h-60v-320h60v-159h-331z" />
    <glyph glyph-name="i.alt" unicode="&#xe00a;" horiz-adv-x="260" 
d="M26 0v440h208v-440h-208zM26 479v160h208v-160h-208z" />
    <glyph glyph-name="j.alt" unicode="&#xe00b;" horiz-adv-x="510" 
d="M122 0q-104 0 -104 79v241h208v-159q0 -2 2 -2h47q2 0 2 2v279h208v-361q0 -79 -104 -79h-259zM277 479v160h208v-160h-208z" />
    <glyph glyph-name="A.2" unicode="&#xe00c;" horiz-adv-x="517" 
d="M285 477q0 2 -2 2h-47q-2 0 -2 -2v-78h51v78zM285 0v239h-51v-359q0 -79 -104 -79h-390v159h284q2 0 2 2v596q0 81 104 81h259q104 0 104 -81v-558h-208z" />
    <glyph glyph-name="F.2" unicode="&#xe00d;" horiz-adv-x="430" 
d="M-261 -199v159h284q2 0 2 2v596q0 81 104 81h286v-160h-180q-2 0 -2 -2v-37h180v-160h-180v-400q0 -79 -104 -79h-390z" />
    <glyph glyph-name="G.2" unicode="&#xe00e;" horiz-adv-x="517" 
d="M-260 -199v159h541q2 0 2 2v38h-155q-104 0 -104 79v479q0 81 104 81h363v-759q0 -79 -104 -79h-647zM283 479h-49q-2 0 -2 -2v-316q0 -2 2 -2h49v320z" />
    <glyph glyph-name="h.2" unicode="&#xe00f;" horiz-adv-x="518" 
d="M285 0v477q0 2 -2 2h-49v-599q0 -79 -105 -79h-363v159h258q2 0 2 2v837h208v-160h155q104 0 104 -81v-558h-208z" />
    <glyph glyph-name="H.2" unicode="&#xe010;" horiz-adv-x="519" 
d="M285 0v246h-51v-366q0 -79 -104 -79h-390v159h284q2 0 2 2v677h208v-246h51v246h208v-639h-208z" />
    <glyph glyph-name="M.2" unicode="&#xe011;" horiz-adv-x="777" 
d="M546 0v477q0 2 -2 2h-49q-2 0 -2 -2v-477h-208v477q0 2 -2 2h-47q-2 0 -2 -2v-597q0 -15 -9 -29.5t-24 -25.5t-33.5 -17.5t-37.5 -6.5h-364v159h258q2 0 2 2v677h208v-41q19 20 54.5 30.5t80.5 10.5q46 0 71.5 -12t42.5 -36q23 29 57.5 38.5t83.5 9.5q27 0 50.5 -6.5
t40.5 -18.5t27 -28.5t10 -35.5v-550h-206z" />
    <glyph glyph-name="N.2" unicode="&#xe012;" horiz-adv-x="518" 
d="M285 0v477q0 2 -2 2h-47q-2 0 -2 -2v-597q0 -79 -105 -79h-363v159h258q2 0 2 2v677h208v-41q53 41 155 41q104 0 104 -81v-558h-208z" />
    <glyph glyph-name="R.2" unicode="&#xe013;" horiz-adv-x="518" 
d="M285 0v254q0 2 -2 2h-49v-376q0 -79 -104 -79h-363v159h257q2 0 2 2v677h363q103 0 103 -81v-186q0 -46 -51 -52q52 -7 52 -53v-267h-208zM285 477q0 2 -2 2h-49v-96h49q2 0 2 2v92z" />
    <glyph glyph-name="Y.2" unicode="&#xe014;" horiz-adv-x="517" 
d="M-261 -199v159h542q2 0 2 2v38h-155q-104 0 -104 79v560h208v-478q0 -2 2 -2h49v480h208v-759q0 -79 -104 -79h-648z" />
    <glyph glyph-name="a_H.2" unicode="&#xe017;" horiz-adv-x="1035" 
d="M283 259h-49q-2 0 -2 -2v-96q0 -2 2 -2h49v100zM128 0q-104 0 -104 79v241q0 79 104 79h155v78q0 2 -2 2h-47q-2 0 -2 -2v-37h-208v118q0 81 104 81h259q104 0 104 -81v-558h-363zM801 0v246h-51v-366q0 -79 -104 -79h-622v159h516q2 0 2 2v677h208v-246h51v246h208v-639
h-208z" />
    <glyph glyph-name="a_h.2" unicode="&#xe018;" horiz-adv-x="1034" 
d="M283 259h-49q-2 0 -2 -2v-96q0 -2 2 -2h49v100zM128 0q-104 0 -104 79v241q0 79 104 79h155v78q0 2 -2 2h-47q-2 0 -2 -2v-37h-208v118q0 81 104 81h259q104 0 104 -81v-558h-363zM801 0v477q0 2 -2 2h-49v-599q0 -79 -105 -79h-621v159h516q2 0 2 2v837h208v-160h155
q104 0 104 -81v-558h-208z" />
    <glyph glyph-name="a_M.2" unicode="&#xe019;" horiz-adv-x="1293" 
d="M283 259h-49q-2 0 -2 -2v-96q0 -2 2 -2h49v100zM128 0q-104 0 -104 79v241q0 79 104 79h155v78q0 2 -2 2h-47q-2 0 -2 -2v-37h-208v118q0 81 104 81h259q104 0 104 -81v-558h-363zM1062 0v477q0 2 -2 2h-49q-2 0 -2 -2v-477h-208v477q0 2 -2 2h-47q-2 0 -2 -2v-597
q0 -15 -9 -29.5t-24 -25.5t-33.5 -17.5t-37.5 -6.5h-622v159h516q2 0 2 2v677h208v-41q19 20 54.5 30.5t80.5 10.5q46 0 71.5 -12t42.5 -36q23 29 57.5 38.5t83.5 9.5q27 0 50.5 -6.5t40.5 -18.5t27 -28.5t10 -35.5v-550h-206z" />
    <glyph glyph-name="a_N.2" unicode="&#xe01a;" horiz-adv-x="1034" 
d="M283 259h-49q-2 0 -2 -2v-96q0 -2 2 -2h49v100zM128 0q-104 0 -104 79v241q0 79 104 79h155v78q0 2 -2 2h-47q-2 0 -2 -2v-37h-208v118q0 81 104 81h259q104 0 104 -81v-558h-363zM801 0v477q0 2 -2 2h-47q-2 0 -2 -2v-597q0 -79 -105 -79h-621v159h516q2 0 2 2v677h208
v-41q53 41 155 41q104 0 104 -81v-558h-208z" />
    <glyph glyph-name="a_R.2" unicode="&#xe01b;" horiz-adv-x="1034" 
d="M283 259h-49q-2 0 -2 -2v-96q0 -2 2 -2h49v100zM128 0q-104 0 -104 79v241q0 79 104 79h155v78q0 2 -2 2h-47q-2 0 -2 -2v-37h-208v118q0 81 104 81h259q104 0 104 -81v-558h-363zM801 0v254q0 2 -2 2h-49v-376q0 -79 -104 -79h-622v159h516q2 0 2 2v677h363
q103 0 103 -81v-186q0 -46 -51 -52q52 -7 52 -53v-267h-208zM801 477q0 2 -2 2h-49v-96h49q2 0 2 2v92z" />
    <glyph glyph-name="b_A.2" unicode="&#xe03b;" horiz-adv-x="1035" 
d="M26 0v799h208v-160h155q104 0 104 -81v-479q0 -79 -104 -79h-363zM285 477q0 2 -2 2h-49v-320h49q2 0 2 2v316zM803 477q0 2 -2 2h-47q-2 0 -2 -2v-78h51v78zM803 0v239h-51v-359q0 -79 -104 -79h-622v159h516q2 0 2 2v596q0 81 104 81h259q104 0 104 -81v-558h-208z" />
    <glyph glyph-name="B_A.2" unicode="&#xe03c;" horiz-adv-x="1035" 
d="M285 477q0 2 -2 2h-49v-96h49q2 0 2 2v92zM26 0v639h363q103 0 103 -81v-186q0 -46 -51 -52q52 -7 52 -53v-188q0 -79 -104 -79h-363zM285 254q0 2 -2 2h-49v-97h49q2 0 2 2v93zM803 477q0 2 -2 2h-47q-2 0 -2 -2v-78h51v78zM803 0v239h-51v-359q0 -79 -104 -79h-622v159
h516q2 0 2 2v596q0 81 104 81h259q104 0 104 -81v-558h-208z" />
    <glyph glyph-name="b_R.2" unicode="&#xe03d;" horiz-adv-x="1036" 
d="M26 0v799h208v-160h155q104 0 104 -81v-479q0 -79 -104 -79h-363zM285 477q0 2 -2 2h-49v-320h49q2 0 2 2v316zM803 0v254q0 2 -2 2h-49v-376q0 -79 -104 -79h-622v159h516q2 0 2 2v677h363q103 0 103 -81v-186q0 -46 -51 -52q52 -7 52 -53v-267h-208zM803 477q0 2 -2 2
h-49v-96h49q2 0 2 2v92z" />
    <glyph glyph-name="B_R.2" unicode="&#xe03e;" horiz-adv-x="1036" 
d="M285 477q0 2 -2 2h-49v-96h49q2 0 2 2v92zM26 0v639h363q103 0 103 -81v-186q0 -46 -51 -52q52 -7 52 -53v-188q0 -79 -104 -79h-363zM285 254q0 2 -2 2h-49v-97h49q2 0 2 2v93zM803 0v254q0 2 -2 2h-49v-376q0 -79 -104 -79h-622v159h516q2 0 2 2v677h363q103 0 103 -81
v-186q0 -46 -51 -52q52 -7 52 -53v-267h-208zM803 477q0 2 -2 2h-49v-96h49q2 0 2 2v92z" />
    <glyph glyph-name="C_A.2" unicode="&#xe041;" horiz-adv-x="1032" 
d="M128 0q-104 0 -104 79v479q0 81 104 81h259q104 0 104 -81v-189h-208v108q0 2 -2 2h-47q-2 0 -2 -2v-316q0 -2 2 -2h47q2 0 2 2v149h208v-231q0 -79 -104 -79h-259zM800 477q0 2 -2 2h-47q-2 0 -2 -2v-78h51v78zM800 0v239h-51v-359q0 -79 -104 -79h-621v159h515q2 0 2 2
v596q0 81 104 81h259q104 0 104 -81v-558h-208z" />
    <glyph glyph-name="C_H.2" unicode="&#xe042;" horiz-adv-x="1034" 
d="M128 0q-104 0 -104 79v479q0 81 104 81h259q104 0 104 -81v-189h-208v108q0 2 -2 2h-47q-2 0 -2 -2v-316q0 -2 2 -2h47q2 0 2 2v149h208v-231q0 -79 -104 -79h-259zM800 0v246h-51v-366q0 -79 -104 -79h-621v159h515q2 0 2 2v677h208v-246h51v246h208v-639h-208z" />
    <glyph glyph-name="C_h.2" unicode="&#xe043;" horiz-adv-x="1033" 
d="M128 0q-104 0 -104 79v479q0 81 104 81h259q104 0 104 -81v-189h-208v108q0 2 -2 2h-47q-2 0 -2 -2v-316q0 -2 2 -2h47q2 0 2 2v149h208v-231q0 -79 -104 -79h-259zM800 0v477q0 2 -2 2h-49v-599q0 -79 -105 -79h-620v159h515q2 0 2 2v837h208v-160h155q104 0 104 -81
v-558h-208z" />
    <glyph glyph-name="C_R.2" unicode="&#xe044;" horiz-adv-x="1033" 
d="M128 0q-104 0 -104 79v479q0 81 104 81h259q104 0 104 -81v-189h-208v108q0 2 -2 2h-47q-2 0 -2 -2v-316q0 -2 2 -2h47q2 0 2 2v149h208v-231q0 -79 -104 -79h-259zM800 0v254q0 2 -2 2h-49v-376q0 -79 -104 -79h-621v159h515q2 0 2 2v677h363q103 0 103 -81v-186
q0 -46 -51 -52q52 -7 52 -53v-267h-208zM800 477q0 2 -2 2h-49v-96h49q2 0 2 2v92z" />
    <glyph glyph-name="d_A.2" unicode="&#xe046;" horiz-adv-x="1034" 
d="M128 0q-54 0 -79 19.5t-25 59.5v479q0 81 104 81h155v160h208v-799h-363zM283 479h-49q-2 0 -2 -2v-316q0 -2 2 -2h49v320zM802 477q0 2 -2 2h-47q-2 0 -2 -2v-78h51v78zM802 0v239h-51v-359q0 -79 -104 -79h-623v159h517q2 0 2 2v596q0 81 104 81h259q104 0 104 -81
v-558h-208z" />
    <glyph glyph-name="D_A.2" unicode="&#xe047;" horiz-adv-x="1034" 
d="M285 477q0 2 -2 2h-49v-320h49q2 0 2 2v316zM26 0v639h363q104 0 104 -81v-479q0 -79 -104 -79h-363zM802 477q0 2 -2 2h-47q-2 0 -2 -2v-78h51v78zM802 0v239h-51v-359q0 -79 -104 -79h-621v159h515q2 0 2 2v596q0 81 104 81h259q104 0 104 -81v-558h-208z" />
    <glyph glyph-name="D_M.2" unicode="&#xe04b;" horiz-adv-x="1294" 
d="M285 477q0 2 -2 2h-49v-320h49q2 0 2 2v316zM26 0v639h363q104 0 104 -81v-479q0 -79 -104 -79h-363zM1063 0v477q0 2 -2 2h-49q-2 0 -2 -2v-477h-208v477q0 2 -2 2h-47q-2 0 -2 -2v-597q0 -15 -9 -29.5t-24 -25.5t-33.5 -17.5t-37.5 -6.5h-621v159h515q2 0 2 2v677h208
v-41q19 20 54.5 30.5t80.5 10.5q46 0 71.5 -12t42.5 -36q23 29 57.5 38.5t83.5 9.5q27 0 50.5 -6.5t40.5 -18.5t27 -28.5t10 -35.5v-550h-206z" />
    <glyph glyph-name="D_N.2" unicode="&#xe04c;" horiz-adv-x="1035" 
d="M285 477q0 2 -2 2h-49v-320h49q2 0 2 2v316zM26 0v639h363q104 0 104 -81v-479q0 -79 -104 -79h-363zM802 0v477q0 2 -2 2h-47q-2 0 -2 -2v-597q0 -79 -105 -79h-620v159h515q2 0 2 2v677h208v-41q53 41 155 41q104 0 104 -81v-558h-208z" />
    <glyph glyph-name="d_R.2" unicode="&#xe04d;" horiz-adv-x="1035" 
d="M128 0q-54 0 -79 19.5t-25 59.5v479q0 81 104 81h155v160h208v-799h-363zM283 479h-49q-2 0 -2 -2v-316q0 -2 2 -2h49v320zM802 0v254q0 2 -2 2h-49v-376q0 -79 -104 -79h-623v159h517q2 0 2 2v677h363q103 0 103 -81v-186q0 -46 -51 -52q52 -7 52 -53v-267h-208z
M802 477q0 2 -2 2h-49v-96h49q2 0 2 2v92z" />
    <glyph glyph-name="D_R.2" unicode="&#xe04e;" horiz-adv-x="1035" 
d="M285 477q0 2 -2 2h-49v-320h49q2 0 2 2v316zM26 0v639h363q104 0 104 -81v-479q0 -79 -104 -79h-363zM802 0v254q0 2 -2 2h-49v-376q0 -79 -104 -79h-621v159h515q2 0 2 2v677h363q103 0 103 -81v-186q0 -46 -51 -52q52 -7 52 -53v-267h-208zM802 477q0 2 -2 2h-49v-96
h49q2 0 2 2v92z" />
    <glyph glyph-name="e_A.2" unicode="&#xe051;" horiz-adv-x="1032" 
d="M283 477q0 2 -2 2h-47q-2 0 -2 -2v-89h51v89zM128 0q-104 0 -104 79v479q0 81 104 81h259q104 0 104 -81v-319h-259v-78q0 -2 2 -2h47q2 0 2 2v38h208v-120q0 -79 -104 -79h-259zM800 477q0 2 -2 2h-47q-2 0 -2 -2v-78h51v78zM800 0v239h-51v-359q0 -79 -104 -79h-621
v159h515q2 0 2 2v596q0 81 104 81h259q104 0 104 -81v-558h-208z" />
    <glyph glyph-name="E_A.2" unicode="&#xe052;" horiz-adv-x="920" 
d="M26 0v639h352v-160h-144v-80h142v-160h-142v-80h145v-159h-353zM688 477q0 2 -2 2h-47q-2 0 -2 -2v-78h51v78zM688 0v239h-51v-359q0 -79 -104 -79h-506v159h400q2 0 2 2v596q0 81 104 81h259q104 0 104 -81v-558h-208z" />
    <glyph glyph-name="e_H.2" unicode="&#xe057;" horiz-adv-x="1034" 
d="M283 477q0 2 -2 2h-47q-2 0 -2 -2v-89h51v89zM128 0q-104 0 -104 79v479q0 81 104 81h259q104 0 104 -81v-319h-259v-78q0 -2 2 -2h47q2 0 2 2v38h208v-120q0 -79 -104 -79h-259zM800 0v246h-51v-366q0 -79 -104 -79h-621v159h515q2 0 2 2v677h208v-246h51v246h208v-639
h-208z" />
    <glyph glyph-name="e_h.2" unicode="&#xe058;" horiz-adv-x="1033" 
d="M283 477q0 2 -2 2h-47q-2 0 -2 -2v-89h51v89zM128 0q-104 0 -104 79v479q0 81 104 81h259q104 0 104 -81v-319h-259v-78q0 -2 2 -2h47q2 0 2 2v38h208v-120q0 -79 -104 -79h-259zM800 0v477q0 2 -2 2h-49v-599q0 -79 -105 -79h-620v159h515q2 0 2 2v837h208v-160h155
q104 0 104 -81v-558h-208z" />
    <glyph glyph-name="E_H.2" unicode="&#xe059;" horiz-adv-x="922" 
d="M26 0v639h352v-160h-144v-80h142v-160h-142v-80h145v-159h-353zM688 0v246h-51v-366q0 -79 -104 -79h-507v159h401q2 0 2 2v677h208v-246h51v246h208v-639h-208z" />
    <glyph glyph-name="E_h.2" unicode="&#xe05a;" horiz-adv-x="921" 
d="M26 0v639h352v-160h-144v-80h142v-160h-142v-80h145v-159h-353zM688 0v477q0 2 -2 2h-49v-599q0 -79 -105 -79h-506v159h401q2 0 2 2v837h208v-160h155q104 0 104 -81v-558h-208z" />
    <glyph glyph-name="e_M.2" unicode="&#xe05b;" horiz-adv-x="1292" 
d="M283 477q0 2 -2 2h-47q-2 0 -2 -2v-89h51v89zM128 0q-104 0 -104 79v479q0 81 104 81h259q104 0 104 -81v-319h-259v-78q0 -2 2 -2h47q2 0 2 2v38h208v-120q0 -79 -104 -79h-259zM1061 0v477q0 2 -2 2h-49q-2 0 -2 -2v-477h-208v477q0 2 -2 2h-47q-2 0 -2 -2v-597
q0 -15 -9 -29.5t-24 -25.5t-33.5 -17.5t-37.5 -6.5h-621v159h515q2 0 2 2v677h208v-41q19 20 54.5 30.5t80.5 10.5q46 0 71.5 -12t42.5 -36q23 29 57.5 38.5t83.5 9.5q27 0 50.5 -6.5t40.5 -18.5t27 -28.5t10 -35.5v-550h-206z" />
    <glyph glyph-name="E_M.2" unicode="&#xe05c;" horiz-adv-x="1180" 
d="M26 0v639h352v-160h-144v-80h142v-160h-142v-80h145v-159h-353zM949 0v477q0 2 -2 2h-49q-2 0 -2 -2v-477h-208v477q0 2 -2 2h-47q-2 0 -2 -2v-597q0 -15 -9 -29.5t-24 -25.5t-33.5 -17.5t-37.5 -6.5h-507v159h401q2 0 2 2v677h208v-41q19 20 54.5 30.5t80.5 10.5
q46 0 71.5 -12t42.5 -36q23 29 57.5 38.5t83.5 9.5q27 0 50.5 -6.5t40.5 -18.5t27 -28.5t10 -35.5v-550h-206z" />
    <glyph glyph-name="e_N.2" unicode="&#xe05d;" horiz-adv-x="1033" 
d="M283 477q0 2 -2 2h-47q-2 0 -2 -2v-89h51v89zM128 0q-104 0 -104 79v479q0 81 104 81h259q104 0 104 -81v-319h-259v-78q0 -2 2 -2h47q2 0 2 2v38h208v-120q0 -79 -104 -79h-259zM800 0v477q0 2 -2 2h-47q-2 0 -2 -2v-597q0 -79 -105 -79h-620v159h515q2 0 2 2v677h208
v-41q53 41 155 41q104 0 104 -81v-558h-208z" />
    <glyph glyph-name="E_N.2" unicode="&#xe05e;" horiz-adv-x="921" 
d="M26 0v639h352v-160h-144v-80h142v-160h-142v-80h145v-159h-353zM688 0v477q0 2 -2 2h-47q-2 0 -2 -2v-597q0 -79 -105 -79h-506v159h401q2 0 2 2v677h208v-41q53 41 155 41q104 0 104 -81v-558h-208z" />
    <glyph glyph-name="e_R.2" unicode="&#xe05f;" horiz-adv-x="1033" 
d="M283 477q0 2 -2 2h-47q-2 0 -2 -2v-89h51v89zM128 0q-104 0 -104 79v479q0 81 104 81h259q104 0 104 -81v-319h-259v-78q0 -2 2 -2h47q2 0 2 2v38h208v-120q0 -79 -104 -79h-259zM800 0v254q0 2 -2 2h-49v-376q0 -79 -104 -79h-621v159h515q2 0 2 2v677h363
q103 0 103 -81v-186q0 -46 -51 -52q52 -7 52 -53v-267h-208zM800 477q0 2 -2 2h-49v-96h49q2 0 2 2v92z" />
    <glyph glyph-name="E_R.2" unicode="&#xe060;" horiz-adv-x="921" 
d="M26 0v639h352v-160h-144v-80h142v-160h-142v-80h145v-159h-353zM688 0v254q0 2 -2 2h-49v-376q0 -79 -104 -79h-507v159h401q2 0 2 2v677h363q103 0 103 -81v-186q0 -46 -51 -52q52 -7 52 -53v-267h-208zM688 477q0 2 -2 2h-49v-96h49q2 0 2 2v92z" />
    <glyph glyph-name="F_A.2" unicode="&#xe063;" horiz-adv-x="947" 
d="M25 0v558q0 81 104 81h286v-160h-180q-2 0 -2 -2v-37h180v-160h-180v-280h-208zM715 477q0 2 -2 2h-47q-2 0 -2 -2v-78h51v78zM715 0v239h-51v-359q0 -79 -104 -79h-535v159h429q2 0 2 2v596q0 81 104 81h259q104 0 104 -81v-558h-208z" />
    <glyph glyph-name="F_R.2" unicode="&#xe065;" horiz-adv-x="948" 
d="M25 0v558q0 81 104 81h286v-160h-180q-2 0 -2 -2v-37h180v-160h-180v-280h-208zM715 0v254q0 2 -2 2h-49v-376q0 -79 -104 -79h-535v159h429q2 0 2 2v677h363q103 0 103 -81v-186q0 -46 -51 -52q52 -7 52 -53v-267h-208zM715 477q0 2 -2 2h-49v-96h49q2 0 2 2v92z" />
    <glyph glyph-name="G_A.2" unicode="&#xe067;" horiz-adv-x="1033" 
d="M128 0q-104 0 -104 79v479q0 81 104 81h259q104 0 104 -81v-108h-208v27q0 2 -2 2h-47q-2 0 -2 -2v-316q0 -2 2 -2h49v232h208v-391h-363zM801 477q0 2 -2 2h-47q-2 0 -2 -2v-78h51v78zM801 0v239h-51v-359q0 -79 -104 -79h-622v159h516q2 0 2 2v596q0 81 104 81h259
q104 0 104 -81v-558h-208z" />
    <glyph glyph-name="G_H.2" unicode="&#xe068;" horiz-adv-x="1035" 
d="M128 0q-104 0 -104 79v479q0 81 104 81h259q104 0 104 -81v-108h-208v27q0 2 -2 2h-47q-2 0 -2 -2v-316q0 -2 2 -2h49v232h208v-391h-363zM801 0v246h-51v-366q0 -79 -104 -79h-622v159h516q2 0 2 2v677h208v-246h51v246h208v-639h-208z" />
    <glyph glyph-name="G_h.2" unicode="&#xe069;" horiz-adv-x="1034" 
d="M128 0q-104 0 -104 79v479q0 81 104 81h259q104 0 104 -81v-108h-208v27q0 2 -2 2h-47q-2 0 -2 -2v-316q0 -2 2 -2h49v232h208v-391h-363zM801 0v477q0 2 -2 2h-49v-599q0 -79 -105 -79h-621v159h516q2 0 2 2v837h208v-160h155q104 0 104 -81v-558h-208z" />
    <glyph glyph-name="G_M.2" unicode="&#xe06a;" horiz-adv-x="1293" 
d="M128 0q-104 0 -104 79v479q0 81 104 81h259q104 0 104 -81v-108h-208v27q0 2 -2 2h-47q-2 0 -2 -2v-316q0 -2 2 -2h49v232h208v-391h-363zM1062 0v477q0 2 -2 2h-49q-2 0 -2 -2v-477h-208v477q0 2 -2 2h-47q-2 0 -2 -2v-597q0 -15 -9 -29.5t-24 -25.5t-33.5 -17.5
t-37.5 -6.5h-622v159h516q2 0 2 2v677h208v-41q19 20 54.5 30.5t80.5 10.5q46 0 71.5 -12t42.5 -36q23 29 57.5 38.5t83.5 9.5q27 0 50.5 -6.5t40.5 -18.5t27 -28.5t10 -35.5v-550h-206z" />
    <glyph glyph-name="G_N.2" unicode="&#xe06b;" horiz-adv-x="1034" 
d="M128 0q-104 0 -104 79v479q0 81 104 81h259q104 0 104 -81v-108h-208v27q0 2 -2 2h-47q-2 0 -2 -2v-316q0 -2 2 -2h49v232h208v-391h-363zM801 0v477q0 2 -2 2h-47q-2 0 -2 -2v-597q0 -79 -105 -79h-621v159h516q2 0 2 2v677h208v-41q53 41 155 41q104 0 104 -81v-558
h-208z" />
    <glyph glyph-name="G_R.2" unicode="&#xe06c;" horiz-adv-x="1034" 
d="M128 0q-104 0 -104 79v479q0 81 104 81h259q104 0 104 -81v-108h-208v27q0 2 -2 2h-47q-2 0 -2 -2v-316q0 -2 2 -2h49v232h208v-391h-363zM801 0v254q0 2 -2 2h-49v-376q0 -79 -104 -79h-622v159h516q2 0 2 2v677h363q103 0 103 -81v-186q0 -46 -51 -52q52 -7 52 -53
v-267h-208zM801 477q0 2 -2 2h-49v-96h49q2 0 2 2v92z" />
    <glyph glyph-name="h.alt_C" unicode="&#xe072;" horiz-adv-x="1033" 
d="M390 -199q-105 0 -105 79v597q0 2 -2 2h-49v-479h-208v799h208v-160h155q104 0 104 -81v-596q0 -2 2 -2h514v-159h-619zM646 0q-104 0 -104 79v479q0 81 104 81h259q104 0 104 -81v-189h-208v108q0 2 -2 2h-47q-2 0 -2 -2v-316q0 -2 2 -2h47q2 0 2 2v149h208v-231
q0 -79 -104 -79h-259z" />
    <glyph glyph-name="I_A.2" unicode="&#xe096;" horiz-adv-x="777" 
d="M26 0v639h208v-639h-208zM545 477q0 2 -2 2h-47q-2 0 -2 -2v-78h51v78zM545 0v239h-51v-359q0 -79 -104 -79h-363v159h257q2 0 2 2v596q0 81 104 81h259q104 0 104 -81v-558h-208z" />
    <glyph glyph-name="I_M.2" unicode="&#xe099;" horiz-adv-x="1037" 
d="M26 0v639h208v-639h-208zM806 0v477q0 2 -2 2h-49q-2 0 -2 -2v-477h-208v477q0 2 -2 2h-47q-2 0 -2 -2v-597q0 -15 -9 -29.5t-24 -25.5t-33.5 -17.5t-37.5 -6.5h-364v159h258q2 0 2 2v677h208v-41q19 20 54.5 30.5t80.5 10.5q46 0 71.5 -12t42.5 -36q23 29 57.5 38.5
t83.5 9.5q27 0 50.5 -6.5t40.5 -18.5t27 -28.5t10 -35.5v-550h-206z" />
    <glyph glyph-name="I_N.2" unicode="&#xe09a;" horiz-adv-x="778" 
d="M26 0v639h208v-639h-208zM545 0v477q0 2 -2 2h-47q-2 0 -2 -2v-597q0 -79 -105 -79h-363v159h258q2 0 2 2v677h208v-41q53 41 155 41q104 0 104 -81v-558h-208z" />
    <glyph glyph-name="I_R.2" unicode="&#xe09b;" horiz-adv-x="778" 
d="M26 0v639h208v-639h-208zM545 0v254q0 2 -2 2h-49v-376q0 -79 -104 -79h-364v159h258q2 0 2 2v677h363q103 0 103 -81v-186q0 -46 -51 -52q52 -7 52 -53v-267h-208zM545 477q0 2 -2 2h-49v-96h49q2 0 2 2v92z" />
    <glyph glyph-name="J_A.2" unicode="&#xe09c;" horiz-adv-x="1027" 
d="M122 0q-104 0 -104 79v241h208v-159q0 -2 2 -2h47q2 0 2 2v478h208v-560q0 -79 -104 -79h-259zM795 477q0 2 -2 2h-47q-2 0 -2 -2v-78h51v78zM795 0v239h-51v-359q0 -79 -104 -79h-622v159h516q2 0 2 2v596q0 81 104 81h259q104 0 104 -81v-558h-208z" />
    <glyph glyph-name="K_A.2" unicode="&#xe09d;" horiz-adv-x="1029" 
d="M295 0l-68 171v-171h-201v639h201v-163l62 163h219l-143 -308l149 -331h-219zM797 477q0 2 -2 2h-47q-2 0 -2 -2v-78h51v78zM797 0v239h-51v-359q0 -79 -104 -79h-616v159h510q2 0 2 2v596q0 81 104 81h259q104 0 104 -81v-558h-208z" />
    <glyph glyph-name="K_H.2" unicode="&#xe09f;" horiz-adv-x="1031" 
d="M295 0l-68 171v-171h-201v639h201v-163l62 163h219l-143 -308l149 -331h-219zM797 0v246h-51v-366q0 -79 -104 -79h-616v159h510q2 0 2 2v677h208v-246h51v246h208v-639h-208z" />
    <glyph glyph-name="K_N.2" unicode="&#xe0a1;" horiz-adv-x="1030" 
d="M295 0l-68 171v-171h-201v639h201v-163l62 163h219l-143 -308l149 -331h-219zM797 0v477q0 2 -2 2h-47q-2 0 -2 -2v-597q0 -79 -105 -79h-615v159h510q2 0 2 2v677h208v-41q53 41 155 41q104 0 104 -81v-558h-208z" />
    <glyph glyph-name="K_R.2" unicode="&#xe0a2;" horiz-adv-x="1030" 
d="M295 0l-68 171v-171h-201v639h201v-163l62 163h219l-143 -308l149 -331h-219zM797 0v254q0 2 -2 2h-49v-376q0 -79 -104 -79h-616v159h510q2 0 2 2v677h363q103 0 103 -81v-186q0 -46 -51 -52q52 -7 52 -53v-267h-208zM797 477q0 2 -2 2h-49v-96h49q2 0 2 2v92z" />
    <glyph glyph-name="O_A.2" unicode="&#xe0f5;" horiz-adv-x="1032" 
d="M283 477q0 2 -2 2h-47q-2 0 -2 -2v-316q0 -2 2 -2h47q2 0 2 2v316zM128 0q-104 0 -104 79v479q0 81 104 81h259q104 0 104 -81v-479q0 -79 -104 -79h-259zM800 477q0 2 -2 2h-47q-2 0 -2 -2v-78h51v78zM800 0v239h-51v-359q0 -79 -104 -79h-621v159h515q2 0 2 2v596
q0 81 104 81h259q104 0 104 -81v-558h-208z" />
    <glyph glyph-name="O_H.2" unicode="&#xe0f8;" horiz-adv-x="1034" 
d="M283 477q0 2 -2 2h-47q-2 0 -2 -2v-316q0 -2 2 -2h47q2 0 2 2v316zM128 0q-104 0 -104 79v479q0 81 104 81h259q104 0 104 -81v-479q0 -79 -104 -79h-259zM800 0v246h-51v-366q0 -79 -104 -79h-621v159h515q2 0 2 2v677h208v-246h51v246h208v-639h-208z" />
    <glyph glyph-name="O_h.2" unicode="&#xe0f9;" horiz-adv-x="1033" 
d="M283 477q0 2 -2 2h-47q-2 0 -2 -2v-316q0 -2 2 -2h47q2 0 2 2v316zM128 0q-104 0 -104 79v479q0 81 104 81h259q104 0 104 -81v-479q0 -79 -104 -79h-259zM800 0v477q0 2 -2 2h-49v-599q0 -79 -105 -79h-620v159h515q2 0 2 2v837h208v-160h155q104 0 104 -81v-558h-208z
" />
    <glyph glyph-name="O_M.2" unicode="&#xe0fa;" horiz-adv-x="1292" 
d="M283 477q0 2 -2 2h-47q-2 0 -2 -2v-316q0 -2 2 -2h47q2 0 2 2v316zM128 0q-104 0 -104 79v479q0 81 104 81h259q104 0 104 -81v-479q0 -79 -104 -79h-259zM1061 0v477q0 2 -2 2h-49q-2 0 -2 -2v-477h-208v477q0 2 -2 2h-47q-2 0 -2 -2v-597q0 -15 -9 -29.5t-24 -25.5
t-33.5 -17.5t-37.5 -6.5h-621v159h515q2 0 2 2v677h208v-41q19 20 54.5 30.5t80.5 10.5q46 0 71.5 -12t42.5 -36q23 29 57.5 38.5t83.5 9.5q27 0 50.5 -6.5t40.5 -18.5t27 -28.5t10 -35.5v-550h-206z" />
    <glyph glyph-name="O_N.2" unicode="&#xe0fb;" horiz-adv-x="1033" 
d="M283 477q0 2 -2 2h-47q-2 0 -2 -2v-316q0 -2 2 -2h47q2 0 2 2v316zM128 0q-104 0 -104 79v479q0 81 104 81h259q104 0 104 -81v-479q0 -79 -104 -79h-259zM800 0v477q0 2 -2 2h-47q-2 0 -2 -2v-597q0 -79 -105 -79h-620v159h515q2 0 2 2v677h208v-41q53 41 155 41
q104 0 104 -81v-558h-208z" />
    <glyph glyph-name="O_R.2" unicode="&#xe0fc;" horiz-adv-x="1033" 
d="M283 477q0 2 -2 2h-47q-2 0 -2 -2v-316q0 -2 2 -2h47q2 0 2 2v316zM128 0q-104 0 -104 79v479q0 81 104 81h259q104 0 104 -81v-479q0 -79 -104 -79h-259zM800 0v254q0 2 -2 2h-49v-376q0 -79 -104 -79h-621v159h515q2 0 2 2v677h363q103 0 103 -81v-186q0 -46 -51 -52
q52 -7 52 -53v-267h-208zM800 477q0 2 -2 2h-49v-96h49q2 0 2 2v92z" />
    <glyph glyph-name="P_A.2" unicode="&#xe0fe;" horiz-adv-x="1025" 
d="M285 477q0 2 -2 2h-49v-89h49q2 0 2 2v85zM26 0v639h363q104 0 104 -81v-238q0 -81 -104 -81h-155v-239h-208zM793 477q0 2 -2 2h-47q-2 0 -2 -2v-78h51v78zM793 0v239h-51v-359q0 -79 -104 -79h-611v159h505q2 0 2 2v596q0 81 104 81h259q104 0 104 -81v-558h-208z" />
    <glyph glyph-name="P_H.2" unicode="&#xe0ff;" horiz-adv-x="1027" 
d="M285 477q0 2 -2 2h-49v-89h49q2 0 2 2v85zM26 0v639h363q104 0 104 -81v-238q0 -81 -104 -81h-155v-239h-208zM793 0v246h-51v-366q0 -79 -104 -79h-611v159h505q2 0 2 2v677h208v-246h51v246h208v-639h-208z" />
    <glyph glyph-name="P_h.2" unicode="&#xe100;" horiz-adv-x="1026" 
d="M285 477q0 2 -2 2h-49v-89h49q2 0 2 2v85zM26 0v639h363q104 0 104 -81v-238q0 -81 -104 -81h-155v-239h-208zM793 0v477q0 2 -2 2h-49v-599q0 -79 -105 -79h-611v159h506q2 0 2 2v837h208v-160h155q104 0 104 -81v-558h-208z" />
    <glyph glyph-name="P_M.2" unicode="&#xe101;" horiz-adv-x="1285" 
d="M285 477q0 2 -2 2h-49v-89h49q2 0 2 2v85zM26 0v639h363q104 0 104 -81v-238q0 -81 -104 -81h-155v-239h-208zM1054 0v477q0 2 -2 2h-49q-2 0 -2 -2v-477h-208v477q0 2 -2 2h-47q-2 0 -2 -2v-597q0 -15 -9 -29.5t-24 -25.5t-33.5 -17.5t-37.5 -6.5h-611v159h505q2 0 2 2
v677h208v-41q19 20 54.5 30.5t80.5 10.5q46 0 71.5 -12t42.5 -36q23 29 57.5 38.5t83.5 9.5q27 0 50.5 -6.5t40.5 -18.5t27 -28.5t10 -35.5v-550h-206z" />
    <glyph glyph-name="P_N.2" unicode="&#xe102;" horiz-adv-x="1026" 
d="M285 477q0 2 -2 2h-49v-89h49q2 0 2 2v85zM26 0v639h363q104 0 104 -81v-238q0 -81 -104 -81h-155v-239h-208zM793 0v477q0 2 -2 2h-47q-2 0 -2 -2v-597q0 -79 -105 -79h-610v159h505q2 0 2 2v677h208v-41q53 41 155 41q104 0 104 -81v-558h-208z" />
    <glyph glyph-name="P_R.2" unicode="&#xe103;" horiz-adv-x="1026" 
d="M285 477q0 2 -2 2h-49v-89h49q2 0 2 2v85zM26 0v639h363q104 0 104 -81v-238q0 -81 -104 -81h-155v-239h-208zM793 0v254q0 2 -2 2h-49v-376q0 -79 -104 -79h-611v159h505q2 0 2 2v677h363q103 0 103 -81v-186q0 -46 -51 -52q52 -7 52 -53v-267h-208zM793 477q0 2 -2 2
h-49v-96h49q2 0 2 2v92z" />
    <glyph glyph-name="S_A.2" unicode="&#xe123;" horiz-adv-x="1032" 
d="M128 0q-104 0 -104 79v120h208v-38q0 -2 2 -2h47q2 0 2 2v76q0 2 -2 2h-153q-104 0 -104 81v238q0 81 104 81h259q104 0 104 -81v-118h-208v37q0 2 -2 2h-47q-2 0 -2 -2v-76q0 -2 2 -2h153q104 0 104 -79v-241q0 -79 -104 -79h-259zM800 477q0 2 -2 2h-47q-2 0 -2 -2v-78
h51v78zM800 0v239h-51v-359q0 -79 -104 -79h-621v159h515q2 0 2 2v596q0 81 104 81h259q104 0 104 -81v-558h-208z" />
    <glyph glyph-name="S_G.2" unicode="&#xe125;" horiz-adv-x="1032" 
d="M128 0q-104 0 -104 79v120h208v-38q0 -2 2 -2h47q2 0 2 2v76q0 2 -2 2h-153q-104 0 -104 81v238q0 81 104 81h259q104 0 104 -81v-118h-208v37q0 2 -2 2h-47q-2 0 -2 -2v-76q0 -2 2 -2h153q104 0 104 -79v-241q0 -79 -104 -79h-259zM24 -199v159h772q2 0 2 2v38h-155
q-104 0 -104 79v479q0 81 104 81h363v-759q0 -79 -104 -79h-878zM798 479h-49q-2 0 -2 -2v-316q0 -2 2 -2h49v320z" />
    <glyph glyph-name="S_H.2" unicode="&#xe126;" horiz-adv-x="1034" 
d="M128 0q-104 0 -104 79v120h208v-38q0 -2 2 -2h47q2 0 2 2v76q0 2 -2 2h-153q-104 0 -104 81v238q0 81 104 81h259q104 0 104 -81v-118h-208v37q0 2 -2 2h-47q-2 0 -2 -2v-76q0 -2 2 -2h153q104 0 104 -79v-241q0 -79 -104 -79h-259zM800 0v246h-51v-366q0 -79 -104 -79
h-621v159h515q2 0 2 2v677h208v-246h51v246h208v-639h-208z" />
    <glyph glyph-name="S_h.2" unicode="&#xe127;" horiz-adv-x="1033" 
d="M128 0q-104 0 -104 79v120h208v-38q0 -2 2 -2h47q2 0 2 2v76q0 2 -2 2h-153q-104 0 -104 81v238q0 81 104 81h259q104 0 104 -81v-118h-208v37q0 2 -2 2h-47q-2 0 -2 -2v-76q0 -2 2 -2h153q104 0 104 -79v-241q0 -79 -104 -79h-259zM800 0v477q0 2 -2 2h-49v-599
q0 -79 -105 -79h-620v159h515q2 0 2 2v837h208v-160h155q104 0 104 -81v-558h-208z" />
    <glyph glyph-name="S_M.2" unicode="&#xe128;" horiz-adv-x="1292" 
d="M128 0q-104 0 -104 79v120h208v-38q0 -2 2 -2h47q2 0 2 2v76q0 2 -2 2h-153q-104 0 -104 81v238q0 81 104 81h259q104 0 104 -81v-118h-208v37q0 2 -2 2h-47q-2 0 -2 -2v-76q0 -2 2 -2h153q104 0 104 -79v-241q0 -79 -104 -79h-259zM1061 0v477q0 2 -2 2h-49q-2 0 -2 -2
v-477h-208v477q0 2 -2 2h-47q-2 0 -2 -2v-597q0 -15 -9 -29.5t-24 -25.5t-33.5 -17.5t-37.5 -6.5h-621v159h515q2 0 2 2v677h208v-41q19 20 54.5 30.5t80.5 10.5q46 0 71.5 -12t42.5 -36q23 29 57.5 38.5t83.5 9.5q27 0 50.5 -6.5t40.5 -18.5t27 -28.5t10 -35.5v-550h-206z
" />
    <glyph glyph-name="S_N.2" unicode="&#xe129;" horiz-adv-x="1033" 
d="M128 0q-104 0 -104 79v120h208v-38q0 -2 2 -2h47q2 0 2 2v76q0 2 -2 2h-153q-104 0 -104 81v238q0 81 104 81h259q104 0 104 -81v-118h-208v37q0 2 -2 2h-47q-2 0 -2 -2v-76q0 -2 2 -2h153q104 0 104 -79v-241q0 -79 -104 -79h-259zM800 0v477q0 2 -2 2h-47q-2 0 -2 -2
v-597q0 -79 -105 -79h-620v159h515q2 0 2 2v677h208v-41q53 41 155 41q104 0 104 -81v-558h-208z" />
    <glyph glyph-name="S_R.2" unicode="&#xe12a;" horiz-adv-x="1033" 
d="M128 0q-104 0 -104 79v120h208v-38q0 -2 2 -2h47q2 0 2 2v76q0 2 -2 2h-153q-104 0 -104 81v238q0 81 104 81h259q104 0 104 -81v-118h-208v37q0 2 -2 2h-47q-2 0 -2 -2v-76q0 -2 2 -2h153q104 0 104 -79v-241q0 -79 -104 -79h-259zM800 0v254q0 2 -2 2h-49v-376
q0 -79 -104 -79h-621v159h515q2 0 2 2v677h363q103 0 103 -81v-186q0 -46 -51 -52q52 -7 52 -53v-267h-208zM800 477q0 2 -2 2h-49v-96h49q2 0 2 2v92z" />
    <glyph glyph-name="T_A.2" unicode="&#xe12c;" horiz-adv-x="1066" 
d="M161 0q-104 0 -104 79v361h-51v158h51v41h208v-41h259v-158h-259v-279q0 -2 2 -2h48q2 0 2 2v238h207v-320q0 -79 -104 -79h-259zM834 477q0 2 -2 2h-47q-2 0 -2 -2v-78h51v78zM834 0v239h-51v-359q0 -79 -104 -79h-622v159h516q2 0 2 2v596q0 81 104 81h259
q104 0 104 -81v-558h-208z" />
    <glyph glyph-name="T_H.2" unicode="&#xe12f;" horiz-adv-x="1068" 
d="M161 0q-104 0 -104 79v361h-51v158h51v41h208v-41h259v-158h-259v-279q0 -2 2 -2h48q2 0 2 2v238h207v-320q0 -79 -104 -79h-259zM834 0v246h-51v-366q0 -79 -104 -79h-622v159h516q2 0 2 2v677h208v-246h51v246h208v-639h-208z" />
    <glyph glyph-name="T_h.2" unicode="&#xe130;" horiz-adv-x="1067" 
d="M161 0q-104 0 -104 79v361h-51v158h51v41h208v-41h259v-158h-259v-279q0 -2 2 -2h48q2 0 2 2v238h207v-320q0 -79 -104 -79h-259zM834 0v477q0 2 -2 2h-49v-599q0 -79 -105 -79h-621v159h516q2 0 2 2v837h208v-160h155q104 0 104 -81v-558h-208z" />
    <glyph glyph-name="T_M.2" unicode="&#xe131;" horiz-adv-x="1326" 
d="M161 0q-104 0 -104 79v361h-51v158h51v41h208v-41h259v-158h-259v-279q0 -2 2 -2h48q2 0 2 2v238h207v-320q0 -79 -104 -79h-259zM1095 0v477q0 2 -2 2h-49q-2 0 -2 -2v-477h-208v477q0 2 -2 2h-47q-2 0 -2 -2v-597q0 -15 -9 -29.5t-24 -25.5t-33.5 -17.5t-37.5 -6.5
h-622v159h516q2 0 2 2v677h208v-41q19 20 54.5 30.5t80.5 10.5q46 0 71.5 -12t42.5 -36q23 29 57.5 38.5t83.5 9.5q27 0 50.5 -6.5t40.5 -18.5t27 -28.5t10 -35.5v-550h-206z" />
    <glyph glyph-name="T_N.2" unicode="&#xe132;" horiz-adv-x="1067" 
d="M161 0q-104 0 -104 79v361h-51v158h51v41h208v-41h259v-158h-259v-279q0 -2 2 -2h48q2 0 2 2v238h207v-320q0 -79 -104 -79h-259zM834 0v477q0 2 -2 2h-47q-2 0 -2 -2v-597q0 -79 -105 -79h-621v159h516q2 0 2 2v677h208v-41q53 41 155 41q104 0 104 -81v-558h-208z" />
    <glyph glyph-name="T_R.2" unicode="&#xe133;" horiz-adv-x="1067" 
d="M161 0q-104 0 -104 79v361h-51v158h51v41h208v-41h259v-158h-259v-279q0 -2 2 -2h48q2 0 2 2v238h207v-320q0 -79 -104 -79h-259zM834 0v254q0 2 -2 2h-49v-376q0 -79 -104 -79h-622v159h516q2 0 2 2v677h363q103 0 103 -81v-186q0 -46 -51 -52q52 -7 52 -53v-267h-208z
M834 477q0 2 -2 2h-49v-96h49q2 0 2 2v92z" />
    <glyph glyph-name="U_A.2" unicode="&#xe135;" horiz-adv-x="1034" 
d="M129 0q-104 0 -104 79v560h208v-478q0 -2 2 -2h47q2 0 2 2v478h208v-560q0 -79 -104 -79h-259zM802 477q0 2 -2 2h-47q-2 0 -2 -2v-78h51v78zM802 0v239h-51v-359q0 -79 -104 -79h-622v159h516q2 0 2 2v596q0 81 104 81h259q104 0 104 -81v-558h-208z" />
    <glyph glyph-name="U_H.2" unicode="&#xe138;" horiz-adv-x="1036" 
d="M129 0q-104 0 -104 79v560h208v-478q0 -2 2 -2h47q2 0 2 2v478h208v-560q0 -79 -104 -79h-259zM802 0v246h-51v-366q0 -79 -104 -79h-622v159h516q2 0 2 2v677h208v-246h51v246h208v-639h-208z" />
    <glyph glyph-name="U_h.2" unicode="&#xe139;" horiz-adv-x="1035" 
d="M129 0q-104 0 -104 79v560h208v-478q0 -2 2 -2h47q2 0 2 2v478h208v-560q0 -79 -104 -79h-259zM802 0v477q0 2 -2 2h-49v-599q0 -79 -105 -79h-621v159h516q2 0 2 2v837h208v-160h155q104 0 104 -81v-558h-208z" />
    <glyph glyph-name="U_M.2" unicode="&#xe13a;" horiz-adv-x="1294" 
d="M129 0q-104 0 -104 79v560h208v-478q0 -2 2 -2h47q2 0 2 2v478h208v-560q0 -79 -104 -79h-259zM1063 0v477q0 2 -2 2h-49q-2 0 -2 -2v-477h-208v477q0 2 -2 2h-47q-2 0 -2 -2v-597q0 -15 -9 -29.5t-24 -25.5t-33.5 -17.5t-37.5 -6.5h-622v159h516q2 0 2 2v677h208v-41
q19 20 54.5 30.5t80.5 10.5q46 0 71.5 -12t42.5 -36q23 29 57.5 38.5t83.5 9.5q27 0 50.5 -6.5t40.5 -18.5t27 -28.5t10 -35.5v-550h-206z" />
    <glyph glyph-name="U_N.2" unicode="&#xe13b;" horiz-adv-x="1035" 
d="M129 0q-104 0 -104 79v560h208v-478q0 -2 2 -2h47q2 0 2 2v478h208v-560q0 -79 -104 -79h-259zM802 0v477q0 2 -2 2h-47q-2 0 -2 -2v-597q0 -79 -105 -79h-621v159h516q2 0 2 2v677h208v-41q53 41 155 41q104 0 104 -81v-558h-208z" />
    <glyph glyph-name="U_R.2" unicode="&#xe13c;" horiz-adv-x="1035" 
d="M129 0q-104 0 -104 79v560h208v-478q0 -2 2 -2h47q2 0 2 2v478h208v-560q0 -79 -104 -79h-259zM802 0v254q0 2 -2 2h-49v-376q0 -79 -104 -79h-622v159h516q2 0 2 2v677h363q103 0 103 -81v-186q0 -46 -51 -52q52 -7 52 -53v-267h-208zM802 477q0 2 -2 2h-49v-96h49
q2 0 2 2v92z" />
    <glyph glyph-name="Y_A.2" unicode="&#xe13e;" horiz-adv-x="1018" 
d="M149 0v228q-131 0 -131 130v281h208v-259q0 -2 2 -2h47q2 0 2 2v259h208v-281q0 -130 -128 -130v-228h-208zM786 477q0 2 -2 2h-47q-2 0 -2 -2v-78h51v78zM786 0v239h-51v-359q0 -79 -104 -79h-482v159h376q2 0 2 2v596q0 81 104 81h259q104 0 104 -81v-558h-208z" />
    <glyph glyph-name="Y_M.2" unicode="&#xe13f;" horiz-adv-x="1278" 
d="M149 0v228q-131 0 -131 130v281h208v-259q0 -2 2 -2h47q2 0 2 2v259h208v-281q0 -130 -128 -130v-228h-208zM1047 0v477q0 2 -2 2h-49q-2 0 -2 -2v-477h-208v477q0 2 -2 2h-47q-2 0 -2 -2v-597q0 -15 -9 -29.5t-24 -25.5t-33.5 -17.5t-37.5 -6.5h-482v159h376q2 0 2 2
v677h208v-41q19 20 54.5 30.5t80.5 10.5q46 0 71.5 -12t42.5 -36q23 29 57.5 38.5t83.5 9.5q27 0 50.5 -6.5t40.5 -18.5t27 -28.5t10 -35.5v-550h-206z" />
    <glyph glyph-name="Y_N.2" unicode="&#xe140;" horiz-adv-x="1019" 
d="M149 0v228q-131 0 -131 130v281h208v-259q0 -2 2 -2h47q2 0 2 2v259h208v-281q0 -130 -128 -130v-228h-208zM786 0v477q0 2 -2 2h-47q-2 0 -2 -2v-597q0 -79 -105 -79h-481v159h376q2 0 2 2v677h208v-41q53 41 155 41q104 0 104 -81v-558h-208z" />
    <glyph glyph-name="Y_R.2" unicode="&#xe141;" horiz-adv-x="1019" 
d="M149 0v228q-131 0 -131 130v281h208v-259q0 -2 2 -2h47q2 0 2 2v259h208v-281q0 -130 -128 -130v-228h-208zM786 0v254q0 2 -2 2h-49v-376q0 -79 -104 -79h-482v159h376q2 0 2 2v677h363q103 0 103 -81v-186q0 -46 -51 -52q52 -7 52 -53v-267h-208zM786 477q0 2 -2 2h-49
v-96h49q2 0 2 2v92z" />
    <glyph glyph-name=".ttfautohint" horiz-adv-x="0" 
d="M0 0z" />
    </font>
</defs>
</svg>
