<?xml version="1.0" standalone="no"?>
<!DOCTYPE svg PUBLIC "-//W3C//DTD SVG 1.1//EN" "http://www.w3.org/Graphics/SVG/1.1/DTD/svg11.dtd" >
<svg xmlns="http://www.w3.org/2000/svg" xmlns:xlink="http://www.w3.org/1999/xlink" version="1.1">
<metadata>
Created by FontForge 20170731 at Fri Jul 20 05:08:51 2012
 By Aleksey,,,
(c) 1999-2012 Typodermic Fonts Inc. See attached license agreement. If agreement is missing visit typodermicfonts.com for more info.
</metadata>
<defs>
<font id="SofachromeRg-Regular" horiz-adv-x="1421" >
  <font-face 
    font-family="Sofachrome Rg"
    font-weight="400"
    font-stretch="normal"
    units-per-em="1000"
    panose-1="2 1 5 7 2 0 0 2 0 4"
    ascent="784"
    descent="-216"
    cap-height="682"
    bbox="-296 -216 2047 984"
    underline-thickness="20"
    underline-position="-163"
    unicode-range="U+0017-E004"
  />
<missing-glyph horiz-adv-x="453" 
d="M140 0q-42 0 -64.5 18.5t-22.5 56.5v532q0 38 22.5 56.5t64.5 18.5h172q87 0 87 -75v-532q0 -75 -87 -75h-172zM353 607q0 34 -41 34h-172q-41 0 -41 -34v-532q0 -35 41 -35h172q41 0 41 35v532z" />
    <glyph glyph-name="copyright" unicode="&#x28;C&#x29;" horiz-adv-x="831" 
d="M726 340q0 64 -24.5 120.5t-67 99t-99 67t-120.5 24.5t-120.5 -24.5t-98.5 -67t-66.5 -99t-24.5 -120.5t24.5 -120.5t66.5 -98.5t98.5 -66.5t120.5 -24.5t120.5 24.5t99 66.5t67 98.5t24.5 120.5zM778 340q0 -75 -28.5 -140.5t-78 -114.5t-115.5 -77.5t-141 -28.5
t-140.5 28.5t-115 77.5t-78 114.5t-28.5 140.5t28.5 141t78 115.5t115 78t140.5 28.5t141 -28.5t115.5 -78t78 -115.5t28.5 -141zM376 197q-30 0 -51.5 12.5t-35 32.5t-19.5 46.5t-6 53.5t6 53t19.5 46.5t35 33t51.5 12.5h149q18 0 18 -18v-25q0 -18 -18 -18h-97
q-24 0 -34 -12t-10 -47v-40q0 -38 10 -53.5t34 -15.5h98q17 0 17 -17v-26q0 -18 -17 -18h-150z" />
    <glyph glyph-name="registered" unicode="&#x28;R&#x29;" horiz-adv-x="571" 
d="M476 469q0 39 -15 73.5t-40.5 60t-60.5 40.5t-74 15t-74 -15t-60.5 -40.5t-40.5 -60t-15 -73.5q0 -40 15 -74.5t40.5 -60t60.5 -40.5t74 -15t74 15t60.5 40.5t40.5 60t15 74.5zM286 236q-48 0 -90.5 18.5t-74 50t-50 74t-18.5 90.5t18.5 90t50 73.5t74 49.5t90.5 18
t90 -18t73.5 -49.5t50 -73.5t18.5 -90t-18.5 -90.5t-50 -74t-73.5 -50t-90 -18.5zM358 381q-19 0 -29 15l-47 73q-8 11 -8 17v4q0 11 18 11h13q18 0 18 18q0 19 -18 19h-60v-139q0 -18 -18 -18h-12q-18 0 -18 18v154q0 18 18 18h108q25 0 38.5 -15t13.5 -37q0 -18 -11 -31.5
t-30 -16.5l44 -67q5 -12 5 -15q0 -8 -11 -8h-14z" />
    <glyph glyph-name="uni2117" unicode="&#x28;P&#x29;" horiz-adv-x="831" 
d="M726 340q0 64 -24.5 120.5t-67 99t-99 67t-120.5 24.5t-120.5 -24.5t-98.5 -67t-66.5 -99t-24.5 -120.5t24.5 -120.5t66.5 -98.5t98.5 -66.5t120.5 -24.5t120.5 24.5t99 66.5t67 98.5t24.5 120.5zM778 340q0 -75 -28.5 -140.5t-78 -114.5t-115.5 -77.5t-141 -28.5
t-140.5 28.5t-115 77.5t-78 114.5t-28.5 140.5t28.5 141t78 115.5t115 78t140.5 28.5t141 -28.5t115.5 -78t78 -115.5t28.5 -141zM442 280q-18 0 -18 18v24q0 18 18 18h23q23 0 32 16.5t9 36.5t-9 36t-32 16h-84v-271q0 -18 -18 -18h-33q-18 0 -18 18v314q0 18 18 18h172
q20 0 34.5 -9.5t24 -25t14 -35t4.5 -40.5q0 -22 -5 -42.5t-15 -37t-26.5 -26.5t-38.5 -10h-52z" />
    <glyph glyph-name=".notdef" horiz-adv-x="453" 
d="M140 0q-42 0 -64.5 18.5t-22.5 56.5v532q0 38 22.5 56.5t64.5 18.5h172q87 0 87 -75v-532q0 -75 -87 -75h-172zM353 607q0 34 -41 34h-172q-41 0 -41 -34v-532q0 -35 41 -35h172q41 0 41 35v532z" />
    <glyph glyph-name=".null" horiz-adv-x="1" 
 />
    <glyph glyph-name="nonmarkingreturn" horiz-adv-x="109" 
 />
    <glyph glyph-name="uni0017" horiz-adv-x="353" 
 />
    <glyph glyph-name="space" unicode=" " horiz-adv-x="353" 
 />
    <glyph glyph-name="exclam" unicode="!" horiz-adv-x="412" 
d="M126 0q-45 0 -45 45v144q0 44 45 44h159q45 0 45 -44v-144q0 -45 -45 -45h-159zM129 286q-26 0 -30 27l-45 331q-1 4 -1 10q0 28 29 28h249q27 0 27 -27q0 -3 -0.5 -5.5t-0.5 -5.5l-44 -331q-5 -27 -31 -27h-153z" />
    <glyph glyph-name="quotedbl" unicode="&#x22;" horiz-adv-x="600" 
d="M135 408q-25 0 -40 12t-20 33l-39 142q-5 17 -7 32.5t-2 36.5v36q0 36 35 36h178q35 0 35 -36v-36q0 -21 -2 -36.5t-7 -32.5l-39 -142q-5 -21 -20 -33t-40 -12h-32zM433 408q-24 0 -39.5 12t-20.5 33l-39 142q-5 17 -7 32.5t-2 36.5v36q0 36 36 36h177q36 0 36 -36v-36
q0 -21 -2 -36.5t-7 -32.5l-39 -142q-6 -21 -21 -33t-39 -12h-33z" />
    <glyph glyph-name="numbersign" unicode="#" horiz-adv-x="537" 
d="M334 0q-7 0 -11.5 5t-4.5 12l13 191h-135l-13 -193q-2 -15 -15 -15h-43q-8 0 -12.5 5t-4.5 12l12 191h-51q-6 0 -11 4.5t-5 9.5v49q0 7 5 11t11 4h57l8 122h-55q-6 0 -10.5 4.5t-4.5 11.5v48q0 6 4.5 10.5t10.5 4.5h60l12 179q2 16 16 16h43q17 0 17 -17l-12 -178h135
l12 179q2 16 17 16h42q8 0 12 -5t4 -12l-11 -178h43q7 0 11 -4.5t4 -10.5v-48q0 -16 -15 -16h-49l-8 -122h45q16 0 16 -15v-49q0 -5 -4.5 -9.5t-11.5 -4.5h-51l-13 -193q-2 -15 -15 -15h-44zM345 408h-136l-8 -122h136z" />
    <glyph glyph-name="dollar" unicode="$" horiz-adv-x="750" 
d="M433 118v-91q0 -27 -27 -27h-59q-26 0 -26 27v91h-237q-27 0 -27 26v24q0 26 27 26h358l-308 145q-51 24 -66 52t-15 63q0 22 8 42t24 35.5t40 24.5t56 9h140v91q0 26 26 26h59q27 0 27 -26v-91h222q27 0 27 -27v-24q0 -27 -27 -27h-347l308 -144q50 -23 65.5 -52
t15.5 -63q0 -22 -8 -42t-24 -35t-40 -24t-55 -9h-137z" />
    <glyph glyph-name="percent" unicode="%" horiz-adv-x="1186" 
d="M35 0zM200 365q-37 0 -67.5 13t-52 36t-33.5 54t-12 67q0 37 12 68.5t33.5 54t52 35.5t67.5 13h196q37 0 67.5 -13t52 -36t33.5 -54t12 -68q0 -36 -12 -67t-34 -54t-52 -36t-67 -13h-196zM370 569q0 47 -13.5 62.5t-45.5 15.5h-37q-29 0 -41.5 -16t-12.5 -62v-54
q0 -51 13 -71t41 -20h37q31 0 45 20t14 71v54zM269 -20q-10 -10 -17 -13t-20 -3h-41q-9 0 -14 5.5t-5 12.5q0 9 7 16l729 704q10 10 17.5 13t20.5 3h40q9 0 14 -5.5t5 -12.5q0 -9 -7 -16zM789 -9q-37 0 -67.5 13t-52 36t-33.5 54t-12 67q0 37 12 68.5t33.5 54t52 35.5
t67.5 13h196q37 0 67.5 -13t52 -36t33.5 -54t12 -68q0 -36 -12 -67t-34 -54t-52 -36t-67 -13h-196zM959 195q0 47 -13.5 62.5t-45.5 15.5h-37q-29 0 -41.5 -16t-12.5 -62v-54q0 -51 13 -71t41 -20h37q31 0 45 20t14 71v54z" />
    <glyph glyph-name="ampersand" unicode="&#x26;" horiz-adv-x="785" 
d="M554 0q-22 0 -34 15l-67 74l-62 -42q-40 -26 -77 -38t-70 -12q-41 0 -76 15.5t-60.5 40.5t-40 56.5t-14.5 63.5q0 40 25.5 81t85.5 76l50 29l-44 49q-32 35 -42.5 68t-10.5 65q0 34 12.5 60t35 44t54 27.5t68.5 9.5h106q31 0 55.5 -9t41.5 -24t26 -35.5t9 -42.5
q0 -29 -4.5 -50.5t-15 -38t-27 -30t-39.5 -26.5l-41 -23l142 -157l60 38q10 6 17.5 9t18.5 3h102q15 0 15 -12q0 -6 -8 -11l-145 -92l132 -144q5 -5 6.5 -9.5t1.5 -8.5q0 -19 -19 -19h-167zM275 290l-52 -30q-26 -14 -38.5 -34t-12.5 -41q0 -20 8.5 -36.5t21.5 -28.5
t29.5 -19t32.5 -7q37 0 71 23l61 38zM379 488q7 4 14 9t12.5 12.5t8.5 19.5t3 30q0 15 -10.5 24.5t-35.5 9.5h-68q-23 0 -31.5 -7t-8.5 -21q0 -10 5.5 -19.5t19.5 -23.5l51 -56z" />
    <glyph glyph-name="quotesingle" unicode="'" horiz-adv-x="302" 
d="M135 408q-25 0 -40 12t-20 33l-39 142q-5 17 -7 32.5t-2 36.5v36q0 36 35 36h178q35 0 35 -36v-36q0 -21 -2 -36.5t-7 -32.5l-39 -142q-5 -21 -20 -33t-40 -12h-32z" />
    <glyph glyph-name="parenleft" unicode="(" horiz-adv-x="390" 
d="M224 -109q-12 0 -22 8l-67 66q-8 10 -8 20v713q0 11 8 19l67 66q10 8 22 8h99q14 0 14 -14v-28q0 -13 -14 -13h-86q-7 0 -11 -4l-36 -36q-5 -5 -5 -12v-686q0 -8 5 -11l36 -37q3 -3 11 -3h86q14 0 14 -14v-27q0 -15 -14 -15h-99z" />
    <glyph glyph-name="parenright" unicode=")" horiz-adv-x="390" 
d="M188 -101q-10 -8 -22 -8h-99q-14 0 -14 15v27q0 14 14 14h86q8 0 11 3l36 37q5 3 5 11v686q0 7 -5 12l-36 36q-4 4 -11 4h-86q-14 0 -14 13v28q0 14 14 14h99q12 0 22 -8l67 -66q8 -8 8 -19v-713q0 -10 -8 -20z" />
    <glyph glyph-name="asterisk" unicode="*" horiz-adv-x="535" 
d="M434 336q-11 -14 -27 -14q-14 0 -24 10l-80 77l-20 -110q-2 -14 -11.5 -21.5t-22.5 -7.5q-4 0 -10 2l-64 21q-11 4 -17.5 12.5t-6.5 19.5q0 9 4 16l48 101l-110 -15q-17 0 -28.5 8t-11.5 26v65q0 18 12 26t29 8l109 -15l-47 101q-4 7 -4 15q0 11 6.5 20t18.5 13l62 20
q6 2 11 2q11 0 21 -7.5t12 -20.5l20 -110l80 77q10 10 24 10q17 0 28 -14l39 -52q7 -10 7 -23q0 -8 -4.5 -16t-13.5 -13l-99 -53l99 -54q9 -5 13.5 -13t4.5 -16q0 -12 -7 -23z" />
    <glyph glyph-name="plus" unicode="+" horiz-adv-x="747" 
d="M359 21q-27 0 -27 27v253h-252q-27 0 -27 27v28q0 27 27 27h252v252q0 27 27 27h29q26 0 26 -27v-252h253q27 0 27 -27v-28q0 -27 -27 -27h-253v-253q0 -27 -26 -27h-29z" />
    <glyph glyph-name="comma" unicode="," horiz-adv-x="342" 
d="M98 -94q-45 0 -45 44v239q0 44 45 44h159q45 0 45 -44v-28q0 -20 -4 -34t-15 -34l-75 -143q-24 -44 -69 -44h-41z" />
    <glyph glyph-name="hyphen" unicode="-" horiz-adv-x="338" 
d="M53 277q-27 0 -27 27v64q0 27 27 27h230q27 0 27 -27v-64q0 -27 -27 -27h-230z" />
    <glyph glyph-name="period" unicode="." horiz-adv-x="355" 
d="M98 0q-45 0 -45 45v144q0 44 45 44h159q45 0 45 -44v-144q0 -45 -45 -45h-159z" />
    <glyph glyph-name="slash" unicode="/" horiz-adv-x="639" 
d="M22 -36q-9 0 -15.5 4t-6.5 12t7 18l529 704q8 10 14 13t19 3h47q10 0 16.5 -4t6.5 -12t-7 -18l-530 -704q-7 -10 -13.5 -13t-19.5 -3h-47z" />
    <glyph glyph-name="zero" unicode="0" horiz-adv-x="1122" 
d="M365 0q-73 0 -133.5 26t-104 72t-67.5 108.5t-24 134.5q0 74 23.5 136.5t66.5 108t104 71t135 25.5h392q75 0 135.5 -26t104 -71.5t67 -108t23.5 -135.5q0 -72 -24 -134.5t-67.5 -108t-104 -72t-134.5 -26.5h-392zM706 409q0 46 -6.5 76t-20.5 48t-36.5 25t-54.5 7h-74
q-29 0 -50 -7.5t-34.5 -25.5t-19.5 -48t-6 -75v-109q0 -101 26.5 -141.5t83.5 -40.5h74q31 0 53 9.5t36.5 30.5t21.5 56t7 86v109z" />
    <glyph glyph-name="one" unicode="1" horiz-adv-x="556" 
d="M152 0q-19 0 -19 13v552h-76q-27 0 -27 27v64q0 26 27 26h298q75 0 115.5 -30.5t40.5 -86.5v-552q0 -13 -18 -13h-341z" />
    <glyph glyph-name="two" unicode="2" horiz-adv-x="1084" 
d="M80 0q-27 0 -27 27v132q0 76 17 124t65 75t132.5 36.5t219.5 9.5h103q40 0 61.5 21.5t21.5 60.5q0 40 -21.5 59.5t-61.5 19.5h-483q-27 0 -27 27v64q0 26 27 26h686q58 0 101 -17.5t71 -46t42 -64.5t14 -74q0 -37 -13.5 -72t-41 -62t-71 -43.5t-103.5 -16.5h-238
q-39 0 -63 -5.5t-37 -18t-17.5 -32t-4.5 -46.5v-66h572q27 0 27 -27v-64q0 -27 -27 -27h-924z" />
    <glyph glyph-name="three" unicode="3" horiz-adv-x="1034" 
d="M62 0q-26 0 -26 27v64q0 27 26 27h435q57 0 82 25.5t25 73.5q0 49 -25 72.5t-82 23.5h-234q-27 0 -27 26v65q0 26 27 26h251q50 0 68.5 19t18.5 49t-18.5 48.5t-68.5 18.5h-444q-26 0 -26 27v64q0 26 26 26h701q100 0 149.5 -45.5t49.5 -126.5q0 -31 -8.5 -53t-20.5 -37
t-25.5 -24t-23.5 -14q16 -5 35 -19.5t35 -37t26.5 -53t10.5 -67.5q0 -38 -14 -74.5t-44 -65.5t-76 -47t-110 -18h-693z" />
    <glyph glyph-name="four" unicode="4" horiz-adv-x="1138" 
d="M675 0q-26 0 -26 27v121h-597q-27 0 -27 27v46q0 23 20 38l521 398q32 25 70 25h364q26 0 26 -26v-399h73q27 0 27 -27v-55q0 -27 -27 -27h-73v-121q0 -27 -26 -27h-325zM649 553l-380 -296h380v296z" />
    <glyph glyph-name="five" unicode="5" horiz-adv-x="1071" 
d="M80 0q-27 0 -27 27v64q0 27 27 27h529q22 0 38.5 7.5t26.5 20.5t15 29.5t5 33.5t-5 33.5t-15 29.5t-26.5 21t-38.5 8h-527q-27 0 -27 27v328q0 26 27 26h878q27 0 27 -26v-64q0 -27 -27 -27h-571v-159h423q55 0 95.5 -17t66.5 -45.5t39 -65t13 -75.5q0 -38 -13 -74.5
t-39 -65t-66.5 -46t-95.5 -17.5h-732z" />
    <glyph glyph-name="six" unicode="6" horiz-adv-x="1098" 
d="M298 0q-51 0 -98.5 15t-83.5 47.5t-58 82.5t-22 121v185q0 60 22 103.5t59 72t83.5 42t96.5 13.5h698q27 0 27 -26v-64q0 -27 -27 -27h-500q-54 0 -78.5 -19t-24.5 -57v-267q0 -48 29 -76t74 -28h125q45 0 74 28t29 76t-28.5 74.5t-70.5 26.5h-134q-27 0 -27 27v54
q0 26 27 26h331q64 0 110.5 -19t76.5 -49.5t44 -70t14 -80.5q0 -40 -13.5 -78t-41.5 -67.5t-71.5 -47.5t-102.5 -18h-539z" />
    <glyph glyph-name="seven" unicode="7" horiz-adv-x="931" 
d="M188 0q-24 0 -24 18q0 6 5 16l327 531h-456q-27 0 -27 27v64q0 26 27 26h845q26 0 26 -26v-32q0 -24 -13 -44l-357 -561q-6 -11 -14.5 -15t-24.5 -4h-314z" />
    <glyph glyph-name="eight" unicode="8" horiz-adv-x="1069" 
d="M277 0q-61 0 -107 18t-77 47.5t-46.5 67t-15.5 76.5q0 56 31 103.5t78 69.5q-38 23 -56.5 59t-18.5 75q0 31 12 61t36.5 53t61 37.5t85.5 14.5h546q49 0 85.5 -14.5t61 -37.5t36.5 -53t12 -61q0 -39 -18.5 -75t-56.5 -59q47 -22 78 -69.5t31 -103.5q0 -39 -15.5 -76.5
t-46.5 -67t-77 -47.5t-107 -18h-512zM606 118q29 0 51 8.5t37 22.5t22.5 31.5t7.5 36.5t-7.5 37t-22.5 32t-37 22.5t-51 8.5h-145q-30 0 -52 -8.5t-37 -22.5t-22.5 -32t-7.5 -37t7.5 -36.5t22.5 -31.5t37 -22.5t52 -8.5h145zM453 565q-24 0 -42 -7t-29.5 -18.5t-17.5 -25.5
t-6 -29q0 -31 23.5 -56t71.5 -25h161q48 0 71 25t23 56q0 15 -6 29t-17.5 25.5t-29 18.5t-41.5 7h-161z" />
    <glyph glyph-name="nine" unicode="9" horiz-adv-x="1086" 
d="M127 0q-27 0 -27 27v64q0 27 27 27h455q106 0 106 75v265q0 50 -29 78.5t-75 28.5h-118q-26 0 -44 -8t-29 -21t-16 -29.5t-5 -33.5t5 -33t16 -28.5t29 -20.5t44 -8h124q26 0 26 -27v-50q0 -27 -26 -27h-325q-62 0 -107.5 17.5t-74.5 46.5t-43 66t-14 75q0 37 13 73
t40.5 63.5t69.5 44.5t100 17h539q51 0 98.5 -15t83.5 -47t58 -82.5t22 -121.5v-184q0 -60 -22 -104t-59 -72.5t-84 -42t-96 -13.5h-662z" />
    <glyph glyph-name="colon" unicode=":" horiz-adv-x="380" 
d="M112 0q-44 0 -44 45v144q0 44 44 44h160q44 0 44 -44v-144q0 -45 -44 -45h-160zM112 331q-44 0 -44 45v144q0 45 44 45h160q44 0 44 -45v-144q0 -45 -44 -45h-160z" />
    <glyph glyph-name="semicolon" unicode=";" horiz-adv-x="377" 
d="M114 -94q-45 0 -45 44v239q0 44 45 44h159q45 0 45 -44v-28q0 -20 -4 -34t-15 -34l-75 -143q-24 -44 -69 -44h-41zM114 331q-45 0 -45 45v144q0 45 45 45h159q45 0 45 -45v-144q0 -45 -45 -45h-159z" />
    <glyph glyph-name="less" unicode="&#x3c;" horiz-adv-x="613" 
d="M541 45q-10 -16 -22 -16q-6 0 -15 6l-428 246q-23 13 -23 38v42q0 28 22 41l429 247q10 5 15 5q13 0 22 -14l14 -25q4 -8 4 -15q0 -14 -14 -22l-410 -236l410 -236q14 -7 14 -20q0 -9 -4 -17z" />
    <glyph glyph-name="equal" unicode="=" horiz-adv-x="747" 
d="M80 176q-27 0 -27 27v29q0 26 27 26h587q27 0 27 -26v-29q0 -27 -27 -27h-587zM80 426q-27 0 -27 27v28q0 27 27 27h587q27 0 27 -27v-28q0 -27 -27 -27h-587z" />
    <glyph glyph-name="greater" unicode="&#x3e;" horiz-adv-x="613" 
d="M109 35q-9 -6 -15 -6q-12 0 -22 16l-14 24q-5 10 -5 17q0 12 15 20l410 236l-410 236q-15 9 -15 22q0 5 5 15l14 25q9 14 22 14q5 0 15 -5l429 -247q21 -12 21 -41v-42q0 -26 -22 -38z" />
    <glyph glyph-name="question" unicode="?" horiz-adv-x="859" 
d="M187 0q-44 0 -44 45v144q0 44 44 44h160q44 0 44 -44v-144q0 -45 -44 -45h-160zM486 329q-31 0 -52 -0.5t-35.5 -3t-22 -7t-11.5 -12.5q-9 -20 -27 -20h-136q-27 0 -27 27v25q0 10 3 25.5t14.5 30.5t34.5 25.5t64 10.5h187q35 0 50 21t15 46q0 26 -15 47t-50 21h-434
q-27 0 -27 27v64q0 26 27 26h570q57 0 98 -15t68 -40t40 -57t13 -65t-13 -64.5t-40 -56.5t-68.5 -40t-98.5 -15h-127z" />
    <glyph glyph-name="at" unicode="@" horiz-adv-x="866" 
d="M297 1q-50 0 -96.5 13.5t-83.5 42t-59 72.5t-22 104v183q0 71 22 121.5t58 82.5t83.5 47t98.5 15h326q54 0 92.5 -19t63.5 -49.5t37 -70t12 -81.5q0 -41 -12 -79.5t-37 -68.5t-63.5 -48.5t-92.5 -18.5h-227q-26 0 -43.5 10t-28 25.5t-15 36t-4.5 41.5t4 40.5t13.5 34.5
t26 24t41.5 9h86q46 0 64 -24t18 -55v-76h34q22 0 37 11t24.5 28.5t13.5 40t4 45.5q0 24 -4 47t-13.5 40.5t-24.5 28.5t-37 11h-267q-46 0 -76 -23.5t-30 -83.5v-264q0 -76 106 -76h446q27 0 27 -26v-64q0 -27 -27 -27h-475zM476 367q0 20 -10 30t-26 10h-12
q-15 0 -25 -12.5t-10 -32.5q0 -21 10 -35t25 -14h48v54z" />
    <glyph glyph-name="A" unicode="A" 
d="M974 0q-32 0 -52 20l-387 401l-306 -303h454q27 0 27 -27v-64q0 -27 -27 -27h-661q-19 0 -19 17q0 3 1.5 7.5t6.5 8.5l627 630q19 19 42 19h66q25 0 44 -19l618 -628q5 -5 6.5 -10t1.5 -9q0 -16 -23 -16h-419z" />
    <glyph glyph-name="B" unicode="B" horiz-adv-x="1199" 
d="M62 0q-26 0 -26 27v629q0 26 26 26h868q100 0 149.5 -45.5t49.5 -126.5q0 -31 -8.5 -53t-20.5 -37t-26 -24t-24 -14q16 -5 35 -19.5t35 -37t26.5 -53t10.5 -67.5q0 -38 -14 -74.5t-44 -65.5t-76 -47t-110 -18h-851zM510 313q-26 0 -26 26v65q0 26 26 26h163q50 0 68.5 19
t18.5 49t-18.5 48.5t-68.5 18.5h-252v-447h235q57 0 82 25.5t25 73.5q0 49 -25 72.5t-82 23.5h-146z" />
    <glyph glyph-name="C" unicode="C" horiz-adv-x="1104" 
d="M364 0q-71 0 -131 25.5t-104 71t-68.5 108t-24.5 136.5q0 73 23.5 135.5t66.5 108.5t103.5 71.5t134.5 25.5h681q27 0 27 -26v-64q0 -27 -27 -27h-447q-33 0 -55.5 -7t-36.5 -25t-20 -48t-6 -76v-109q0 -51 7 -86t21.5 -56t36.5 -30.5t53 -9.5h451q26 0 26 -27v-64
q0 -27 -26 -27h-685z" />
    <glyph glyph-name="D" unicode="D" horiz-adv-x="1248" 
d="M62 0q-26 0 -26 27v629q0 26 26 26h804q75 0 135.5 -26t103.5 -71.5t66.5 -108t23.5 -135.5q0 -74 -24.5 -136.5t-68.5 -108t-104.5 -71t-131.5 -25.5h-804zM750 409q0 46 -6 76t-20 48t-36 25t-54 7h-202v-447h202q30 0 52 9.5t36.5 31t21 56t6.5 85.5v109z" />
    <glyph glyph-name="E" unicode="E" horiz-adv-x="1131" 
d="M578 313q-27 0 -27 26v65q0 26 27 26h478q26 0 26 -18v-81q0 -18 -26 -18h-478zM364 0q-71 0 -131 25.5t-104 71t-68.5 108t-24.5 136.5q0 73 23.5 135.5t66.5 108.5t103.5 71.5t134.5 25.5h699q27 0 27 -26v-64q0 -27 -27 -27h-465q-33 0 -55.5 -7t-36.5 -25t-20 -48
t-6 -76v-109q0 -51 7 -86t21.5 -56t36.5 -30.5t53 -9.5h468q27 0 27 -27v-64q0 -27 -27 -27h-702z" />
    <glyph glyph-name="F" unicode="F" horiz-adv-x="1105" 
d="M599 565q-66 0 -92 -34.5t-26 -112.5v-391q0 -27 -27 -27h-383q-26 0 -26 27v373q0 62 18 113.5t54 89t91 58.5t130 21h726q26 0 26 -26v-64q0 -27 -26 -27h-465zM579 313q-27 0 -27 26v65q0 26 27 26h479q27 0 27 -18v-81q0 -18 -27 -18h-479z" />
    <glyph glyph-name="G" unicode="G" horiz-adv-x="1172" 
d="M364 0q-71 0 -131 25.5t-104 71t-68.5 108t-24.5 136.5q0 73 23.5 135.5t66.5 108.5t103.5 71.5t134.5 25.5h697q27 0 27 -26v-64q0 -27 -27 -27h-463q-33 0 -55.5 -7t-36.5 -25t-20 -48t-6 -76v-109q0 -51 7 -86t21.5 -56t36.5 -30.5t53 -9.5h177v306q0 27 26 27h286
q27 0 27 -27v-397q0 -27 -27 -27h-723z" />
    <glyph glyph-name="H" unicode="H" horiz-adv-x="1200" 
d="M777 0q-27 0 -27 27v286h-300v-286q0 -27 -26 -27h-344q-27 0 -27 27v629q0 26 27 26h344q26 0 26 -26v-226h300v226q0 26 27 26h344q26 0 26 -26v-629q0 -27 -26 -27h-344z" />
    <glyph glyph-name="I" unicode="I" horiz-adv-x="513" 
d="M84 0q-26 0 -26 27v629q0 26 26 26h345q26 0 26 -26v-629q0 -27 -26 -27h-345z" />
    <glyph glyph-name="J" unicode="J" horiz-adv-x="947" 
d="M37 0q-26 0 -26 27v64q0 27 26 27h311q66 0 92 34.5t26 112.5v391q0 26 27 26h383q26 0 26 -26v-374q0 -62 -18 -113.5t-54 -89t-91 -58.5t-130 -21h-572z" />
    <glyph glyph-name="K" unicode="K" horiz-adv-x="1302" 
d="M926 0q-21 0 -36 6.5t-31 20.5l-342 297q-11 9 -15 19.5t-4 28.5v29q0 17 4 25t16 15l400 215q20 11 41 18.5t45 7.5h202q11 0 16 -5t5 -12q0 -11 -12 -17l-397 -213l464 -390q14 -11 14 -25q0 -8 -7 -14t-22 -6h-341zM79 0q-26 0 -26 27v629q0 26 26 26h344q27 0 27 -26
v-629q0 -27 -27 -27h-344z" />
    <glyph glyph-name="L" unicode="L" horiz-adv-x="1026" 
d="M338 0q-75 0 -130 21t-91 58.5t-54 89t-18 113.5v374q0 26 26 26h383q27 0 27 -26v-391q0 -78 26 -112.5t92 -34.5h393q26 0 26 -27v-64q0 -27 -26 -27h-654z" />
    <glyph glyph-name="M" unicode="M" horiz-adv-x="1419" 
d="M1008 0q-27 0 -27 27v253l-282 -253q-15 -14 -31 -20.5t-31 -6.5h-58q-15 0 -32.5 6.5t-34.5 20.5l-316 253v-253q0 -27 -27 -27h-93q-27 0 -27 27v629q0 26 27 26h86q33 0 64 -26l469 -424l501 424q16 14 34 20t37 6h72q27 0 27 -26v-629q0 -27 -27 -27h-331z" />
    <glyph glyph-name="N" unicode="N" horiz-adv-x="1282" 
d="M1137 0q-30 0 -52.5 4t-55.5 16l-797 298v-291q0 -27 -27 -27h-129q-27 0 -27 27v629q0 26 27 26h123q16 0 29 -0.5t25 -2.5t24.5 -6t28.5 -10l744 -287v280q0 26 27 26h129q27 0 27 -26v-629q0 -27 -27 -27h-69z" />
    <glyph glyph-name="O" unicode="O" horiz-adv-x="1220" 
d="M365 0q-73 0 -133.5 26t-104 72t-67.5 108.5t-24 134.5q0 74 23.5 136.5t66.5 108t104 71t135 25.5h490q75 0 135.5 -26t104 -71.5t67 -108t23.5 -135.5q0 -72 -24 -134.5t-67.5 -108t-104 -72t-134.5 -26.5h-490zM786 409q0 46 -6 76t-20 48t-36.5 25t-55.5 7h-136
q-30 0 -50.5 -7.5t-34 -25.5t-19.5 -48t-6 -75v-109q0 -101 26.5 -141.5t83.5 -40.5h136q31 0 53 9.5t36.5 30.5t21.5 56t7 86v109z" />
    <glyph glyph-name="P" unicode="P" horiz-adv-x="1167" 
d="M518 241q-26 0 -26 27v64q0 27 26 27h128q24 0 44.5 5.5t35.5 17.5t24 31.5t9 48.5q0 53 -33 78t-80 25h-214v-538q0 -27 -27 -27h-343q-26 0 -26 27v629q0 26 26 26h855q49 0 92 -15t74.5 -43.5t49.5 -70.5t18 -95q0 -54 -20 -94.5t-55 -67.5t-82.5 -41t-102.5 -14h-373
z" />
    <glyph glyph-name="Q" unicode="Q" horiz-adv-x="1212" 
d="M658 -118q-26 0 -42 26l-59 92h-192q-73 0 -133.5 26t-104 72t-67.5 108.5t-24 134.5q0 74 23.5 136.5t66.5 108t104 71t135 25.5h481q75 0 135.5 -26t104 -71.5t67 -108t23.5 -135.5q0 -72 -24 -134.5t-67.5 -108t-104 -72t-134.5 -26.5l56 -87q5 -8 5 -15q0 -6 -4 -11
t-15 -5h-230zM777 409q0 46 -6 76t-20 48t-36.5 25t-55.5 7h-127q-30 0 -50.5 -7.5t-34 -25.5t-19.5 -48t-6 -75v-109q0 -101 26.5 -141.5t83.5 -40.5h127q31 0 53 9.5t36.5 30.5t21.5 56t7 86v109z" />
    <glyph glyph-name="R" unicode="R" horiz-adv-x="1263" 
d="M894 0q-40 0 -66 27l-301 309q-8 8 -12.5 15.5t-4.5 21.5v31q0 26 26 26h137q48 0 71.5 18t23.5 50q0 67 -95 67h-223v-538q0 -27 -27 -27h-343q-27 0 -27 27v629q0 26 27 26h874q45 0 84 -12.5t67.5 -35.5t44.5 -55t16 -71q0 -42 -15.5 -75.5t-42 -57.5t-62 -39
t-75.5 -21l276 -283q7 -6 7 -16q0 -6 -4.5 -11t-13.5 -5h-342z" />
    <glyph glyph-name="S" unicode="S" horiz-adv-x="1038" 
d="M61 0q-26 0 -26 27v64q0 27 26 27h561l-471 221q-38 18 -62 37.5t-37.5 41t-18 45.5t-4.5 51q0 33 12 63.5t36.5 54t61 37t84.5 13.5h736q27 0 27 -26v-64q0 -27 -27 -27h-542l470 -221q39 -18 62.5 -37.5t37 -41t18 -46t4.5 -51.5q0 -33 -12 -63.5t-36.5 -54t-60.5 -37
t-84 -13.5h-755z" />
    <glyph glyph-name="T" unicode="T" horiz-adv-x="1036" 
d="M339 0q-19 0 -19 13v552h-292q-19 0 -19 11v93q0 13 19 13h981q19 0 19 -13v-93q0 -11 -19 -11h-293v-552q0 -13 -18 -13h-359z" />
    <glyph glyph-name="U" unicode="U" horiz-adv-x="1188" 
d="M386 0q-92 0 -157 22t-106 63t-59.5 99t-18.5 130v342q0 26 26 26h374q26 0 26 -26v-342q0 -92 39 -144t124 -52h172q86 0 126.5 52t40.5 144v342q0 26 27 26h120q27 0 27 -26v-342q0 -66 -20.5 -123t-62.5 -99.5t-106.5 -67t-151.5 -24.5h-420z" />
    <glyph glyph-name="V" unicode="V" 
d="M781 20q-18 -20 -42 -20h-66q-26 0 -44 20l-617 628q-9 8 -9 18q0 16 23 16h419q32 0 52 -20l388 -401l403 401q11 10 23 15t29 5h57q19 0 19 -17q0 -8 -8 -16z" />
    <glyph glyph-name="W" unicode="W" horiz-adv-x="1957" 
d="M1372 0q-14 0 -25.5 4.5t-19.5 15.5l-315 425l-338 -425q-8 -11 -18.5 -15.5t-22.5 -4.5h-58q-28 0 -45 20l-519 628q-8 8 -8 17q0 17 22 17h384q17 0 29.5 -4.5t22.5 -15.5l301 -376l303 376q8 11 21 15.5t30 4.5h63q17 0 30 -4.5t21 -15.5l300 -401l314 401
q9 11 22 15.5t30 4.5h36q21 0 21 -16q0 -8 -6 -17l-476 -629q-8 -11 -19 -15.5t-23 -4.5h-57z" />
    <glyph glyph-name="X" unicode="X" horiz-adv-x="1295" 
d="M839 0q-33 0 -58 22l-269 240l-333 -242q-14 -10 -29 -15t-35 -5h-73q-21 0 -21 16q0 10 11 19l405 296l-351 313q-10 9 -10 20q0 8 6.5 13t19.5 5h417q18 0 32 -5.5t26 -16.5l186 -167l234 169q14 10 29 15t35 5h73q21 0 21 -16q0 -10 -11 -18l-305 -223l433 -387
q11 -9 11 -19q0 -19 -26 -19h-418z" />
    <glyph glyph-name="Y" unicode="Y" horiz-adv-x="1139" 
d="M397 0q-26 0 -26 27v238l-359 383q-9 9 -9 18q0 8 6 12t14 4h403q27 0 45 -20l266 -292l277 293q11 11 20 15t24 4h58q10 0 14.5 -4.5t4.5 -10.5q0 -8 -5 -13l-362 -383v-244q0 -27 -27 -27h-344z" />
    <glyph glyph-name="Z" unicode="Z" horiz-adv-x="1083" 
d="M61 0q-26 0 -26 27v64q0 17 4 25.5t18 22.5l490 426h-465q-27 0 -27 27v64q0 26 27 26h934q26 0 26 -26v-64q0 -17 -4 -26t-18 -23l-454 -425h462q27 0 27 -27v-64q0 -27 -27 -27h-967z" />
    <glyph glyph-name="bracketleft" unicode="[" horiz-adv-x="382" 
d="M145 -109q-26 0 -26 26v848q0 26 26 26h170q14 0 14 -14v-28q0 -13 -14 -13h-127q-11 0 -11 -13v-765q0 -11 13 -11h125q14 0 14 -15v-26q0 -15 -14 -15h-170z" />
    <glyph glyph-name="backslash" unicode="\" horiz-adv-x="639" 
d="M569 -36q-13 0 -19 3t-14 13l-529 704q-7 10 -7 18t6.5 12t15.5 4h47q13 0 19.5 -3t13.5 -13l530 -704q7 -10 7 -18t-6.5 -12t-16.5 -4h-47z" />
    <glyph glyph-name="bracketright" unicode="]" horiz-adv-x="380" 
d="M67 -109q-14 0 -14 15v26q0 15 14 15h125q13 0 13 11v765q0 13 -11 13h-127q-14 0 -14 13v28q0 14 14 14h170q26 0 26 -26v-848q0 -26 -26 -26h-170z" />
    <glyph glyph-name="asciicircum" unicode="^" horiz-adv-x="535" 
d="M428 367q-12 -6 -22 -6q-17 0 -29 19l-110 190l-109 -190q-12 -19 -30 -19q-9 0 -21 6l-34 20q-20 11 -20 29q0 7 7 21l125 216q16 29 56 29h52q40 0 56 -29l126 -216q2 -6 4 -11t2 -10q0 -19 -20 -29z" />
    <glyph glyph-name="underscore" unicode="_" horiz-adv-x="615" 
d="M19 -150q-19 0 -19 14v57q0 12 19 12h577q19 0 19 -12v-57q0 -14 -19 -14h-577z" />
    <glyph glyph-name="grave" unicode="`" horiz-adv-x="452" 
d="M68 843q-15 3 -15 19v53q0 20 17 20q7 0 15 -1t16 -6l279 -132q18 -8 18 -22v-45q0 -20 -18 -20q-5 0 -10 1t-13 4z" />
    <glyph glyph-name="a" unicode="a" 
d="M3 0zM974 0q-32 0 -52 20l-387 401l-306 -303h454q27 0 27 -27v-64q0 -27 -27 -27h-661q-19 0 -19 17q0 3 1.5 7.5t6.5 8.5l627 630q19 19 42 19h66q25 0 44 -19l618 -628q5 -5 6.5 -10t1.5 -9q0 -16 -23 -16h-419z" />
    <glyph glyph-name="b" unicode="b" horiz-adv-x="1199" 
d="M36 0zM62 0q-26 0 -26 27v629q0 26 26 26h868q100 0 149.5 -45.5t49.5 -126.5q0 -31 -8.5 -53t-20.5 -37t-26 -24t-24 -14q16 -5 35 -19.5t35 -37t26.5 -53t10.5 -67.5q0 -38 -14 -74.5t-44 -65.5t-76 -47t-110 -18h-851zM510 313q-26 0 -26 26v65q0 26 26 26h163
q50 0 68.5 19t18.5 49t-18.5 48.5t-68.5 18.5h-252v-447h235q57 0 82 25.5t25 73.5q0 49 -25 72.5t-82 23.5h-146z" />
    <glyph glyph-name="c" unicode="c" horiz-adv-x="1104" 
d="M36 0zM364 0q-71 0 -131 25.5t-104 71t-68.5 108t-24.5 136.5q0 73 23.5 135.5t66.5 108.5t103.5 71.5t134.5 25.5h681q27 0 27 -26v-64q0 -27 -27 -27h-447q-33 0 -55.5 -7t-36.5 -25t-20 -48t-6 -76v-109q0 -51 7 -86t21.5 -56t36.5 -30.5t53 -9.5h451q26 0 26 -27v-64
q0 -27 -26 -27h-685z" />
    <glyph glyph-name="d" unicode="d" horiz-adv-x="1248" 
d="M36 0zM62 0q-26 0 -26 27v629q0 26 26 26h804q75 0 135.5 -26t103.5 -71.5t66.5 -108t23.5 -135.5q0 -74 -24.5 -136.5t-68.5 -108t-104.5 -71t-131.5 -25.5h-804zM750 409q0 46 -6 76t-20 48t-36 25t-54 7h-202v-447h202q30 0 52 9.5t36.5 31t21 56t6.5 85.5v109z" />
    <glyph glyph-name="e" unicode="e" horiz-adv-x="1131" 
d="M36 0zM578 313q-27 0 -27 26v65q0 26 27 26h478q26 0 26 -18v-81q0 -18 -26 -18h-478zM364 0q-71 0 -131 25.5t-104 71t-68.5 108t-24.5 136.5q0 73 23.5 135.5t66.5 108.5t103.5 71.5t134.5 25.5h699q27 0 27 -26v-64q0 -27 -27 -27h-465q-33 0 -55.5 -7t-36.5 -25
t-20 -48t-6 -76v-109q0 -51 7 -86t21.5 -56t36.5 -30.5t53 -9.5h468q27 0 27 -27v-64q0 -27 -27 -27h-702z" />
    <glyph glyph-name="f" unicode="f" horiz-adv-x="1105" 
d="M45 0zM599 565q-66 0 -92 -34.5t-26 -112.5v-391q0 -27 -27 -27h-383q-26 0 -26 27v373q0 62 18 113.5t54 89t91 58.5t130 21h726q26 0 26 -26v-64q0 -27 -26 -27h-465zM579 313q-27 0 -27 26v65q0 26 27 26h479q27 0 27 -18v-81q0 -18 -27 -18h-479z" />
    <glyph glyph-name="g" unicode="g" horiz-adv-x="1172" 
d="M36 0zM364 0q-71 0 -131 25.5t-104 71t-68.5 108t-24.5 136.5q0 73 23.5 135.5t66.5 108.5t103.5 71.5t134.5 25.5h697q27 0 27 -26v-64q0 -27 -27 -27h-463q-33 0 -55.5 -7t-36.5 -25t-20 -48t-6 -76v-109q0 -51 7 -86t21.5 -56t36.5 -30.5t53 -9.5h177v306q0 27 26 27
h286q27 0 27 -27v-397q0 -27 -27 -27h-723z" />
    <glyph glyph-name="h" unicode="h" horiz-adv-x="1200" 
d="M53 0zM777 0q-27 0 -27 27v286h-300v-286q0 -27 -26 -27h-344q-27 0 -27 27v629q0 26 27 26h344q26 0 26 -26v-226h300v226q0 26 27 26h344q26 0 26 -26v-629q0 -27 -26 -27h-344z" />
    <glyph glyph-name="i" unicode="i" horiz-adv-x="513" 
d="M58 0zM84 0q-26 0 -26 27v629q0 26 26 26h345q26 0 26 -26v-629q0 -27 -26 -27h-345z" />
    <glyph glyph-name="j" unicode="j" horiz-adv-x="947" 
d="M11 0zM37 0q-26 0 -26 27v64q0 27 26 27h311q66 0 92 34.5t26 112.5v391q0 26 27 26h383q26 0 26 -26v-374q0 -62 -18 -113.5t-54 -89t-91 -58.5t-130 -21h-572z" />
    <glyph glyph-name="k" unicode="k" horiz-adv-x="1302" 
d="M53 0zM926 0q-21 0 -36 6.5t-31 20.5l-342 297q-11 9 -15 19.5t-4 28.5v29q0 17 4 25t16 15l400 215q20 11 41 18.5t45 7.5h202q11 0 16 -5t5 -12q0 -11 -12 -17l-397 -213l464 -390q14 -11 14 -25q0 -8 -7 -14t-22 -6h-341zM79 0q-26 0 -26 27v629q0 26 26 26h344
q27 0 27 -26v-629q0 -27 -27 -27h-344z" />
    <glyph glyph-name="l" unicode="l" horiz-adv-x="1026" 
d="M45 0zM338 0q-75 0 -130 21t-91 58.5t-54 89t-18 113.5v374q0 26 26 26h383q27 0 27 -26v-391q0 -78 26 -112.5t92 -34.5h393q26 0 26 -27v-64q0 -27 -26 -27h-654z" />
    <glyph glyph-name="m" unicode="m" horiz-adv-x="1419" 
d="M49 0zM1008 0q-27 0 -27 27v253l-282 -253q-15 -14 -31 -20.5t-31 -6.5h-58q-15 0 -32.5 6.5t-34.5 20.5l-316 253v-253q0 -27 -27 -27h-93q-27 0 -27 27v629q0 26 27 26h86q33 0 64 -26l469 -424l501 424q16 14 34 20t37 6h72q27 0 27 -26v-629q0 -27 -27 -27h-331z" />
    <glyph glyph-name="n" unicode="n" horiz-adv-x="1282" 
d="M49 0zM1137 0q-30 0 -52.5 4t-55.5 16l-797 298v-291q0 -27 -27 -27h-129q-27 0 -27 27v629q0 26 27 26h123q16 0 29 -0.5t25 -2.5t24.5 -6t28.5 -10l744 -287v280q0 26 27 26h129q27 0 27 -26v-629q0 -27 -27 -27h-69z" />
    <glyph glyph-name="o" unicode="o" horiz-adv-x="1220" 
d="M36 0zM365 0q-73 0 -133.5 26t-104 72t-67.5 108.5t-24 134.5q0 74 23.5 136.5t66.5 108t104 71t135 25.5h490q75 0 135.5 -26t104 -71.5t67 -108t23.5 -135.5q0 -72 -24 -134.5t-67.5 -108t-104 -72t-134.5 -26.5h-490zM786 409q0 46 -6 76t-20 48t-36.5 25t-55.5 7
h-136q-30 0 -50.5 -7.5t-34 -25.5t-19.5 -48t-6 -75v-109q0 -101 26.5 -141.5t83.5 -40.5h136q31 0 53 9.5t36.5 30.5t21.5 56t7 86v109z" />
    <glyph glyph-name="p" unicode="p" horiz-adv-x="1167" 
d="M36 0zM518 241q-26 0 -26 27v64q0 27 26 27h128q24 0 44.5 5.5t35.5 17.5t24 31.5t9 48.5q0 53 -33 78t-80 25h-214v-538q0 -27 -27 -27h-343q-26 0 -26 27v629q0 26 26 26h855q49 0 92 -15t74.5 -43.5t49.5 -70.5t18 -95q0 -54 -20 -94.5t-55 -67.5t-82.5 -41
t-102.5 -14h-373z" />
    <glyph glyph-name="q" unicode="q" horiz-adv-x="1212" 
d="M36 0zM658 -118q-26 0 -42 26l-59 92h-192q-73 0 -133.5 26t-104 72t-67.5 108.5t-24 134.5q0 74 23.5 136.5t66.5 108t104 71t135 25.5h481q75 0 135.5 -26t104 -71.5t67 -108t23.5 -135.5q0 -72 -24 -134.5t-67.5 -108t-104 -72t-134.5 -26.5l56 -87q5 -8 5 -15
q0 -6 -4 -11t-15 -5h-230zM777 409q0 46 -6 76t-20 48t-36.5 25t-55.5 7h-127q-30 0 -50.5 -7.5t-34 -25.5t-19.5 -48t-6 -75v-109q0 -101 26.5 -141.5t83.5 -40.5h127q31 0 53 9.5t36.5 30.5t21.5 56t7 86v109z" />
    <glyph glyph-name="r" unicode="r" horiz-adv-x="1263" 
d="M53 0zM894 0q-40 0 -66 27l-301 309q-8 8 -12.5 15.5t-4.5 21.5v31q0 26 26 26h137q48 0 71.5 18t23.5 50q0 67 -95 67h-223v-538q0 -27 -27 -27h-343q-27 0 -27 27v629q0 26 27 26h874q45 0 84 -12.5t67.5 -35.5t44.5 -55t16 -71q0 -42 -15.5 -75.5t-42 -57.5t-62 -39
t-75.5 -21l276 -283q7 -6 7 -16q0 -6 -4.5 -11t-13.5 -5h-342z" />
    <glyph glyph-name="s" unicode="s" horiz-adv-x="1038" 
d="M29 0zM61 0q-26 0 -26 27v64q0 27 26 27h561l-471 221q-38 18 -62 37.5t-37.5 41t-18 45.5t-4.5 51q0 33 12 63.5t36.5 54t61 37t84.5 13.5h736q27 0 27 -26v-64q0 -27 -27 -27h-542l470 -221q39 -18 62.5 -37.5t37 -41t18 -46t4.5 -51.5q0 -33 -12 -63.5t-36.5 -54
t-60.5 -37t-84 -13.5h-755z" />
    <glyph glyph-name="t" unicode="t" horiz-adv-x="1036" 
d="M9 0zM339 0q-19 0 -19 13v552h-292q-19 0 -19 11v93q0 13 19 13h981q19 0 19 -13v-93q0 -11 -19 -11h-293v-552q0 -13 -18 -13h-359z" />
    <glyph glyph-name="u" unicode="u" horiz-adv-x="1188" 
d="M45 0zM386 0q-92 0 -157 22t-106 63t-59.5 99t-18.5 130v342q0 26 26 26h374q26 0 26 -26v-342q0 -92 39 -144t124 -52h172q86 0 126.5 52t40.5 144v342q0 26 27 26h120q27 0 27 -26v-342q0 -66 -20.5 -123t-62.5 -99.5t-106.5 -67t-151.5 -24.5h-420z" />
    <glyph glyph-name="v" unicode="v" 
d="M3 0zM781 20q-18 -20 -42 -20h-66q-26 0 -44 20l-617 628q-9 8 -9 18q0 16 23 16h419q32 0 52 -20l388 -401l403 401q11 10 23 15t29 5h57q19 0 19 -17q0 -8 -8 -16z" />
    <glyph glyph-name="w" unicode="w" horiz-adv-x="1957" 
d="M3 0zM1372 0q-14 0 -25.5 4.5t-19.5 15.5l-315 425l-338 -425q-8 -11 -18.5 -15.5t-22.5 -4.5h-58q-28 0 -45 20l-519 628q-8 8 -8 17q0 17 22 17h384q17 0 29.5 -4.5t22.5 -15.5l301 -376l303 376q8 11 21 15.5t30 4.5h63q17 0 30 -4.5t21 -15.5l300 -401l314 401
q9 11 22 15.5t30 4.5h36q21 0 21 -16q0 -8 -6 -17l-476 -629q-8 -11 -19 -15.5t-23 -4.5h-57z" />
    <glyph glyph-name="x" unicode="x" horiz-adv-x="1295" 
d="M21 0zM839 0q-33 0 -58 22l-269 240l-333 -242q-14 -10 -29 -15t-35 -5h-73q-21 0 -21 16q0 10 11 19l405 296l-351 313q-10 9 -10 20q0 8 6.5 13t19.5 5h417q18 0 32 -5.5t26 -16.5l186 -167l234 169q14 10 29 15t35 5h73q21 0 21 -16q0 -10 -11 -18l-305 -223l433 -387
q11 -9 11 -19q0 -19 -26 -19h-418z" />
    <glyph glyph-name="y" unicode="y" horiz-adv-x="1139" 
d="M3 0zM397 0q-26 0 -26 27v238l-359 383q-9 9 -9 18q0 8 6 12t14 4h403q27 0 45 -20l266 -292l277 293q11 11 20 15t24 4h58q10 0 14.5 -4.5t4.5 -10.5q0 -8 -5 -13l-362 -383v-244q0 -27 -27 -27h-344z" />
    <glyph glyph-name="z" unicode="z" horiz-adv-x="1083" 
d="M35 0zM61 0q-26 0 -26 27v64q0 17 4 25.5t18 22.5l490 426h-465q-27 0 -27 27v64q0 26 27 26h934q26 0 26 -26v-64q0 -17 -4 -26t-18 -23l-454 -425h462q27 0 27 -27v-64q0 -27 -27 -27h-967z" />
    <glyph glyph-name="braceleft" unicode="{" horiz-adv-x="403" 
d="M261 -109q-13 0 -21 8l-68 66q-6 6 -6 17v338l-17 15h-31q-13 0 -13 14v23q0 15 13 15h31l17 15v298q0 12 6 17l68 66q8 8 21 8h74q14 0 14 -14v-28q0 -13 -14 -13h-62q-7 0 -10 -5l-37 -36q-3 -5 -3 -9v-282q0 -9 -7 -16l-27 -27l27 -27q7 -7 7 -17v-321q0 -5 3 -8
l37 -37q3 -4 10 -4h62q14 0 14 -14v-27q0 -15 -14 -15h-74z" />
    <glyph glyph-name="bar" unicode="|" horiz-adv-x="282" 
d="M127 -89q-20 0 -20 20v820q0 20 20 20h28q20 0 20 -20v-820q0 -20 -20 -20h-28z" />
    <glyph glyph-name="braceright" unicode="}" horiz-adv-x="383" 
d="M163 -101q-8 -8 -21 -8h-74q-15 0 -15 15v27q0 14 15 14h61q7 0 11 4l36 37q4 3 4 8v321q0 10 7 17l27 27l-27 27q-7 7 -7 16v282q0 5 -4 9l-36 36q-5 5 -11 5h-61q-15 0 -15 13v28q0 14 15 14h74q13 0 21 -8l68 -66q6 -6 6 -17v-298l17 -15h30q14 0 14 -15v-23
q0 -14 -14 -14h-30l-17 -15v-338q0 -10 -6 -17z" />
    <glyph glyph-name="asciitilde" unicode="~" horiz-adv-x="522" 
d="M359 290q-8 -4 -20 -4q-4 0 -7 0.5t-7 1.5l-128 31q-8 2 -13 2q-4 0 -10 -2l-95 -37q-5 -4 -16 -4q-10 0 -10 14v49q0 10 9 13l101 40q9 3 21 3q3 0 6 -0.5t7 -0.5l128 -32q4 -1 13 -1q7 0 10 1l95 38q6 3 16 3t10 -14v-49q0 -11 -9 -12z" />
    <glyph glyph-name="nonbreakingspace" unicode="&#xa0;" horiz-adv-x="353" 
 />
    <glyph glyph-name="exclamdown" unicode="&#xa1;" horiz-adv-x="412" 
d="M54 0zM286.008 682q44.9971 0 44.9971 -44.9971v-143.991q0 -43.9971 -44.9971 -43.9971h-158.99q-44.9971 0 -44.9971 43.9971v143.991q0 44.9971 44.9971 44.9971h158.99zM283.008 396.018q25.998 0 29.998 -26.998l44.9971 -330.98q1 -4 1 -9.99902
q0 -27.998 -28.998 -27.998h-248.984q-26.999 0 -26.999 26.998q0 3 0.5 5.5q0.5 2.49902 0.5 5.49902l43.998 330.98q4.99902 26.998 30.998 26.998h152.99z" />
    <glyph glyph-name="cent" unicode="&#xa2;" horiz-adv-x="629" 
d="M412 118v-91q0 -27 -26 -27h-60q-26 0 -26 27v91h-47q-47 0 -86.5 16.5t-68.5 46t-45 70.5t-16 90q0 48 15.5 89t44 71t68.5 47t88 17h47v91q0 26 26 26h60q26 0 26 -26v-91h154q26 0 26 -27v-24q0 -27 -26 -27h-188q-21 0 -36 -4.5t-24.5 -15.5t-13.5 -31t-4 -50v-72
q0 -67 18 -93t60 -26h189q27 0 27 -27v-24q0 -26 -27 -26h-155z" />
    <glyph glyph-name="yen" unicode="&#xa5;" horiz-adv-x="841" 
d="M564 151v-124q0 -27 -20 -27h-252q-19 0 -19 27v124h-183q-27 0 -27 27v29q0 26 27 26h183v70h-183q-27 0 -27 27v28q0 27 27 27h137l-182 263q-7 10 -7 18t5 12t10 4h296q19 0 33 -20l154 -231l163 232q8 11 15 15t18 4h51q8 0 11 -4.5t3 -10.5q0 -3 -1 -7t-3 -6
l-187 -269h148q26 0 26 -27v-28q0 -27 -26 -27h-190v-70h190q26 0 26 -26v-29q0 -27 -26 -27h-190z" />
    <glyph glyph-name="brokenbar" unicode="&#xa6;" horiz-adv-x="282" 
d="M127 -89q-20 0 -20 20v317q0 20 20 20h28q20 0 20 -20v-317q0 -20 -20 -20h-28zM127 414q-20 0 -20 21v316q0 20 20 20h28q20 0 20 -20v-316q0 -21 -20 -21h-28z" />
    <glyph glyph-name="dieresis" unicode="&#xa8;" horiz-adv-x="487" 
d="M73 742q-20 0 -20 19v131q0 18 20 18h98q21 0 21 -18v-131q0 -19 -21 -19h-98zM315 742q-19 0 -19 19v131q0 18 19 18h98q21 0 21 -18v-131q0 -19 -21 -19h-98z" />
    <glyph glyph-name="ordfeminine" unicode="&#xaa;" horiz-adv-x="835" 
d="M562 267q-18 0 -28 12l-213 220l-169 -167h251q14 0 14 -15v-35q0 -15 -14 -15h-364q-10 0 -10 9q0 6 4 9l345 347q10 10 23 10h36q14 0 24 -10l340 -346q5 -5 5 -10q0 -9 -13 -9h-231z" />
    <glyph glyph-name="guillemotleft" unicode="&#xab;" horiz-adv-x="564" 
d="M518 193q-9 -14 -22 -14q-7 0 -15 5l-158 91q-21 12 -21 41v38q0 29 21 41l158 91q8 5 15 5q13 0 22 -14l14 -25q4 -8 4 -15q0 -15 -14 -22l-138 -80l138 -80q14 -8 14 -22q0 -7 -4 -15zM241 193q-8 -14 -21 -14q-7 0 -15 5l-158 91q-21 12 -21 41v38q0 29 21 41l158 91
q8 5 15 5q13 0 21 -14l15 -25q2 -5 3 -8.5t1 -6.5q0 -15 -14 -22l-138 -80l138 -80q14 -8 14 -22q0 -3 -1 -6.5t-3 -8.5z" />
    <glyph glyph-name="macron" unicode="&#xaf;" horiz-adv-x="474" 
d="M73 763q-20 0 -20 18v56q0 19 20 19h328q19 0 19 -19v-56q0 -18 -19 -18h-328z" />
    <glyph glyph-name="degree" unicode="&#xb0;" horiz-adv-x="397" 
d="M267 615h-137v-190h137v190zM96 357q-43 0 -43 52v222q0 51 43 51h205q43 0 43 -51v-222q0 -52 -43 -52h-205z" />
    <glyph glyph-name="plusminus" unicode="&#xb1;" horiz-adv-x="747" 
d="M53 0zM359 21q-27 0 -27 27v253h-252q-27 0 -27 27v28q0 27 27 27h252v252q0 27 27 27h29q26 0 26 -27v-252h253q27 0 27 -27v-28q0 -27 -27 -27h-253v-253q0 -27 -26 -27h-29zM80 -125q-27 0 -27 27v28q0 27 27 27h587q27 0 27 -27v-28q0 -27 -27 -27h-587z" />
    <glyph glyph-name="twosuperior" unicode="&#xb2;" horiz-adv-x="568" 
d="M40 365zM53 365q-13 0 -13 13v66q0 38 8.5 62t32.5 37.5t66 18t110 4.5h51q20 0 31 11t11 31q0 39 -42 39h-241q-14 0 -14 14v32q0 13 14 13h343q29 0 50.5 -8.5t35.5 -23t21 -32.5t7 -37q0 -18 -6.5 -35.5t-21 -31t-36 -22t-51.5 -8.5h-119q-39 0 -50 -12t-11 -39v-33
h286q13 0 13 -13v-33q0 -13 -13 -13h-462z" />
    <glyph glyph-name="threesuperior" unicode="&#xb3;" horiz-adv-x="543" 
d="M31 365zM45 365q-14 0 -14 13v33q0 13 14 13h217q53 0 53 50q0 47 -53 47h-118q-13 0 -13 13v32q0 14 13 14h126q26 0 35 9.5t9 24.5t-9 24t-35 9h-222q-13 0 -13 14v32q0 13 13 13h351q50 0 74.5 -23t24.5 -63q0 -16 -4 -27t-10 -18.5t-13 -11.5t-12 -7q16 -5 34.5 -28
t18.5 -60q0 -19 -7 -37.5t-22 -33t-38 -23.5t-55 -9h-345z" />
    <glyph glyph-name="acute" unicode="&#xb4;" horiz-adv-x="451" 
d="M93 714q-10 -5 -23 -5q-17 0 -17 20v45q0 14 18 22l278 132q9 5 16.5 6t14.5 1q17 0 17 -20v-53q0 -16 -15 -19z" />
    <glyph glyph-name="periodcentered" unicode="&#xb7;" horiz-adv-x="355" 
d="M98 214q-45 0 -45 44v145q0 44 45 44h159q45 0 45 -44v-145q0 -44 -45 -44h-159z" />
    <glyph glyph-name="cedilla" unicode="&#xb8;" horiz-adv-x="229" 
d="M86 -161q-17 0 -20 19l-12 111q-1 7 -1 13v11v7h122v-7v-24l-13 -111q-2 -19 -19 -19h-57z" />
    <glyph glyph-name="onesuperior" unicode="&#xb9;" horiz-adv-x="305" 
d="M29 365zM89 365q-10 0 -10 6v276h-37q-13 0 -13 14v32q0 13 13 13h149q38 0 58 -15.5t20 -43.5v-276q0 -6 -10 -6h-170z" />
    <glyph glyph-name="ordmasculine" unicode="&#xba;" horiz-adv-x="725" 
d="M228 267q-41 0 -74.5 14.5t-57.5 39.5t-37 59.5t-13 74.5q0 41 13 75.5t37 59t57.5 38.5t74.5 14h269q41 0 74.5 -14t57.5 -39t37 -59.5t13 -74.5t-13 -74t-37 -59.5t-57.5 -40t-74.5 -14.5h-269zM459 492q0 50 -14.5 68t-49.5 18h-76q-32 0 -46 -18t-14 -68v-60
q0 -56 14.5 -78t45.5 -22h76q33 0 48.5 21.5t15.5 78.5v60z" />
    <glyph glyph-name="guillemotright" unicode="&#xbb;" horiz-adv-x="564" 
d="M81 184q-8 -5 -15 -5q-13 0 -21 14l-15 25q-2 5 -3 8.5t-1 6.5q0 14 14 22l138 80l-138 80q-14 7 -14 22q0 3 1 6.5t3 8.5l15 25q8 14 21 14q7 0 15 -5l158 -91q21 -12 21 -41v-38q0 -29 -21 -41zM357 184q-8 -5 -15 -5q-13 0 -21 14l-15 25q-2 5 -3 8.5t-1 6.5
q0 14 14 22l138 80l-138 80q-14 7 -14 22q0 3 1 6.5t3 8.5l15 25q8 14 21 14q7 0 15 -5l158 -91q21 -12 21 -41v-38q0 -29 -21 -41z" />
    <glyph glyph-name="onequarter" unicode="&#xbc;" horiz-adv-x="1033" 
d="M35 0zM160 365q-10 0 -10 6v276h-37q-13 0 -13 14v32q0 13 13 13h149q38 0 58 -15.5t20 -43.5v-276q0 -6 -10 -6h-170zM132 -20q-10 -10 -17 -13t-20 -3h-41q-9 0 -14 5.5t-5 12.5q0 9 7 16l729 704q10 10 17.5 13t20.5 3h40q9 0 14 -5.5t5 -12.5q0 -9 -7 -16zM772 -9
q-13 0 -13 13v61h-299q-13 0 -13 13v24q0 12 10 18l260 200q15 12 35 12h182q13 0 13 -13v-200h37q13 0 13 -13v-28q0 -13 -13 -13h-37v-61q0 -13 -13 -13h-162zM759 267l-190 -148h190v148z" />
    <glyph glyph-name="onehalf" unicode="&#xbd;" horiz-adv-x="1057" 
d="M35 0zM169 365q-10 0 -10 6v276h-37q-13 0 -13 14v32q0 13 13 13h149q38 0 58 -15.5t20 -43.5v-276q0 -6 -10 -6h-170zM132 -20q-10 -10 -17 -13t-20 -3h-41q-9 0 -14 5.5t-5 12.5q0 9 7 16l729 704q10 10 17.5 13t20.5 3h40q9 0 14 -5.5t5 -12.5q0 -9 -7 -16zM546 -9
q-13 0 -13 13v66q0 38 8.5 62t32.5 37.5t66 18t110 4.5h51q20 0 31 11t11 31q0 39 -42 39h-241q-14 0 -14 14v32q0 13 14 13h343q29 0 50.5 -8.5t35.5 -23t21 -32.5t7 -37q0 -18 -6.5 -35.5t-21 -31t-36 -22t-51.5 -8.5h-119q-39 0 -50 -12t-11 -39v-33h286q13 0 13 -13v-33
q0 -13 -13 -13h-462z" />
    <glyph glyph-name="threequarters" unicode="&#xbe;" horiz-adv-x="1134" 
d="M35 0zM49 365q-14 0 -14 13v33q0 13 14 13h217q53 0 53 50q0 47 -53 47h-118q-13 0 -13 13v32q0 14 13 14h126q26 0 35 9.5t9 24.5t-9 24t-35 9h-222q-13 0 -13 14v32q0 13 13 13h351q50 0 74.5 -23t24.5 -63q0 -16 -4 -27t-10 -18.5t-13 -11.5t-12 -7q16 -5 34.5 -28
t18.5 -60q0 -19 -7 -37.5t-22 -33t-38 -23.5t-55 -9h-345zM260 -20q-10 -10 -17 -13t-20 -3h-41q-9 0 -14 5.5t-5 12.5q0 9 7 16l729 704q10 10 17.5 13t20.5 3h40q9 0 14 -5.5t5 -12.5q0 -9 -7 -16zM873 -9q-13 0 -13 13v61h-299q-13 0 -13 13v24q0 12 10 18l260 200
q15 12 35 12h182q13 0 13 -13v-200h37q13 0 13 -13v-28q0 -13 -13 -13h-37v-61q0 -13 -13 -13h-162zM860 267l-190 -148h190v148z" />
    <glyph glyph-name="questiondown" unicode="&#xbf;" horiz-adv-x="859" 
d="M26 0zM672.012 682q43.9971 0 43.9971 -44.9971v-143.991q0 -43.9971 -43.9971 -43.9971h-159.99q-43.998 0 -43.998 43.9971v143.991q0 44.9971 43.998 44.9971h159.99zM373.029 353.021q30.998 0 51.9971 0.5q20.999 0.499023 35.498 2.99902t21.999 7
q7.49902 4.5 11.499 12.499q8.99902 19.999 26.998 19.999h135.992q26.998 0 26.998 -26.998v-24.999q0 -9.99902 -3 -25.498t-14.499 -30.498t-34.498 -25.499q-22.998 -10.499 -63.9961 -10.499h-186.988q-34.998 0 -49.9971 -20.999q-14.999 -20.998 -14.999 -45.9971
q0 -25.998 14.999 -46.9971t49.9971 -20.999h433.974q26.998 0 26.998 -26.998v-63.9961q0 -25.998 -26.998 -25.998h-569.966q-56.9961 0 -97.9941 14.999q-40.9971 14.999 -67.9951 39.9971q-26.999 24.999 -39.998 56.9971t-12.999 64.9961t12.999 64.4961
t39.998 56.4961q26.998 24.998 68.4951 39.998q41.498 14.999 98.4941 14.999h126.992z" />
    <glyph glyph-name="Agrave" unicode="&#xc0;" 
d="M3 0zM974 0q-32 0 -52 20l-387 401l-306 -303h454q27 0 27 -27v-64q0 -27 -27 -27h-661q-19 0 -19 17q0 3 1.5 7.5t6.5 8.5l627 630q19 19 42 19h66q25 0 44 -19l618 -628q5 -5 6.5 -10t1.5 -9q0 -16 -23 -16h-419zM526 843q-15 3 -15 19v53q0 20 17 20q7 0 15 -1t16 -6
l279 -132q18 -8 18 -22v-45q0 -20 -18 -20q-5 0 -10 1t-13 4z" />
    <glyph glyph-name="Aacute" unicode="&#xc1;" 
d="M3 0zM974 0q-32 0 -52 20l-387 401l-306 -303h454q27 0 27 -27v-64q0 -27 -27 -27h-661q-19 0 -19 17q0 3 1.5 7.5t6.5 8.5l627 630q19 19 42 19h66q25 0 44 -19l618 -628q5 -5 6.5 -10t1.5 -9q0 -16 -23 -16h-419zM604 714q-10 -5 -23 -5q-17 0 -17 20v45q0 14 18 22
l278 132q9 5 16.5 6t14.5 1q17 0 17 -20v-53q0 -16 -15 -19z" />
    <glyph glyph-name="Acircumflex" unicode="&#xc2;" 
d="M3 0zM974 0q-32 0 -52 20l-387 401l-306 -303h454q27 0 27 -27v-64q0 -27 -27 -27h-661q-19 0 -19 17q0 3 1.5 7.5t6.5 8.5l627 630q19 19 42 19h66q25 0 44 -19l618 -628q5 -5 6.5 -10t1.5 -9q0 -16 -23 -16h-419zM710 823l-177 -98q-8 -3 -14 -5.5t-13 -2.5
q-16 0 -16 21v58q0 12 12 21l192 109q8 4 16 4t16 -4l192 -109q11 -8 11 -21v-58q0 -21 -15 -21q-6 0 -13 2.5t-14 5.5z" />
    <glyph glyph-name="Atilde" unicode="&#xc3;" 
d="M3 0zM974 0q-32 0 -52 20l-387 401l-306 -303h454q27 0 27 -27v-64q0 -27 -27 -27h-661q-19 0 -19 17q0 3 1.5 7.5t6.5 8.5l627 630q19 19 42 19h66q25 0 44 -19l618 -628q5 -5 6.5 -10t1.5 -9q0 -16 -23 -16h-419zM829 754q-7 -4 -13.5 -5t-11.5 -1q-11 0 -16 1l-155 46
q-5 1 -12 1q-6 0 -12 -3l-98 -44q-5 -2 -9.5 -3.5t-8.5 -1.5q-15 0 -15 15v55q0 20 16 25l98 47q15 5 26 5q10 0 15 -2l155 -44q4 -1 7 -1h5q3 0 6 0.5t6 0.5l99 44q8 5 17 5q15 0 15 -13v-57q0 -18 -16 -24z" />
    <glyph glyph-name="Adieresis" unicode="&#xc4;" 
d="M3 0zM974 0q-32 0 -52 20l-387 401l-306 -303h454q27 0 27 -27v-64q0 -27 -27 -27h-661q-19 0 -19 17q0 3 1.5 7.5t6.5 8.5l627 630q19 19 42 19h66q25 0 44 -19l618 -628q5 -5 6.5 -10t1.5 -9q0 -16 -23 -16h-419zM540 742q-20 0 -20 19v131q0 18 20 18h98q21 0 21 -18
v-131q0 -19 -21 -19h-98zM782 742q-19 0 -19 19v131q0 18 19 18h98q21 0 21 -18v-131q0 -19 -21 -19h-98z" />
    <glyph glyph-name="Aring" unicode="&#xc5;" 
d="M3 0zM974 0q-32 0 -52 20l-387 401l-306 -303h454q27 0 27 -27v-64q0 -27 -27 -27h-661q-19 0 -19 17q0 3 1.5 7.5t6.5 8.5l627 630q19 19 42 19h66q25 0 44 -19l618 -628q5 -5 6.5 -10t1.5 -9q0 -16 -23 -16h-419zM612 699q-39 0 -39 48v189q0 48 39 48h197q38 0 38 -48
v-189q0 -48 -38 -48h-197zM778 915q0 8 -6 8h-125q-5 0 -5 -7v-150q0 -6 5 -6h125q6 0 6 8v147z" />
    <glyph glyph-name="AE" unicode="&#xc6;" horiz-adv-x="1865" 
d="M962 0q-74 0 -102 37.5t-28 104.5v423h-125l-444 -447h454q27 0 27 -27v-64q0 -27 -27 -27h-695q-19 0 -19 17q0 3 1.5 7.5t6.5 8.5l627 630q19 19 42 19h1117q27 0 27 -26v-64q0 -27 -27 -27h-574v-394q0 -26 13.5 -39.5t45.5 -13.5h518q27 0 27 -27v-64q0 -27 -27 -27
h-838zM1321 313q-27 0 -27 26v65q0 26 27 26h469q26 0 26 -18v-81q0 -18 -26 -18h-469z" />
    <glyph glyph-name="Ccedilla" unicode="&#xc7;" horiz-adv-x="1104" 
d="M36 0zM364 0q-71 0 -131 25.5t-104 71t-68.5 108t-24.5 136.5q0 73 23.5 135.5t66.5 108.5t103.5 71.5t134.5 25.5h681q27 0 27 -26v-64q0 -27 -27 -27h-447q-33 0 -55.5 -7t-36.5 -25t-20 -48t-6 -76v-109q0 -51 7 -86t21.5 -56t36.5 -30.5t53 -9.5h451q26 0 26 -27v-64
q0 -27 -26 -27h-685zM550 -216q-17 0 -20 19l-12 111q-1 6 -1 12.5v11.5v11q0 15 18 15h104q18 0 18 -15v-11v-11.5t-1 -12.5l-12 -111q-2 -19 -19 -19h-75z" />
    <glyph glyph-name="Egrave" unicode="&#xc8;" horiz-adv-x="1131" 
d="M36 0zM578 313q-27 0 -27 26v65q0 26 27 26h478q26 0 26 -18v-81q0 -18 -26 -18h-478zM364 0q-71 0 -131 25.5t-104 71t-68.5 108t-24.5 136.5q0 73 23.5 135.5t66.5 108.5t103.5 71.5t134.5 25.5h699q27 0 27 -26v-64q0 -27 -27 -27h-465q-33 0 -55.5 -7t-36.5 -25
t-20 -48t-6 -76v-109q0 -51 7 -86t21.5 -56t36.5 -30.5t53 -9.5h468q27 0 27 -27v-64q0 -27 -27 -27h-702zM469 843q-15 3 -15 19v53q0 20 17 20q7 0 15 -1t16 -6l279 -132q18 -8 18 -22v-45q0 -20 -18 -20q-5 0 -10 1t-13 4z" />
    <glyph glyph-name="Eacute" unicode="&#xc9;" horiz-adv-x="1131" 
d="M36 0zM578 313q-27 0 -27 26v65q0 26 27 26h478q26 0 26 -18v-81q0 -18 -26 -18h-478zM364 0q-71 0 -131 25.5t-104 71t-68.5 108t-24.5 136.5q0 73 23.5 135.5t66.5 108.5t103.5 71.5t134.5 25.5h699q27 0 27 -26v-64q0 -27 -27 -27h-465q-33 0 -55.5 -7t-36.5 -25
t-20 -48t-6 -76v-109q0 -51 7 -86t21.5 -56t36.5 -30.5t53 -9.5h468q27 0 27 -27v-64q0 -27 -27 -27h-702zM521 714q-10 -5 -23 -5q-17 0 -17 20v45q0 14 18 22l278 132q9 5 16.5 6t14.5 1q17 0 17 -20v-53q0 -16 -15 -19z" />
    <glyph glyph-name="Ecircumflex" unicode="&#xca;" horiz-adv-x="1131" 
d="M36 0zM578 313q-27 0 -27 26v65q0 26 27 26h478q26 0 26 -18v-81q0 -18 -26 -18h-478zM364 0q-71 0 -131 25.5t-104 71t-68.5 108t-24.5 136.5q0 73 23.5 135.5t66.5 108.5t103.5 71.5t134.5 25.5h699q27 0 27 -26v-64q0 -27 -27 -27h-465q-33 0 -55.5 -7t-36.5 -25
t-20 -48t-6 -76v-109q0 -51 7 -86t21.5 -56t36.5 -30.5t53 -9.5h468q27 0 27 -27v-64q0 -27 -27 -27h-702zM612 823l-177 -98q-8 -3 -14 -5.5t-13 -2.5q-16 0 -16 21v58q0 12 12 21l192 109q8 4 16 4t16 -4l192 -109q11 -8 11 -21v-58q0 -21 -15 -21q-6 0 -13 2.5t-14 5.5z
" />
    <glyph glyph-name="Edieresis" unicode="&#xcb;" horiz-adv-x="1131" 
d="M36 0zM578 313q-27 0 -27 26v65q0 26 27 26h478q26 0 26 -18v-81q0 -18 -26 -18h-478zM364 0q-71 0 -131 25.5t-104 71t-68.5 108t-24.5 136.5q0 73 23.5 135.5t66.5 108.5t103.5 71.5t134.5 25.5h699q27 0 27 -26v-64q0 -27 -27 -27h-465q-33 0 -55.5 -7t-36.5 -25
t-20 -48t-6 -76v-109q0 -51 7 -86t21.5 -56t36.5 -30.5t53 -9.5h468q27 0 27 -27v-64q0 -27 -27 -27h-702zM456 742q-20 0 -20 19v131q0 18 20 18h98q21 0 21 -18v-131q0 -19 -21 -19h-98zM698 742q-19 0 -19 19v131q0 18 19 18h98q21 0 21 -18v-131q0 -19 -21 -19h-98z" />
    <glyph glyph-name="Igrave" unicode="&#xcc;" horiz-adv-x="513" 
d="M57 0zM84 0q-26 0 -26 27v629q0 26 26 26h345q26 0 26 -26v-629q0 -27 -26 -27h-345zM72 843q-15 3 -15 19v53q0 20 17 20q7 0 15 -1t16 -6l279 -132q18 -8 18 -22v-45q0 -20 -18 -20q-5 0 -10 1t-13 4z" />
    <glyph glyph-name="Iacute" unicode="&#xcd;" horiz-adv-x="513" 
d="M58 0zM84 0q-26 0 -26 27v629q0 26 26 26h345q26 0 26 -26v-629q0 -27 -26 -27h-345zM151 714q-10 -5 -23 -5q-17 0 -17 20v45q0 14 18 22l278 132q9 5 16.5 6t14.5 1q17 0 17 -20v-53q0 -16 -15 -19z" />
    <glyph glyph-name="Icircumflex" unicode="&#xce;" horiz-adv-x="513" 
d="M38 0zM84 0q-26 0 -26 27v629q0 26 26 26h345q26 0 26 -26v-629q0 -27 -26 -27h-345zM258 823l-177 -98q-8 -3 -14 -5.5t-13 -2.5q-16 0 -16 21v58q0 12 12 21l192 109q8 4 16 4t16 -4l192 -109q11 -8 11 -21v-58q0 -21 -15 -21q-6 0 -13 2.5t-14 5.5z" />
    <glyph glyph-name="Idieresis" unicode="&#xcf;" horiz-adv-x="513" 
d="M58 0zM84 0q-26 0 -26 27v629q0 26 26 26h345q26 0 26 -26v-629q0 -27 -26 -27h-345zM85 742q-20 0 -20 19v131q0 18 20 18h98q21 0 21 -18v-131q0 -19 -21 -19h-98zM327 742q-19 0 -19 19v131q0 18 19 18h98q21 0 21 -18v-131q0 -19 -21 -19h-98z" />
    <glyph glyph-name="Eth" unicode="&#xd0;" horiz-adv-x="1299" 
d="M113 0q-27 0 -27 27v286h-59q-27 0 -27 26v65q0 26 27 26h59v226q0 26 27 26h804q74 0 134.5 -26t103.5 -71.5t66.5 -108t23.5 -135.5q0 -74 -24.5 -136.5t-68.5 -108t-104 -71t-131 -25.5h-804zM801 409q0 46 -6 76t-20 48t-36 25t-54 7h-202v-135h190q27 0 27 -18v-81
q0 -18 -27 -18h-190v-195h202q30 0 52 9.5t36.5 31t21 56t6.5 85.5v109z" />
    <glyph glyph-name="Ntilde" unicode="&#xd1;" horiz-adv-x="1282" 
d="M49 0zM1137 0q-30 0 -52.5 4t-55.5 16l-797 298v-291q0 -27 -27 -27h-129q-27 0 -27 27v629q0 26 27 26h123q16 0 29 -0.5t25 -2.5t24.5 -6t28.5 -10l744 -287v280q0 26 27 26h129q27 0 27 -26v-629q0 -27 -27 -27h-69zM795 754q-7 -4 -13.5 -5t-11.5 -1q-11 0 -16 1
l-155 46q-5 1 -12 1q-6 0 -12 -3l-98 -44q-5 -2 -9.5 -3.5t-8.5 -1.5q-15 0 -15 15v55q0 20 16 25l98 47q15 5 26 5q10 0 15 -2l155 -44q4 -1 7 -1h5q3 0 6 0.5t6 0.5l99 44q8 5 17 5q15 0 15 -13v-57q0 -18 -16 -24z" />
    <glyph glyph-name="Ograve" unicode="&#xd2;" horiz-adv-x="1220" 
d="M36 0zM365 0q-73 0 -133.5 26t-104 72t-67.5 108.5t-24 134.5q0 74 23.5 136.5t66.5 108t104 71t135 25.5h490q75 0 135.5 -26t104 -71.5t67 -108t23.5 -135.5q0 -72 -24 -134.5t-67.5 -108t-104 -72t-134.5 -26.5h-490zM786 409q0 46 -6 76t-20 48t-36.5 25t-55.5 7
h-136q-30 0 -50.5 -7.5t-34 -25.5t-19.5 -48t-6 -75v-109q0 -101 26.5 -141.5t83.5 -40.5h136q31 0 53 9.5t36.5 30.5t21.5 56t7 86v109zM425 843q-15 3 -15 19v53q0 20 17 20q7 0 15 -1t16 -6l279 -132q18 -8 18 -22v-45q0 -20 -18 -20q-5 0 -10 1t-13 4z" />
    <glyph glyph-name="Oacute" unicode="&#xd3;" horiz-adv-x="1220" 
d="M36 0zM365 0q-73 0 -133.5 26t-104 72t-67.5 108.5t-24 134.5q0 74 23.5 136.5t66.5 108t104 71t135 25.5h490q75 0 135.5 -26t104 -71.5t67 -108t23.5 -135.5q0 -72 -24 -134.5t-67.5 -108t-104 -72t-134.5 -26.5h-490zM786 409q0 46 -6 76t-20 48t-36.5 25t-55.5 7
h-136q-30 0 -50.5 -7.5t-34 -25.5t-19.5 -48t-6 -75v-109q0 -101 26.5 -141.5t83.5 -40.5h136q31 0 53 9.5t36.5 30.5t21.5 56t7 86v109zM505 714q-10 -5 -23 -5q-17 0 -17 20v45q0 14 18 22l278 132q9 5 16.5 6t14.5 1q17 0 17 -20v-53q0 -16 -15 -19z" />
    <glyph glyph-name="Ocircumflex" unicode="&#xd4;" horiz-adv-x="1220" 
d="M36 0zM365 0q-73 0 -133.5 26t-104 72t-67.5 108.5t-24 134.5q0 74 23.5 136.5t66.5 108t104 71t135 25.5h490q75 0 135.5 -26t104 -71.5t67 -108t23.5 -135.5q0 -72 -24 -134.5t-67.5 -108t-104 -72t-134.5 -26.5h-490zM786 409q0 46 -6 76t-20 48t-36.5 25t-55.5 7
h-136q-30 0 -50.5 -7.5t-34 -25.5t-19.5 -48t-6 -75v-109q0 -101 26.5 -141.5t83.5 -40.5h136q31 0 53 9.5t36.5 30.5t21.5 56t7 86v109zM611 823l-177 -98q-8 -3 -14 -5.5t-13 -2.5q-16 0 -16 21v58q0 12 12 21l192 109q8 4 16 4t16 -4l192 -109q11 -8 11 -21v-58
q0 -21 -15 -21q-6 0 -13 2.5t-14 5.5z" />
    <glyph glyph-name="Otilde" unicode="&#xd5;" horiz-adv-x="1220" 
d="M36 0zM365 0q-73 0 -133.5 26t-104 72t-67.5 108.5t-24 134.5q0 74 23.5 136.5t66.5 108t104 71t135 25.5h490q75 0 135.5 -26t104 -71.5t67 -108t23.5 -135.5q0 -72 -24 -134.5t-67.5 -108t-104 -72t-134.5 -26.5h-490zM786 409q0 46 -6 76t-20 48t-36.5 25t-55.5 7
h-136q-30 0 -50.5 -7.5t-34 -25.5t-19.5 -48t-6 -75v-109q0 -101 26.5 -141.5t83.5 -40.5h136q31 0 53 9.5t36.5 30.5t21.5 56t7 86v109zM728 754q-7 -4 -13.5 -5t-11.5 -1q-11 0 -16 1l-155 46q-5 1 -12 1q-6 0 -12 -3l-98 -44q-5 -2 -9.5 -3.5t-8.5 -1.5q-15 0 -15 15v55
q0 20 16 25l98 47q15 5 26 5q10 0 15 -2l155 -44q4 -1 7 -1h5q3 0 6 0.5t6 0.5l99 44q8 5 17 5q15 0 15 -13v-57q0 -18 -16 -24z" />
    <glyph glyph-name="Odieresis" unicode="&#xd6;" horiz-adv-x="1220" 
d="M36 0zM365 0q-73 0 -133.5 26t-104 72t-67.5 108.5t-24 134.5q0 74 23.5 136.5t66.5 108t104 71t135 25.5h490q75 0 135.5 -26t104 -71.5t67 -108t23.5 -135.5q0 -72 -24 -134.5t-67.5 -108t-104 -72t-134.5 -26.5h-490zM786 409q0 46 -6 76t-20 48t-36.5 25t-55.5 7
h-136q-30 0 -50.5 -7.5t-34 -25.5t-19.5 -48t-6 -75v-109q0 -101 26.5 -141.5t83.5 -40.5h136q31 0 53 9.5t36.5 30.5t21.5 56t7 86v109zM439 742q-20 0 -20 19v131q0 18 20 18h98q21 0 21 -18v-131q0 -19 -21 -19h-98zM681 742q-19 0 -19 19v131q0 18 19 18h98q21 0 21 -18
v-131q0 -19 -21 -19h-98z" />
    <glyph glyph-name="multiply" unicode="&#xd7;" horiz-adv-x="747" 
d="M590 105q-12 -10 -20 -10q-7 0 -19 10l-179 179l-178 -178q-9 -10 -19 -10q-9 0 -18 10l-21 20q-9 9 -9 18t9 20l178 178l-178 178q-9 9 -9 19q0 8 9 19l21 20q9 9 18 9q10 0 19 -9l178 -178l179 179q10 9 19 9t20 -9l19 -20q9 -9 9 -19q0 -11 -9 -19l-179 -179l179 -179
q9 -8 9 -19t-9 -19z" />
    <glyph glyph-name="Oslash" unicode="&#xd8;" horiz-adv-x="1220" 
d="M380 0l-42 -55q-8 -11 -14 -13.5t-19 -2.5h-48q-9 0 -15.5 4t-6.5 12q0 7 7 18l38 47q-56 13 -101 43.5t-76.5 74t-49 97.5t-17.5 116q0 74 23.5 136.5t66.5 108t104 71t135 25.5h443l44 56q7 9 13 12.5t20 3.5h47q9 0 15.5 -4t6.5 -12t-7 -18l-33 -42q62 -10 112 -39
t85.5 -73.5t54.5 -101.5t19 -123q0 -72 -24 -134.5t-67.5 -108t-104 -72t-134.5 -26.5h-475zM786 409q0 29 -3 52t-8 41l-294 -375q11 -5 23.5 -7t27.5 -2h136q31 0 53 9.5t36.5 30.5t21.5 56t7 86v109zM713 560q-11 3 -21.5 4t-23.5 1h-136q-30 0 -50.5 -7.5t-34 -25.5
t-19.5 -48t-6 -75v-109q0 -59 9 -98z" />
    <glyph glyph-name="Ugrave" unicode="&#xd9;" horiz-adv-x="1188" 
d="M45 0zM386 0q-92 0 -157 22t-106 63t-59.5 99t-18.5 130v342q0 26 26 26h374q26 0 26 -26v-342q0 -92 39 -144t124 -52h172q86 0 126.5 52t40.5 144v342q0 26 27 26h120q27 0 27 -26v-342q0 -66 -20.5 -123t-62.5 -99.5t-106.5 -67t-151.5 -24.5h-420zM561 843
q-15 3 -15 19v53q0 20 17 20q7 0 15 -1t16 -6l279 -132q18 -8 18 -22v-45q0 -20 -18 -20q-5 0 -10 1t-13 4z" />
    <glyph glyph-name="Uacute" unicode="&#xda;" horiz-adv-x="1188" 
d="M45 0zM386 0q-92 0 -157 22t-106 63t-59.5 99t-18.5 130v342q0 26 26 26h374q26 0 26 -26v-342q0 -92 39 -144t124 -52h172q86 0 126.5 52t40.5 144v342q0 26 27 26h120q27 0 27 -26v-342q0 -66 -20.5 -123t-62.5 -99.5t-106.5 -67t-151.5 -24.5h-420zM595 714
q-10 -5 -23 -5q-17 0 -17 20v45q0 14 18 22l278 132q9 5 16.5 6t14.5 1q17 0 17 -20v-53q0 -16 -15 -19z" />
    <glyph glyph-name="Ucircumflex" unicode="&#xdb;" horiz-adv-x="1188" 
d="M45 0zM386 0q-92 0 -157 22t-106 63t-59.5 99t-18.5 130v342q0 26 26 26h374q26 0 26 -26v-342q0 -92 39 -144t124 -52h172q86 0 126.5 52t40.5 144v342q0 26 27 26h120q27 0 27 -26v-342q0 -66 -20.5 -123t-62.5 -99.5t-106.5 -67t-151.5 -24.5h-420zM718 823l-177 -98
q-8 -3 -14 -5.5t-13 -2.5q-16 0 -16 21v58q0 12 12 21l192 109q8 4 16 4t16 -4l192 -109q11 -8 11 -21v-58q0 -21 -15 -21q-6 0 -13 2.5t-14 5.5z" />
    <glyph glyph-name="Udieresis" unicode="&#xdc;" horiz-adv-x="1188" 
d="M45 0zM386 0q-92 0 -157 22t-106 63t-59.5 99t-18.5 130v342q0 26 26 26h374q26 0 26 -26v-342q0 -92 39 -144t124 -52h172q86 0 126.5 52t40.5 144v342q0 26 27 26h120q27 0 27 -26v-342q0 -66 -20.5 -123t-62.5 -99.5t-106.5 -67t-151.5 -24.5h-420zM557 742
q-20 0 -20 19v131q0 18 20 18h98q21 0 21 -18v-131q0 -19 -21 -19h-98zM799 742q-19 0 -19 19v131q0 18 19 18h98q21 0 21 -18v-131q0 -19 -21 -19h-98z" />
    <glyph glyph-name="Yacute" unicode="&#xdd;" horiz-adv-x="1139" 
d="M3 0zM397 0q-26 0 -26 27v238l-359 383q-9 9 -9 18q0 8 6 12t14 4h403q27 0 45 -20l266 -292l277 293q11 11 20 15t24 4h58q10 0 14.5 -4.5t4.5 -10.5q0 -8 -5 -13l-362 -383v-244q0 -27 -27 -27h-344zM553 714q-10 -5 -23 -5q-17 0 -17 20v45q0 14 18 22l278 132
q9 5 16.5 6t14.5 1q17 0 17 -20v-53q0 -16 -15 -19z" />
    <glyph glyph-name="Thorn" unicode="&#xde;" horiz-adv-x="1177" 
d="M518 108q-26 0 -26 27v64q0 26 26 26h128q24 0 44.5 5.5t35.5 17.5t24 32t9 49q0 52 -33 77t-80 25h-214v-404q0 -27 -27 -27h-343q-26 0 -26 27v629q0 26 26 26h343q27 0 27 -26v-107h485q49 0 92 -15t74.5 -44t49.5 -70.5t18 -95.5q0 -53 -20 -93.5t-55 -67.5
t-82.5 -41t-102.5 -14h-373z" />
    <glyph glyph-name="germandbls" unicode="&#xdf;" horiz-adv-x="2076" 
d="M29 0zM61 0q-26 0 -26 27v64q0 27 26 27h561l-471 221q-38 18 -62 37.5t-37.5 41t-18 45.5t-4.5 51q0 33 12 63.5t36.5 54t61 37t84.5 13.5h736q27 0 27 -26v-64q0 -27 -27 -27h-542l470 -221q39 -18 62.5 -37.5t37 -41t18 -46t4.5 -51.5q0 -33 -12 -63.5t-36.5 -54
t-60.5 -37t-84 -13.5h-755zM1099 0q-26 0 -26 27v64q0 27 26 27h561l-471 221q-38 18 -62 37.5t-37.5 41t-18 45.5t-4.5 51q0 33 12 63.5t36.5 54t61 37t84.5 13.5h736q27 0 27 -26v-64q0 -27 -27 -27h-542l470 -221q39 -18 62.5 -37.5t37 -41t18 -46t4.5 -51.5
q0 -33 -12 -63.5t-36.5 -54t-60.5 -37t-84 -13.5h-755z" />
    <glyph glyph-name="agrave" unicode="&#xe0;" 
d="M3 0zM974 0q-32 0 -52 20l-387 401l-306 -303h454q27 0 27 -27v-64q0 -27 -27 -27h-661q-19 0 -19 17q0 3 1.5 7.5t6.5 8.5l627 630q19 19 42 19h66q25 0 44 -19l618 -628q5 -5 6.5 -10t1.5 -9q0 -16 -23 -16h-419zM526 843q-15 3 -15 19v53q0 20 17 20q7 0 15 -1t16 -6
l279 -132q18 -8 18 -22v-45q0 -20 -18 -20q-5 0 -10 1t-13 4z" />
    <glyph glyph-name="aacute" unicode="&#xe1;" 
d="M3 0zM974 0q-32 0 -52 20l-387 401l-306 -303h454q27 0 27 -27v-64q0 -27 -27 -27h-661q-19 0 -19 17q0 3 1.5 7.5t6.5 8.5l627 630q19 19 42 19h66q25 0 44 -19l618 -628q5 -5 6.5 -10t1.5 -9q0 -16 -23 -16h-419zM604 714q-10 -5 -23 -5q-17 0 -17 20v45q0 14 18 22
l278 132q9 5 16.5 6t14.5 1q17 0 17 -20v-53q0 -16 -15 -19z" />
    <glyph glyph-name="acircumflex" unicode="&#xe2;" 
d="M3 0zM974 0q-32 0 -52 20l-387 401l-306 -303h454q27 0 27 -27v-64q0 -27 -27 -27h-661q-19 0 -19 17q0 3 1.5 7.5t6.5 8.5l627 630q19 19 42 19h66q25 0 44 -19l618 -628q5 -5 6.5 -10t1.5 -9q0 -16 -23 -16h-419zM710 823l-177 -98q-8 -3 -14 -5.5t-13 -2.5
q-16 0 -16 21v58q0 12 12 21l192 109q8 4 16 4t16 -4l192 -109q11 -8 11 -21v-58q0 -21 -15 -21q-6 0 -13 2.5t-14 5.5z" />
    <glyph glyph-name="atilde" unicode="&#xe3;" 
d="M3 0zM974 0q-32 0 -52 20l-387 401l-306 -303h454q27 0 27 -27v-64q0 -27 -27 -27h-661q-19 0 -19 17q0 3 1.5 7.5t6.5 8.5l627 630q19 19 42 19h66q25 0 44 -19l618 -628q5 -5 6.5 -10t1.5 -9q0 -16 -23 -16h-419zM829 754q-7 -4 -13.5 -5t-11.5 -1q-11 0 -16 1l-155 46
q-5 1 -12 1q-6 0 -12 -3l-98 -44q-5 -2 -9.5 -3.5t-8.5 -1.5q-15 0 -15 15v55q0 20 16 25l98 47q15 5 26 5q10 0 15 -2l155 -44q4 -1 7 -1h5q3 0 6 0.5t6 0.5l99 44q8 5 17 5q15 0 15 -13v-57q0 -18 -16 -24z" />
    <glyph glyph-name="adieresis" unicode="&#xe4;" 
d="M3 0zM974 0q-32 0 -52 20l-387 401l-306 -303h454q27 0 27 -27v-64q0 -27 -27 -27h-661q-19 0 -19 17q0 3 1.5 7.5t6.5 8.5l627 630q19 19 42 19h66q25 0 44 -19l618 -628q5 -5 6.5 -10t1.5 -9q0 -16 -23 -16h-419zM540 742q-20 0 -20 19v131q0 18 20 18h98q21 0 21 -18
v-131q0 -19 -21 -19h-98zM782 742q-19 0 -19 19v131q0 18 19 18h98q21 0 21 -18v-131q0 -19 -21 -19h-98z" />
    <glyph glyph-name="aring" unicode="&#xe5;" 
d="M3 0zM974 0q-32 0 -52 20l-387 401l-306 -303h454q27 0 27 -27v-64q0 -27 -27 -27h-661q-19 0 -19 17q0 3 1.5 7.5t6.5 8.5l627 630q19 19 42 19h66q25 0 44 -19l618 -628q5 -5 6.5 -10t1.5 -9q0 -16 -23 -16h-419zM612 699q-39 0 -39 48v189q0 48 39 48h197q38 0 38 -48
v-189q0 -48 -38 -48h-197zM778 915q0 8 -6 8h-125q-5 0 -5 -7v-150q0 -6 5 -6h125q6 0 6 8v147z" />
    <glyph glyph-name="ae" unicode="&#xe6;" horiz-adv-x="1865" 
d="M3 0zM962 0q-74 0 -102 37.5t-28 104.5v423h-125l-444 -447h454q27 0 27 -27v-64q0 -27 -27 -27h-695q-19 0 -19 17q0 3 1.5 7.5t6.5 8.5l627 630q19 19 42 19h1117q27 0 27 -26v-64q0 -27 -27 -27h-574v-394q0 -26 13.5 -39.5t45.5 -13.5h518q27 0 27 -27v-64
q0 -27 -27 -27h-838zM1321 313q-27 0 -27 26v65q0 26 27 26h469q26 0 26 -18v-81q0 -18 -26 -18h-469z" />
    <glyph glyph-name="ccedilla" unicode="&#xe7;" horiz-adv-x="1104" 
d="M36 0zM364 0q-71 0 -131 25.5t-104 71t-68.5 108t-24.5 136.5q0 73 23.5 135.5t66.5 108.5t103.5 71.5t134.5 25.5h681q27 0 27 -26v-64q0 -27 -27 -27h-447q-33 0 -55.5 -7t-36.5 -25t-20 -48t-6 -76v-109q0 -51 7 -86t21.5 -56t36.5 -30.5t53 -9.5h451q26 0 26 -27v-64
q0 -27 -26 -27h-685zM550 -216q-17 0 -20 19l-12 111q-1 6 -1 12.5v11.5v11q0 15 18 15h104q18 0 18 -15v-11v-11.5t-1 -12.5l-12 -111q-2 -19 -19 -19h-75z" />
    <glyph glyph-name="egrave" unicode="&#xe8;" horiz-adv-x="1131" 
d="M36 0zM578 313q-27 0 -27 26v65q0 26 27 26h478q26 0 26 -18v-81q0 -18 -26 -18h-478zM364 0q-71 0 -131 25.5t-104 71t-68.5 108t-24.5 136.5q0 73 23.5 135.5t66.5 108.5t103.5 71.5t134.5 25.5h699q27 0 27 -26v-64q0 -27 -27 -27h-465q-33 0 -55.5 -7t-36.5 -25
t-20 -48t-6 -76v-109q0 -51 7 -86t21.5 -56t36.5 -30.5t53 -9.5h468q27 0 27 -27v-64q0 -27 -27 -27h-702zM469 843q-15 3 -15 19v53q0 20 17 20q7 0 15 -1t16 -6l279 -132q18 -8 18 -22v-45q0 -20 -18 -20q-5 0 -10 1t-13 4z" />
    <glyph glyph-name="eacute" unicode="&#xe9;" horiz-adv-x="1131" 
d="M36 0zM578 313q-27 0 -27 26v65q0 26 27 26h478q26 0 26 -18v-81q0 -18 -26 -18h-478zM364 0q-71 0 -131 25.5t-104 71t-68.5 108t-24.5 136.5q0 73 23.5 135.5t66.5 108.5t103.5 71.5t134.5 25.5h699q27 0 27 -26v-64q0 -27 -27 -27h-465q-33 0 -55.5 -7t-36.5 -25
t-20 -48t-6 -76v-109q0 -51 7 -86t21.5 -56t36.5 -30.5t53 -9.5h468q27 0 27 -27v-64q0 -27 -27 -27h-702zM521 714q-10 -5 -23 -5q-17 0 -17 20v45q0 14 18 22l278 132q9 5 16.5 6t14.5 1q17 0 17 -20v-53q0 -16 -15 -19z" />
    <glyph glyph-name="ecircumflex" unicode="&#xea;" horiz-adv-x="1131" 
d="M36 0zM578 313q-27 0 -27 26v65q0 26 27 26h478q26 0 26 -18v-81q0 -18 -26 -18h-478zM364 0q-71 0 -131 25.5t-104 71t-68.5 108t-24.5 136.5q0 73 23.5 135.5t66.5 108.5t103.5 71.5t134.5 25.5h699q27 0 27 -26v-64q0 -27 -27 -27h-465q-33 0 -55.5 -7t-36.5 -25
t-20 -48t-6 -76v-109q0 -51 7 -86t21.5 -56t36.5 -30.5t53 -9.5h468q27 0 27 -27v-64q0 -27 -27 -27h-702zM612 823l-177 -98q-8 -3 -14 -5.5t-13 -2.5q-16 0 -16 21v58q0 12 12 21l192 109q8 4 16 4t16 -4l192 -109q11 -8 11 -21v-58q0 -21 -15 -21q-6 0 -13 2.5t-14 5.5z
" />
    <glyph glyph-name="edieresis" unicode="&#xeb;" horiz-adv-x="1131" 
d="M36 0zM578 313q-27 0 -27 26v65q0 26 27 26h478q26 0 26 -18v-81q0 -18 -26 -18h-478zM364 0q-71 0 -131 25.5t-104 71t-68.5 108t-24.5 136.5q0 73 23.5 135.5t66.5 108.5t103.5 71.5t134.5 25.5h699q27 0 27 -26v-64q0 -27 -27 -27h-465q-33 0 -55.5 -7t-36.5 -25
t-20 -48t-6 -76v-109q0 -51 7 -86t21.5 -56t36.5 -30.5t53 -9.5h468q27 0 27 -27v-64q0 -27 -27 -27h-702zM456 742q-20 0 -20 19v131q0 18 20 18h98q21 0 21 -18v-131q0 -19 -21 -19h-98zM698 742q-19 0 -19 19v131q0 18 19 18h98q21 0 21 -18v-131q0 -19 -21 -19h-98z" />
    <glyph glyph-name="igrave" unicode="&#xec;" horiz-adv-x="513" 
d="M57 0zM84 0q-26 0 -26 27v629q0 26 26 26h345q26 0 26 -26v-629q0 -27 -26 -27h-345zM72 843q-15 3 -15 19v53q0 20 17 20q7 0 15 -1t16 -6l279 -132q18 -8 18 -22v-45q0 -20 -18 -20q-5 0 -10 1t-13 4z" />
    <glyph glyph-name="iacute" unicode="&#xed;" horiz-adv-x="513" 
d="M58 0zM84 0q-26 0 -26 27v629q0 26 26 26h345q26 0 26 -26v-629q0 -27 -26 -27h-345zM151 714q-10 -5 -23 -5q-17 0 -17 20v45q0 14 18 22l278 132q9 5 16.5 6t14.5 1q17 0 17 -20v-53q0 -16 -15 -19z" />
    <glyph glyph-name="icircumflex" unicode="&#xee;" horiz-adv-x="513" 
d="M38 0zM84 0q-26 0 -26 27v629q0 26 26 26h345q26 0 26 -26v-629q0 -27 -26 -27h-345zM258 823l-177 -98q-8 -3 -14 -5.5t-13 -2.5q-16 0 -16 21v58q0 12 12 21l192 109q8 4 16 4t16 -4l192 -109q11 -8 11 -21v-58q0 -21 -15 -21q-6 0 -13 2.5t-14 5.5z" />
    <glyph glyph-name="idieresis" unicode="&#xef;" horiz-adv-x="513" 
d="M58 0zM84 0q-26 0 -26 27v629q0 26 26 26h345q26 0 26 -26v-629q0 -27 -26 -27h-345zM85 742q-20 0 -20 19v131q0 18 20 18h98q21 0 21 -18v-131q0 -19 -21 -19h-98zM327 742q-19 0 -19 19v131q0 18 19 18h98q21 0 21 -18v-131q0 -19 -21 -19h-98z" />
    <glyph glyph-name="eth" unicode="&#xf0;" horiz-adv-x="1299" 
d="M0 0zM113 0q-27 0 -27 27v286h-59q-27 0 -27 26v65q0 26 27 26h59v226q0 26 27 26h804q74 0 134.5 -26t103.5 -71.5t66.5 -108t23.5 -135.5q0 -74 -24.5 -136.5t-68.5 -108t-104 -71t-131 -25.5h-804zM801 409q0 46 -6 76t-20 48t-36 25t-54 7h-202v-135h190q27 0 27 -18
v-81q0 -18 -27 -18h-190v-195h202q30 0 52 9.5t36.5 31t21 56t6.5 85.5v109z" />
    <glyph glyph-name="ntilde" unicode="&#xf1;" horiz-adv-x="1282" 
d="M49 0zM1137 0q-30 0 -52.5 4t-55.5 16l-797 298v-291q0 -27 -27 -27h-129q-27 0 -27 27v629q0 26 27 26h123q16 0 29 -0.5t25 -2.5t24.5 -6t28.5 -10l744 -287v280q0 26 27 26h129q27 0 27 -26v-629q0 -27 -27 -27h-69zM795 754q-7 -4 -13.5 -5t-11.5 -1q-11 0 -16 1
l-155 46q-5 1 -12 1q-6 0 -12 -3l-98 -44q-5 -2 -9.5 -3.5t-8.5 -1.5q-15 0 -15 15v55q0 20 16 25l98 47q15 5 26 5q10 0 15 -2l155 -44q4 -1 7 -1h5q3 0 6 0.5t6 0.5l99 44q8 5 17 5q15 0 15 -13v-57q0 -18 -16 -24z" />
    <glyph glyph-name="ograve" unicode="&#xf2;" horiz-adv-x="1220" 
d="M36 0zM365 0q-73 0 -133.5 26t-104 72t-67.5 108.5t-24 134.5q0 74 23.5 136.5t66.5 108t104 71t135 25.5h490q75 0 135.5 -26t104 -71.5t67 -108t23.5 -135.5q0 -72 -24 -134.5t-67.5 -108t-104 -72t-134.5 -26.5h-490zM786 409q0 46 -6 76t-20 48t-36.5 25t-55.5 7
h-136q-30 0 -50.5 -7.5t-34 -25.5t-19.5 -48t-6 -75v-109q0 -101 26.5 -141.5t83.5 -40.5h136q31 0 53 9.5t36.5 30.5t21.5 56t7 86v109zM425 843q-15 3 -15 19v53q0 20 17 20q7 0 15 -1t16 -6l279 -132q18 -8 18 -22v-45q0 -20 -18 -20q-5 0 -10 1t-13 4z" />
    <glyph glyph-name="oacute" unicode="&#xf3;" horiz-adv-x="1220" 
d="M36 0zM365 0q-73 0 -133.5 26t-104 72t-67.5 108.5t-24 134.5q0 74 23.5 136.5t66.5 108t104 71t135 25.5h490q75 0 135.5 -26t104 -71.5t67 -108t23.5 -135.5q0 -72 -24 -134.5t-67.5 -108t-104 -72t-134.5 -26.5h-490zM786 409q0 46 -6 76t-20 48t-36.5 25t-55.5 7
h-136q-30 0 -50.5 -7.5t-34 -25.5t-19.5 -48t-6 -75v-109q0 -101 26.5 -141.5t83.5 -40.5h136q31 0 53 9.5t36.5 30.5t21.5 56t7 86v109zM505 714q-10 -5 -23 -5q-17 0 -17 20v45q0 14 18 22l278 132q9 5 16.5 6t14.5 1q17 0 17 -20v-53q0 -16 -15 -19z" />
    <glyph glyph-name="ocircumflex" unicode="&#xf4;" horiz-adv-x="1220" 
d="M36 0zM365 0q-73 0 -133.5 26t-104 72t-67.5 108.5t-24 134.5q0 74 23.5 136.5t66.5 108t104 71t135 25.5h490q75 0 135.5 -26t104 -71.5t67 -108t23.5 -135.5q0 -72 -24 -134.5t-67.5 -108t-104 -72t-134.5 -26.5h-490zM786 409q0 46 -6 76t-20 48t-36.5 25t-55.5 7
h-136q-30 0 -50.5 -7.5t-34 -25.5t-19.5 -48t-6 -75v-109q0 -101 26.5 -141.5t83.5 -40.5h136q31 0 53 9.5t36.5 30.5t21.5 56t7 86v109zM611 823l-177 -98q-8 -3 -14 -5.5t-13 -2.5q-16 0 -16 21v58q0 12 12 21l192 109q8 4 16 4t16 -4l192 -109q11 -8 11 -21v-58
q0 -21 -15 -21q-6 0 -13 2.5t-14 5.5z" />
    <glyph glyph-name="otilde" unicode="&#xf5;" horiz-adv-x="1220" 
d="M36 0zM365 0q-73 0 -133.5 26t-104 72t-67.5 108.5t-24 134.5q0 74 23.5 136.5t66.5 108t104 71t135 25.5h490q75 0 135.5 -26t104 -71.5t67 -108t23.5 -135.5q0 -72 -24 -134.5t-67.5 -108t-104 -72t-134.5 -26.5h-490zM786 409q0 46 -6 76t-20 48t-36.5 25t-55.5 7
h-136q-30 0 -50.5 -7.5t-34 -25.5t-19.5 -48t-6 -75v-109q0 -101 26.5 -141.5t83.5 -40.5h136q31 0 53 9.5t36.5 30.5t21.5 56t7 86v109zM728 754q-7 -4 -13.5 -5t-11.5 -1q-11 0 -16 1l-155 46q-5 1 -12 1q-6 0 -12 -3l-98 -44q-5 -2 -9.5 -3.5t-8.5 -1.5q-15 0 -15 15v55
q0 20 16 25l98 47q15 5 26 5q10 0 15 -2l155 -44q4 -1 7 -1h5q3 0 6 0.5t6 0.5l99 44q8 5 17 5q15 0 15 -13v-57q0 -18 -16 -24z" />
    <glyph glyph-name="odieresis" unicode="&#xf6;" horiz-adv-x="1220" 
d="M36 0zM365 0q-73 0 -133.5 26t-104 72t-67.5 108.5t-24 134.5q0 74 23.5 136.5t66.5 108t104 71t135 25.5h490q75 0 135.5 -26t104 -71.5t67 -108t23.5 -135.5q0 -72 -24 -134.5t-67.5 -108t-104 -72t-134.5 -26.5h-490zM786 409q0 46 -6 76t-20 48t-36.5 25t-55.5 7
h-136q-30 0 -50.5 -7.5t-34 -25.5t-19.5 -48t-6 -75v-109q0 -101 26.5 -141.5t83.5 -40.5h136q31 0 53 9.5t36.5 30.5t21.5 56t7 86v109zM439 742q-20 0 -20 19v131q0 18 20 18h98q21 0 21 -18v-131q0 -19 -21 -19h-98zM681 742q-19 0 -19 19v131q0 18 19 18h98q21 0 21 -18
v-131q0 -19 -21 -19h-98z" />
    <glyph glyph-name="divide" unicode="&#xf7;" horiz-adv-x="747" 
d="M53 0zM80 301q-27 0 -27 27v28q0 27 27 27h587q27 0 27 -27v-28q0 -27 -27 -27h-587zM294 454q-45 0 -45 45v144q0 44 45 44h159q45 0 45 -44v-144q0 -45 -45 -45h-159zM294 0q-45 0 -45 45v144q0 44 45 44h159q45 0 45 -44v-144q0 -45 -45 -45h-159z" />
    <glyph glyph-name="oslash" unicode="&#xf8;" horiz-adv-x="1220" 
d="M36 0zM380 0l-42 -55q-8 -11 -14 -13.5t-19 -2.5h-48q-9 0 -15.5 4t-6.5 12q0 7 7 18l38 47q-56 13 -101 43.5t-76.5 74t-49 97.5t-17.5 116q0 74 23.5 136.5t66.5 108t104 71t135 25.5h443l44 56q7 9 13 12.5t20 3.5h47q9 0 15.5 -4t6.5 -12t-7 -18l-33 -42
q62 -10 112 -39t85.5 -73.5t54.5 -101.5t19 -123q0 -72 -24 -134.5t-67.5 -108t-104 -72t-134.5 -26.5h-475zM786 409q0 29 -3 52t-8 41l-294 -375q11 -5 23.5 -7t27.5 -2h136q31 0 53 9.5t36.5 30.5t21.5 56t7 86v109zM713 560q-11 3 -21.5 4t-23.5 1h-136
q-30 0 -50.5 -7.5t-34 -25.5t-19.5 -48t-6 -75v-109q0 -59 9 -98z" />
    <glyph glyph-name="ugrave" unicode="&#xf9;" horiz-adv-x="1188" 
d="M45 0zM386 0q-92 0 -157 22t-106 63t-59.5 99t-18.5 130v342q0 26 26 26h374q26 0 26 -26v-342q0 -92 39 -144t124 -52h172q86 0 126.5 52t40.5 144v342q0 26 27 26h120q27 0 27 -26v-342q0 -66 -20.5 -123t-62.5 -99.5t-106.5 -67t-151.5 -24.5h-420zM561 843
q-15 3 -15 19v53q0 20 17 20q7 0 15 -1t16 -6l279 -132q18 -8 18 -22v-45q0 -20 -18 -20q-5 0 -10 1t-13 4z" />
    <glyph glyph-name="uacute" unicode="&#xfa;" horiz-adv-x="1188" 
d="M45 0zM386 0q-92 0 -157 22t-106 63t-59.5 99t-18.5 130v342q0 26 26 26h374q26 0 26 -26v-342q0 -92 39 -144t124 -52h172q86 0 126.5 52t40.5 144v342q0 26 27 26h120q27 0 27 -26v-342q0 -66 -20.5 -123t-62.5 -99.5t-106.5 -67t-151.5 -24.5h-420zM595 714
q-10 -5 -23 -5q-17 0 -17 20v45q0 14 18 22l278 132q9 5 16.5 6t14.5 1q17 0 17 -20v-53q0 -16 -15 -19z" />
    <glyph glyph-name="ucircumflex" unicode="&#xfb;" horiz-adv-x="1188" 
d="M45 0zM386 0q-92 0 -157 22t-106 63t-59.5 99t-18.5 130v342q0 26 26 26h374q26 0 26 -26v-342q0 -92 39 -144t124 -52h172q86 0 126.5 52t40.5 144v342q0 26 27 26h120q27 0 27 -26v-342q0 -66 -20.5 -123t-62.5 -99.5t-106.5 -67t-151.5 -24.5h-420zM718 823l-177 -98
q-8 -3 -14 -5.5t-13 -2.5q-16 0 -16 21v58q0 12 12 21l192 109q8 4 16 4t16 -4l192 -109q11 -8 11 -21v-58q0 -21 -15 -21q-6 0 -13 2.5t-14 5.5z" />
    <glyph glyph-name="udieresis" unicode="&#xfc;" horiz-adv-x="1188" 
d="M45 0zM386 0q-92 0 -157 22t-106 63t-59.5 99t-18.5 130v342q0 26 26 26h374q26 0 26 -26v-342q0 -92 39 -144t124 -52h172q86 0 126.5 52t40.5 144v342q0 26 27 26h120q27 0 27 -26v-342q0 -66 -20.5 -123t-62.5 -99.5t-106.5 -67t-151.5 -24.5h-420zM557 742
q-20 0 -20 19v131q0 18 20 18h98q21 0 21 -18v-131q0 -19 -21 -19h-98zM799 742q-19 0 -19 19v131q0 18 19 18h98q21 0 21 -18v-131q0 -19 -21 -19h-98z" />
    <glyph glyph-name="yacute" unicode="&#xfd;" horiz-adv-x="1139" 
d="M3 0zM397 0q-26 0 -26 27v238l-359 383q-9 9 -9 18q0 8 6 12t14 4h403q27 0 45 -20l266 -292l277 293q11 11 20 15t24 4h58q10 0 14.5 -4.5t4.5 -10.5q0 -8 -5 -13l-362 -383v-244q0 -27 -27 -27h-344zM553 714q-10 -5 -23 -5q-17 0 -17 20v45q0 14 18 22l278 132
q9 5 16.5 6t14.5 1q17 0 17 -20v-53q0 -16 -15 -19z" />
    <glyph glyph-name="thorn" unicode="&#xfe;" horiz-adv-x="1177" 
d="M36 0zM518 108q-26 0 -26 27v64q0 26 26 26h128q24 0 44.5 5.5t35.5 17.5t24 32t9 49q0 52 -33 77t-80 25h-214v-404q0 -27 -27 -27h-343q-26 0 -26 27v629q0 26 26 26h343q27 0 27 -26v-107h485q49 0 92 -15t74.5 -44t49.5 -70.5t18 -95.5q0 -53 -20 -93.5t-55 -67.5
t-82.5 -41t-102.5 -14h-373z" />
    <glyph glyph-name="ydieresis" unicode="&#xff;" horiz-adv-x="1139" 
d="M3 0zM397 0q-26 0 -26 27v238l-359 383q-9 9 -9 18q0 8 6 12t14 4h403q27 0 45 -20l266 -292l277 293q11 11 20 15t24 4h58q10 0 14.5 -4.5t4.5 -10.5q0 -8 -5 -13l-362 -383v-244q0 -27 -27 -27h-344zM512 742q-20 0 -20 19v131q0 18 20 18h98q21 0 21 -18v-131
q0 -19 -21 -19h-98zM754 742q-19 0 -19 19v131q0 18 19 18h98q21 0 21 -18v-131q0 -19 -21 -19h-98z" />
    <glyph glyph-name="Amacron" unicode="&#x100;" 
d="M3 0zM974 0q-32 0 -52 20l-387 401l-306 -303h454q27 0 27 -27v-64q0 -27 -27 -27h-661q-19 0 -19 17q0 3 1.5 7.5t6.5 8.5l627 630q19 19 42 19h66q25 0 44 -19l618 -628q5 -5 6.5 -10t1.5 -9q0 -16 -23 -16h-419zM546 763q-20 0 -20 18v56q0 19 20 19h328q19 0 19 -19
v-56q0 -18 -19 -18h-328z" />
    <glyph glyph-name="amacron" unicode="&#x101;" 
d="M3 0zM974 0q-32 0 -52 20l-387 401l-306 -303h454q27 0 27 -27v-64q0 -27 -27 -27h-661q-19 0 -19 17q0 3 1.5 7.5t6.5 8.5l627 630q19 19 42 19h66q25 0 44 -19l618 -628q5 -5 6.5 -10t1.5 -9q0 -16 -23 -16h-419zM546 763q-20 0 -20 18v56q0 19 20 19h328q19 0 19 -19
v-56q0 -18 -19 -18h-328z" />
    <glyph glyph-name="Abreve" unicode="&#x102;" 
d="M3 0zM974 0q-32 0 -52 20l-387 401l-306 -303h454q27 0 27 -27v-64q0 -27 -27 -27h-661q-19 0 -19 17q0 3 1.5 7.5t6.5 8.5l627 630q19 19 42 19h66q25 0 44 -19l618 -628q5 -5 6.5 -10t1.5 -9q0 -16 -23 -16h-419zM795 749q-9 -8 -32 -8h-105q-24 0 -32 8l-97 87
q-9 6 -9 20v54q0 24 16 24q8 0 20 -8l101 -83q2 -4 8 -5t14 -1h62q18 0 24 6l99 83q12 8 20 8q16 0 16 -24v-54q0 -14 -9 -20z" />
    <glyph glyph-name="abreve" unicode="&#x103;" 
d="M3 0zM974 0q-32 0 -52 20l-387 401l-306 -303h454q27 0 27 -27v-64q0 -27 -27 -27h-661q-19 0 -19 17q0 3 1.5 7.5t6.5 8.5l627 630q19 19 42 19h66q25 0 44 -19l618 -628q5 -5 6.5 -10t1.5 -9q0 -16 -23 -16h-419zM795 749q-9 -8 -32 -8h-105q-24 0 -32 8l-97 87
q-9 6 -9 20v54q0 24 16 24q8 0 20 -8l101 -83q2 -4 8 -5t14 -1h62q18 0 24 6l99 83q12 8 20 8q16 0 16 -24v-54q0 -14 -9 -20z" />
    <glyph glyph-name="Aogonek" unicode="&#x104;" 
d="M1150 -216q-17 0 -30 11t-13 29q0 8 4 18.5t13 21.5l117 136h-267q-32 0 -52 20l-387 401l-306 -303h454q27 0 27 -27v-64q0 -27 -27 -27h-661q-19 0 -19 17q0 3 1.5 7.5t6.5 8.5l627 630q19 19 42 19h66q25 0 44 -19l618 -628q5 -5 6.5 -10t1.5 -9q0 -16 -23 -16h-75
l-80 -90q-2 -4 -2 -7q0 -8 9 -8h54q19 0 19 -22v-70q0 -19 -16 -19h-152z" />
    <glyph glyph-name="aogonek" unicode="&#x105;" 
d="M3 0zM1150 -216q-17 0 -30 11t-13 29q0 8 4 18.5t13 21.5l117 136h-267q-32 0 -52 20l-387 401l-306 -303h454q27 0 27 -27v-64q0 -27 -27 -27h-661q-19 0 -19 17q0 3 1.5 7.5t6.5 8.5l627 630q19 19 42 19h66q25 0 44 -19l618 -628q5 -5 6.5 -10t1.5 -9q0 -16 -23 -16
h-75l-80 -90q-2 -4 -2 -7q0 -8 9 -8h54q19 0 19 -22v-70q0 -19 -16 -19h-152z" />
    <glyph glyph-name="Cacute" unicode="&#x106;" horiz-adv-x="1104" 
d="M36 0zM364 0q-71 0 -131 25.5t-104 71t-68.5 108t-24.5 136.5q0 73 23.5 135.5t66.5 108.5t103.5 71.5t134.5 25.5h681q27 0 27 -26v-64q0 -27 -27 -27h-447q-33 0 -55.5 -7t-36.5 -25t-20 -48t-6 -76v-109q0 -51 7 -86t21.5 -56t36.5 -30.5t53 -9.5h451q26 0 26 -27v-64
q0 -27 -26 -27h-685zM521 714q-10 -5 -23 -5q-17 0 -17 20v45q0 14 18 22l278 132q9 5 16.5 6t14.5 1q17 0 17 -20v-53q0 -16 -15 -19z" />
    <glyph glyph-name="cacute" unicode="&#x107;" horiz-adv-x="1104" 
d="M36 0zM364 0q-71 0 -131 25.5t-104 71t-68.5 108t-24.5 136.5q0 73 23.5 135.5t66.5 108.5t103.5 71.5t134.5 25.5h681q27 0 27 -26v-64q0 -27 -27 -27h-447q-33 0 -55.5 -7t-36.5 -25t-20 -48t-6 -76v-109q0 -51 7 -86t21.5 -56t36.5 -30.5t53 -9.5h451q26 0 26 -27v-64
q0 -27 -26 -27h-685zM521 714q-10 -5 -23 -5q-17 0 -17 20v45q0 14 18 22l278 132q9 5 16.5 6t14.5 1q17 0 17 -20v-53q0 -16 -15 -19z" />
    <glyph glyph-name="Cdotaccent" unicode="&#x10a;" horiz-adv-x="1104" 
d="M36 0zM364 0q-71 0 -131 25.5t-104 71t-68.5 108t-24.5 136.5q0 73 23.5 135.5t66.5 108.5t103.5 71.5t134.5 25.5h681q27 0 27 -26v-64q0 -27 -27 -27h-447q-33 0 -55.5 -7t-36.5 -25t-20 -48t-6 -76v-109q0 -51 7 -86t21.5 -56t36.5 -30.5t53 -9.5h451q26 0 26 -27v-64
q0 -27 -26 -27h-685zM563 742q-20 0 -20 19v131q0 18 20 18h98q21 0 21 -18v-131q0 -19 -21 -19h-98z" />
    <glyph glyph-name="cdotaccent" unicode="&#x10b;" horiz-adv-x="1104" 
d="M36 0zM364 0q-71 0 -131 25.5t-104 71t-68.5 108t-24.5 136.5q0 73 23.5 135.5t66.5 108.5t103.5 71.5t134.5 25.5h681q27 0 27 -26v-64q0 -27 -27 -27h-447q-33 0 -55.5 -7t-36.5 -25t-20 -48t-6 -76v-109q0 -51 7 -86t21.5 -56t36.5 -30.5t53 -9.5h451q26 0 26 -27v-64
q0 -27 -26 -27h-685zM563 742q-20 0 -20 19v131q0 18 20 18h98q21 0 21 -18v-131q0 -19 -21 -19h-98z" />
    <glyph glyph-name="Ccaron" unicode="&#x10c;" horiz-adv-x="1104" 
d="M36 0zM364 0q-71 0 -131 25.5t-104 71t-68.5 108t-24.5 136.5q0 73 23.5 135.5t66.5 108.5t103.5 71.5t134.5 25.5h681q27 0 27 -26v-64q0 -27 -27 -27h-447q-33 0 -55.5 -7t-36.5 -25t-20 -48t-6 -76v-109q0 -51 7 -86t21.5 -56t36.5 -30.5t53 -9.5h451q26 0 26 -27v-64
q0 -27 -26 -27h-685zM610 722q-8 -5 -16 -5q-9 0 -16 5l-192 110q-12 7 -12 20v58q0 20 16 20q13 0 27 -7l177 -98l177 98q13 7 27 7q15 0 15 -20v-58q0 -14 -11 -20z" />
    <glyph glyph-name="ccaron" unicode="&#x10d;" horiz-adv-x="1104" 
d="M36 0zM364 0q-71 0 -131 25.5t-104 71t-68.5 108t-24.5 136.5q0 73 23.5 135.5t66.5 108.5t103.5 71.5t134.5 25.5h681q27 0 27 -26v-64q0 -27 -27 -27h-447q-33 0 -55.5 -7t-36.5 -25t-20 -48t-6 -76v-109q0 -51 7 -86t21.5 -56t36.5 -30.5t53 -9.5h451q26 0 26 -27v-64
q0 -27 -26 -27h-685zM610 722q-8 -5 -16 -5q-9 0 -16 5l-192 110q-12 7 -12 20v58q0 20 16 20q13 0 27 -7l177 -98l177 98q13 7 27 7q15 0 15 -20v-58q0 -14 -11 -20z" />
    <glyph glyph-name="Dcaron" unicode="&#x10e;" horiz-adv-x="1248" 
d="M36 0zM62 0q-26 0 -26 27v629q0 26 26 26h804q75 0 135.5 -26t103.5 -71.5t66.5 -108t23.5 -135.5q0 -74 -24.5 -136.5t-68.5 -108t-104.5 -71t-131.5 -25.5h-804zM750 409q0 46 -6 76t-20 48t-36 25t-54 7h-202v-447h202q30 0 52 9.5t36.5 31t21 56t6.5 85.5v109z
M595 722q-8 -5 -16 -5q-9 0 -16 5l-192 110q-12 7 -12 20v58q0 20 16 20q13 0 27 -7l177 -98l177 98q13 7 27 7q15 0 15 -20v-58q0 -14 -11 -20z" />
    <glyph glyph-name="dcaron" unicode="&#x10f;" horiz-adv-x="1248" 
d="M36 0zM62 0q-26 0 -26 27v629q0 26 26 26h804q75 0 135.5 -26t103.5 -71.5t66.5 -108t23.5 -135.5q0 -74 -24.5 -136.5t-68.5 -108t-104.5 -71t-131.5 -25.5h-804zM750 409q0 46 -6 76t-20 48t-36 25t-54 7h-202v-447h202q30 0 52 9.5t36.5 31t21 56t6.5 85.5v109z
M595 722q-8 -5 -16 -5q-9 0 -16 5l-192 110q-12 7 -12 20v58q0 20 16 20q13 0 27 -7l177 -98l177 98q13 7 27 7q15 0 15 -20v-58q0 -14 -11 -20z" />
    <glyph glyph-name="Dcroat" unicode="&#x110;" horiz-adv-x="1299" 
d="M0 0zM113 0q-27 0 -27 27v286h-59q-27 0 -27 26v65q0 26 27 26h59v226q0 26 27 26h804q74 0 134.5 -26t103.5 -71.5t66.5 -108t23.5 -135.5q0 -74 -24.5 -136.5t-68.5 -108t-104 -71t-131 -25.5h-804zM801 409q0 46 -6 76t-20 48t-36 25t-54 7h-202v-135h190q27 0 27 -18
v-81q0 -18 -27 -18h-190v-195h202q30 0 52 9.5t36.5 31t21 56t6.5 85.5v109z" />
    <glyph glyph-name="dcroat" unicode="&#x111;" horiz-adv-x="1299" 
d="M0 0zM113 0q-27 0 -27 27v286h-59q-27 0 -27 26v65q0 26 27 26h59v226q0 26 27 26h804q74 0 134.5 -26t103.5 -71.5t66.5 -108t23.5 -135.5q0 -74 -24.5 -136.5t-68.5 -108t-104 -71t-131 -25.5h-804zM801 409q0 46 -6 76t-20 48t-36 25t-54 7h-202v-135h190q27 0 27 -18
v-81q0 -18 -27 -18h-190v-195h202q30 0 52 9.5t36.5 31t21 56t6.5 85.5v109z" />
    <glyph glyph-name="Emacron" unicode="&#x112;" horiz-adv-x="1131" 
d="M36 0zM578 313q-27 0 -27 26v65q0 26 27 26h478q26 0 26 -18v-81q0 -18 -26 -18h-478zM364 0q-71 0 -131 25.5t-104 71t-68.5 108t-24.5 136.5q0 73 23.5 135.5t66.5 108.5t103.5 71.5t134.5 25.5h699q27 0 27 -26v-64q0 -27 -27 -27h-465q-33 0 -55.5 -7t-36.5 -25
t-20 -48t-6 -76v-109q0 -51 7 -86t21.5 -56t36.5 -30.5t53 -9.5h468q27 0 27 -27v-64q0 -27 -27 -27h-702zM438 763q-20 0 -20 18v56q0 19 20 19h328q19 0 19 -19v-56q0 -18 -19 -18h-328z" />
    <glyph glyph-name="emacron" unicode="&#x113;" horiz-adv-x="1131" 
d="M36 0zM578 313q-27 0 -27 26v65q0 26 27 26h478q26 0 26 -18v-81q0 -18 -26 -18h-478zM364 0q-71 0 -131 25.5t-104 71t-68.5 108t-24.5 136.5q0 73 23.5 135.5t66.5 108.5t103.5 71.5t134.5 25.5h699q27 0 27 -26v-64q0 -27 -27 -27h-465q-33 0 -55.5 -7t-36.5 -25
t-20 -48t-6 -76v-109q0 -51 7 -86t21.5 -56t36.5 -30.5t53 -9.5h468q27 0 27 -27v-64q0 -27 -27 -27h-702zM438 763q-20 0 -20 18v56q0 19 20 19h328q19 0 19 -19v-56q0 -18 -19 -18h-328z" />
    <glyph glyph-name="Ebreve" unicode="&#x114;" horiz-adv-x="1131" 
d="M36 0zM578 313q-27 0 -27 26v65q0 26 27 26h478q26 0 26 -18v-81q0 -18 -26 -18h-478zM364 0q-71 0 -131 25.5t-104 71t-68.5 108t-24.5 136.5q0 73 23.5 135.5t66.5 108.5t103.5 71.5t134.5 25.5h699q27 0 27 -26v-64q0 -27 -27 -27h-465q-33 0 -55.5 -7t-36.5 -25
t-20 -48t-6 -76v-109q0 -51 7 -86t21.5 -56t36.5 -30.5t53 -9.5h468q27 0 27 -27v-64q0 -27 -27 -27h-702zM675 749q-9 -8 -32 -8h-105q-24 0 -32 8l-97 87q-9 6 -9 20v54q0 24 16 24q8 0 20 -8l101 -83q2 -4 8 -5t14 -1h62q18 0 24 6l99 83q12 8 20 8q16 0 16 -24v-54
q0 -14 -9 -20z" />
    <glyph glyph-name="ebreve" unicode="&#x115;" horiz-adv-x="1131" 
d="M36 0zM578 313q-27 0 -27 26v65q0 26 27 26h478q26 0 26 -18v-81q0 -18 -26 -18h-478zM364 0q-71 0 -131 25.5t-104 71t-68.5 108t-24.5 136.5q0 73 23.5 135.5t66.5 108.5t103.5 71.5t134.5 25.5h699q27 0 27 -26v-64q0 -27 -27 -27h-465q-33 0 -55.5 -7t-36.5 -25
t-20 -48t-6 -76v-109q0 -51 7 -86t21.5 -56t36.5 -30.5t53 -9.5h468q27 0 27 -27v-64q0 -27 -27 -27h-702zM675 749q-9 -8 -32 -8h-105q-24 0 -32 8l-97 87q-9 6 -9 20v54q0 24 16 24q8 0 20 -8l101 -83q2 -4 8 -5t14 -1h62q18 0 24 6l99 83q12 8 20 8q16 0 16 -24v-54
q0 -14 -9 -20z" />
    <glyph glyph-name="Edotaccent" unicode="&#x116;" horiz-adv-x="1131" 
d="M36 0zM578 313q-27 0 -27 26v65q0 26 27 26h478q26 0 26 -18v-81q0 -18 -26 -18h-478zM364 0q-71 0 -131 25.5t-104 71t-68.5 108t-24.5 136.5q0 73 23.5 135.5t66.5 108.5t103.5 71.5t134.5 25.5h699q27 0 27 -26v-64q0 -27 -27 -27h-465q-33 0 -55.5 -7t-36.5 -25
t-20 -48t-6 -76v-109q0 -51 7 -86t21.5 -56t36.5 -30.5t53 -9.5h468q27 0 27 -27v-64q0 -27 -27 -27h-702zM563 742q-20 0 -20 19v131q0 18 20 18h98q21 0 21 -18v-131q0 -19 -21 -19h-98z" />
    <glyph glyph-name="edotaccent" unicode="&#x117;" horiz-adv-x="1131" 
d="M36 0zM578 313q-27 0 -27 26v65q0 26 27 26h478q26 0 26 -18v-81q0 -18 -26 -18h-478zM364 0q-71 0 -131 25.5t-104 71t-68.5 108t-24.5 136.5q0 73 23.5 135.5t66.5 108.5t103.5 71.5t134.5 25.5h699q27 0 27 -26v-64q0 -27 -27 -27h-465q-33 0 -55.5 -7t-36.5 -25
t-20 -48t-6 -76v-109q0 -51 7 -86t21.5 -56t36.5 -30.5t53 -9.5h468q27 0 27 -27v-64q0 -27 -27 -27h-702zM563 742q-20 0 -20 19v131q0 18 20 18h98q21 0 21 -18v-131q0 -19 -21 -19h-98z" />
    <glyph glyph-name="Eogonek" unicode="&#x118;" horiz-adv-x="1131" 
d="M912 -216q-17 0 -30 11t-13 29q0 8 4 18.5t13 21.5l117 136h-639q-71 0 -131 25.5t-104 71t-68.5 108t-24.5 136.5q0 73 23.5 135.5t66.5 108.5t103.5 71.5t134.5 25.5h699q27 0 27 -26v-64q0 -27 -27 -27h-465q-33 0 -55.5 -7t-36.5 -25t-20 -48t-6 -76v-109
q0 -51 7 -86t21.5 -56t36.5 -30.5t53 -9.5h468q27 0 27 -27v-64q0 -7 -2 -11.5t-4 -8.5l-87 -97q-2 -4 -2 -7q0 -8 10 -8h53q20 0 20 -22v-70q0 -19 -16 -19h-153zM578 313q-27 0 -27 26v65q0 26 27 26h478q26 0 26 -18v-81q0 -18 -26 -18h-478z" />
    <glyph glyph-name="eogonek" unicode="&#x119;" horiz-adv-x="1131" 
d="M36 0zM912 -216q-17 0 -30 11t-13 29q0 8 4 18.5t13 21.5l117 136h-639q-71 0 -131 25.5t-104 71t-68.5 108t-24.5 136.5q0 73 23.5 135.5t66.5 108.5t103.5 71.5t134.5 25.5h699q27 0 27 -26v-64q0 -27 -27 -27h-465q-33 0 -55.5 -7t-36.5 -25t-20 -48t-6 -76v-109
q0 -51 7 -86t21.5 -56t36.5 -30.5t53 -9.5h468q27 0 27 -27v-64q0 -7 -2 -11.5t-4 -8.5l-87 -97q-2 -4 -2 -7q0 -8 10 -8h53q20 0 20 -22v-70q0 -19 -16 -19h-153zM578 313q-27 0 -27 26v65q0 26 27 26h478q26 0 26 -18v-81q0 -18 -26 -18h-478z" />
    <glyph glyph-name="Ecaron" unicode="&#x11a;" horiz-adv-x="1131" 
d="M36 0zM578 313q-27 0 -27 26v65q0 26 27 26h478q26 0 26 -18v-81q0 -18 -26 -18h-478zM364 0q-71 0 -131 25.5t-104 71t-68.5 108t-24.5 136.5q0 73 23.5 135.5t66.5 108.5t103.5 71.5t134.5 25.5h699q27 0 27 -26v-64q0 -27 -27 -27h-465q-33 0 -55.5 -7t-36.5 -25
t-20 -48t-6 -76v-109q0 -51 7 -86t21.5 -56t36.5 -30.5t53 -9.5h468q27 0 27 -27v-64q0 -27 -27 -27h-702zM610 722q-8 -5 -16 -5q-9 0 -16 5l-192 110q-12 7 -12 20v58q0 20 16 20q13 0 27 -7l177 -98l177 98q13 7 27 7q15 0 15 -20v-58q0 -14 -11 -20z" />
    <glyph glyph-name="ecaron" unicode="&#x11b;" horiz-adv-x="1131" 
d="M36 0zM578 313q-27 0 -27 26v65q0 26 27 26h478q26 0 26 -18v-81q0 -18 -26 -18h-478zM364 0q-71 0 -131 25.5t-104 71t-68.5 108t-24.5 136.5q0 73 23.5 135.5t66.5 108.5t103.5 71.5t134.5 25.5h699q27 0 27 -26v-64q0 -27 -27 -27h-465q-33 0 -55.5 -7t-36.5 -25
t-20 -48t-6 -76v-109q0 -51 7 -86t21.5 -56t36.5 -30.5t53 -9.5h468q27 0 27 -27v-64q0 -27 -27 -27h-702zM610 722q-8 -5 -16 -5q-9 0 -16 5l-192 110q-12 7 -12 20v58q0 20 16 20q13 0 27 -7l177 -98l177 98q13 7 27 7q15 0 15 -20v-58q0 -14 -11 -20z" />
    <glyph glyph-name="Gbreve" unicode="&#x11e;" horiz-adv-x="1172" 
d="M36 0zM364 0q-71 0 -131 25.5t-104 71t-68.5 108t-24.5 136.5q0 73 23.5 135.5t66.5 108.5t103.5 71.5t134.5 25.5h697q27 0 27 -26v-64q0 -27 -27 -27h-463q-33 0 -55.5 -7t-36.5 -25t-20 -48t-6 -76v-109q0 -51 7 -86t21.5 -56t36.5 -30.5t53 -9.5h177v306q0 27 26 27
h286q27 0 27 -27v-397q0 -27 -27 -27h-723zM684 749q-9 -8 -32 -8h-105q-24 0 -32 8l-97 87q-9 6 -9 20v54q0 24 16 24q8 0 20 -8l101 -83q2 -4 8 -5t14 -1h62q18 0 24 6l99 83q12 8 20 8q16 0 16 -24v-54q0 -14 -9 -20z" />
    <glyph glyph-name="gbreve" unicode="&#x11f;" horiz-adv-x="1172" 
d="M36 0zM364 0q-71 0 -131 25.5t-104 71t-68.5 108t-24.5 136.5q0 73 23.5 135.5t66.5 108.5t103.5 71.5t134.5 25.5h697q27 0 27 -26v-64q0 -27 -27 -27h-463q-33 0 -55.5 -7t-36.5 -25t-20 -48t-6 -76v-109q0 -51 7 -86t21.5 -56t36.5 -30.5t53 -9.5h177v306q0 27 26 27
h286q27 0 27 -27v-397q0 -27 -27 -27h-723zM684 749q-9 -8 -32 -8h-105q-24 0 -32 8l-97 87q-9 6 -9 20v54q0 24 16 24q8 0 20 -8l101 -83q2 -4 8 -5t14 -1h62q18 0 24 6l99 83q12 8 20 8q16 0 16 -24v-54q0 -14 -9 -20z" />
    <glyph glyph-name="Gdotaccent" unicode="&#x120;" horiz-adv-x="1172" 
d="M36 0zM364 0q-71 0 -131 25.5t-104 71t-68.5 108t-24.5 136.5q0 73 23.5 135.5t66.5 108.5t103.5 71.5t134.5 25.5h697q27 0 27 -26v-64q0 -27 -27 -27h-463q-33 0 -55.5 -7t-36.5 -25t-20 -48t-6 -76v-109q0 -51 7 -86t21.5 -56t36.5 -30.5t53 -9.5h177v306q0 27 26 27
h286q27 0 27 -27v-397q0 -27 -27 -27h-723zM554 742q-20 0 -20 19v131q0 18 20 18h98q21 0 21 -18v-131q0 -19 -21 -19h-98z" />
    <glyph glyph-name="gdotaccent" unicode="&#x121;" horiz-adv-x="1172" 
d="M36 0zM364 0q-71 0 -131 25.5t-104 71t-68.5 108t-24.5 136.5q0 73 23.5 135.5t66.5 108.5t103.5 71.5t134.5 25.5h697q27 0 27 -26v-64q0 -27 -27 -27h-463q-33 0 -55.5 -7t-36.5 -25t-20 -48t-6 -76v-109q0 -51 7 -86t21.5 -56t36.5 -30.5t53 -9.5h177v306q0 27 26 27
h286q27 0 27 -27v-397q0 -27 -27 -27h-723zM554 742q-20 0 -20 19v131q0 18 20 18h98q21 0 21 -18v-131q0 -19 -21 -19h-98z" />
    <glyph glyph-name="Gcommaaccent" unicode="&#x122;" horiz-adv-x="1172" 
d="M36 0zM364 0q-71 0 -131 25.5t-104 71t-68.5 108t-24.5 136.5q0 73 23.5 135.5t66.5 108.5t103.5 71.5t134.5 25.5h697q27 0 27 -26v-64q0 -27 -27 -27h-463q-33 0 -55.5 -7t-36.5 -25t-20 -48t-6 -76v-109q0 -51 7 -86t21.5 -56t36.5 -30.5t53 -9.5h177v306q0 27 26 27
h286q27 0 27 -27v-397q0 -27 -27 -27h-723zM566 -216q-17 0 -20 19l-12 111q-1 6 -1 12.5v11.5v11q0 15 18 15h104q18 0 18 -15v-11v-11.5t-1 -12.5l-12 -111q-2 -19 -19 -19h-75z" />
    <glyph glyph-name="gcommaaccent" unicode="&#x123;" horiz-adv-x="1172" 
d="M36 0zM364 0q-71 0 -131 25.5t-104 71t-68.5 108t-24.5 136.5q0 73 23.5 135.5t66.5 108.5t103.5 71.5t134.5 25.5h697q27 0 27 -26v-64q0 -27 -27 -27h-463q-33 0 -55.5 -7t-36.5 -25t-20 -48t-6 -76v-109q0 -51 7 -86t21.5 -56t36.5 -30.5t53 -9.5h177v306q0 27 26 27
h286q27 0 27 -27v-397q0 -27 -27 -27h-723zM566 -216q-17 0 -20 19l-12 111q-1 6 -1 12.5v11.5v11q0 15 18 15h104q18 0 18 -15v-11v-11.5t-1 -12.5l-12 -111q-2 -19 -19 -19h-75z" />
    <glyph glyph-name="Hbar" unicode="&#x126;" horiz-adv-x="1200" 
d="M777 0q-27 0 -27 27v286h-300v-286q0 -27 -26 -27h-344q-27 0 -27 27v629q0 26 27 26h344q26 0 26 -26v-49h300v49q0 26 27 26h344q26 0 26 -26v-629q0 -27 -26 -27h-344zM750 430v83h-300v-83h300z" />
    <glyph glyph-name="hbar" unicode="&#x127;" horiz-adv-x="1200" 
d="M53 0zM777 0q-27 0 -27 27v286h-300v-286q0 -27 -26 -27h-344q-27 0 -27 27v629q0 26 27 26h344q26 0 26 -26v-49h300v49q0 26 27 26h344q26 0 26 -26v-629q0 -27 -26 -27h-344zM750 430v83h-300v-83h300z" />
    <glyph glyph-name="uni012A" unicode="&#x12a;" horiz-adv-x="513" 
d="M58 0zM84 0q-26 0 -26 27v629q0 26 26 26h345q26 0 26 -26v-629q0 -27 -26 -27h-345zM93 763q-20 0 -20 18v56q0 19 20 19h328q19 0 19 -19v-56q0 -18 -19 -18h-328z" />
    <glyph glyph-name="imacron" unicode="&#x12b;" horiz-adv-x="513" 
d="M58 0zM84 0q-26 0 -26 27v629q0 26 26 26h345q26 0 26 -26v-629q0 -27 -26 -27h-345zM93 763q-20 0 -20 18v56q0 19 20 19h328q19 0 19 -19v-56q0 -18 -19 -18h-328z" />
    <glyph glyph-name="Ibreve" unicode="&#x12c;" horiz-adv-x="513" 
d="M58 0zM84 0q-26 0 -26 27v629q0 26 26 26h345q26 0 26 -26v-629q0 -27 -26 -27h-345zM341 749q-9 -8 -32 -8h-105q-24 0 -32 8l-97 87q-9 6 -9 20v54q0 24 16 24q8 0 20 -8l101 -83q2 -4 8 -5t14 -1h62q18 0 24 6l99 83q12 8 20 8q16 0 16 -24v-54q0 -14 -9 -20z" />
    <glyph glyph-name="ibreve" unicode="&#x12d;" horiz-adv-x="513" 
d="M58 0zM84 0q-26 0 -26 27v629q0 26 26 26h345q26 0 26 -26v-629q0 -27 -26 -27h-345zM341 749q-9 -8 -32 -8h-105q-24 0 -32 8l-97 87q-9 6 -9 20v54q0 24 16 24q8 0 20 -8l101 -83q2 -4 8 -5t14 -1h62q18 0 24 6l99 83q12 8 20 8q16 0 16 -24v-54q0 -14 -9 -20z" />
    <glyph glyph-name="Iogonek" unicode="&#x12e;" horiz-adv-x="513" 
d="M193 -216q-17 0 -29.5 11t-12.5 29q0 8 3.5 18.5t12.5 21.5l117 136h-200q-26 0 -26 27v629q0 26 26 26h345q26 0 26 -26v-629q0 -27 -26 -27h-67l-80 -90q-3 -3 -3 -7q0 -8 10 -8h53q20 0 20 -22v-70q0 -19 -16 -19h-153z" />
    <glyph glyph-name="iogonek" unicode="&#x12f;" horiz-adv-x="513" 
d="M58 0zM193 -216q-17 0 -29.5 11t-12.5 29q0 8 3.5 18.5t12.5 21.5l117 136h-200q-26 0 -26 27v629q0 26 26 26h345q26 0 26 -26v-629q0 -27 -26 -27h-67l-80 -90q-3 -3 -3 -7q0 -8 10 -8h53q20 0 20 -22v-70q0 -19 -16 -19h-153z" />
    <glyph glyph-name="Idotaccent" unicode="&#x130;" horiz-adv-x="513" 
d="M58 0zM84 0q-26 0 -26 27v629q0 26 26 26h345q26 0 26 -26v-629q0 -27 -26 -27h-345zM207 742q-20 0 -20 19v131q0 18 20 18h98q21 0 21 -18v-131q0 -19 -21 -19h-98z" />
    <glyph glyph-name="dotlessi" unicode="&#x131;" horiz-adv-x="513" 
d="M58 0zM84 0q-26 0 -26 27v629q0 26 26 26h345q26 0 26 -26v-629q0 -27 -26 -27h-345z" />
    <glyph glyph-name="IJ" unicode="&#x132;" horiz-adv-x="1460" 
d="M58 0zM84 0q-26 0 -26 27v629q0 26 26 26h345q26 0 26 -26v-629q0 -27 -26 -27h-345zM550 0q-26 0 -26 27v64q0 27 26 27h311q66 0 92 34.5t26 112.5v391q0 26 27 26h383q26 0 26 -26v-374q0 -62 -18 -113.5t-54 -89t-91 -58.5t-130 -21h-572z" />
    <glyph glyph-name="ij" unicode="&#x133;" horiz-adv-x="1460" 
d="M58 0zM84 0q-26 0 -26 27v629q0 26 26 26h345q26 0 26 -26v-629q0 -27 -26 -27h-345zM550 0q-26 0 -26 27v64q0 27 26 27h311q66 0 92 34.5t26 112.5v391q0 26 27 26h383q26 0 26 -26v-374q0 -62 -18 -113.5t-54 -89t-91 -58.5t-130 -21h-572z" />
    <glyph glyph-name="Kcommaaccent" unicode="&#x136;" horiz-adv-x="1302" 
d="M53 0zM926 0q-21 0 -36 6.5t-31 20.5l-342 297q-11 9 -15 19.5t-4 28.5v29q0 17 4 25t16 15l400 215q20 11 41 18.5t45 7.5h202q11 0 16 -5t5 -12q0 -11 -12 -17l-397 -213l464 -390q14 -11 14 -25q0 -8 -7 -14t-22 -6h-341zM79 0q-26 0 -26 27v629q0 26 26 26h344
q27 0 27 -26v-629q0 -27 -27 -27h-344zM631 -216q-17 0 -20 19l-12 111q-1 6 -1 12.5v11.5v11q0 15 18 15h104q18 0 18 -15v-11v-11.5t-1 -12.5l-12 -111q-2 -19 -19 -19h-75z" />
    <glyph glyph-name="kcommaaccent" unicode="&#x137;" horiz-adv-x="1302" 
d="M53 0zM926 0q-21 0 -36 6.5t-31 20.5l-342 297q-11 9 -15 19.5t-4 28.5v29q0 17 4 25t16 15l400 215q20 11 41 18.5t45 7.5h202q11 0 16 -5t5 -12q0 -11 -12 -17l-397 -213l464 -390q14 -11 14 -25q0 -8 -7 -14t-22 -6h-341zM79 0q-26 0 -26 27v629q0 26 26 26h344
q27 0 27 -26v-629q0 -27 -27 -27h-344zM631 -216q-17 0 -20 19l-12 111q-1 6 -1 12.5v11.5v11q0 15 18 15h104q18 0 18 -15v-11v-11.5t-1 -12.5l-12 -111q-2 -19 -19 -19h-75z" />
    <glyph glyph-name="Lacute" unicode="&#x139;" horiz-adv-x="1026" 
d="M45 0zM338 0q-75 0 -130 21t-91 58.5t-54 89t-18 113.5v374q0 26 26 26h383q27 0 27 -26v-391q0 -78 26 -112.5t92 -34.5h393q26 0 26 -27v-64q0 -27 -26 -27h-654zM96 714q-10 -5 -23 -5q-17 0 -17 20v45q0 14 18 22l278 132q9 5 16.5 6t14.5 1q17 0 17 -20v-53
q0 -16 -15 -19z" />
    <glyph glyph-name="lacute" unicode="&#x13a;" horiz-adv-x="1026" 
d="M45 0zM338 0q-75 0 -130 21t-91 58.5t-54 89t-18 113.5v374q0 26 26 26h383q27 0 27 -26v-391q0 -78 26 -112.5t92 -34.5h393q26 0 26 -27v-64q0 -27 -26 -27h-654zM96 714q-10 -5 -23 -5q-17 0 -17 20v45q0 14 18 22l278 132q9 5 16.5 6t14.5 1q17 0 17 -20v-53
q0 -16 -15 -19z" />
    <glyph glyph-name="Lcommaaccent" unicode="&#x13b;" horiz-adv-x="1026" 
d="M45 0zM338 0q-75 0 -130 21t-91 58.5t-54 89t-18 113.5v374q0 26 26 26h383q27 0 27 -26v-391q0 -78 26 -112.5t92 -34.5h393q26 0 26 -27v-64q0 -27 -26 -27h-654zM538 -216q-17 0 -20 19l-12 111q-1 6 -1 12.5v11.5v11q0 15 18 15h104q18 0 18 -15v-11v-11.5t-1 -12.5
l-12 -111q-2 -19 -19 -19h-75z" />
    <glyph glyph-name="lcommaaccent" unicode="&#x13c;" horiz-adv-x="1026" 
d="M45 0zM338 0q-75 0 -130 21t-91 58.5t-54 89t-18 113.5v374q0 26 26 26h383q27 0 27 -26v-391q0 -78 26 -112.5t92 -34.5h393q26 0 26 -27v-64q0 -27 -26 -27h-654zM538 -216q-17 0 -20 19l-12 111q-1 6 -1 12.5v11.5v11q0 15 18 15h104q18 0 18 -15v-11v-11.5t-1 -12.5
l-12 -111q-2 -19 -19 -19h-75z" />
    <glyph glyph-name="Lcaron" unicode="&#x13d;" horiz-adv-x="1026" 
d="M45 0zM338 0q-75 0 -130 21t-91 58.5t-54 89t-18 113.5v374q0 26 26 26h383q27 0 27 -26v-391q0 -78 26 -112.5t92 -34.5h393q26 0 26 -27v-64q0 -27 -26 -27h-654zM680 408q-44 0 -44 45v238q0 45 44 45h160q44 0 44 -45v-27q0 -21 -3.5 -35t-14.5 -34l-76 -142
q-24 -45 -69 -45h-41z" />
    <glyph glyph-name="lcaron" unicode="&#x13e;" horiz-adv-x="1026" 
d="M45 0zM338 0q-75 0 -130 21t-91 58.5t-54 89t-18 113.5v374q0 26 26 26h383q27 0 27 -26v-391q0 -78 26 -112.5t92 -34.5h393q26 0 26 -27v-64q0 -27 -26 -27h-654zM680 408q-44 0 -44 45v238q0 45 44 45h160q44 0 44 -45v-27q0 -21 -3.5 -35t-14.5 -34l-76 -142
q-24 -45 -69 -45h-41z" />
    <glyph glyph-name="Ldot" unicode="&#x13f;" horiz-adv-x="1026" 
d="M45 0zM338 0q-75 0 -130 21t-91 58.5t-54 89t-18 113.5v374q0 26 26 26h383q27 0 27 -26v-391q0 -78 26 -112.5t92 -34.5h393q26 0 26 -27v-64q0 -27 -26 -27h-654zM216 742q-20 0 -20 19v131q0 18 20 18h98q21 0 21 -18v-131q0 -19 -21 -19h-98z" />
    <glyph glyph-name="ldot" unicode="&#x140;" horiz-adv-x="1026" 
d="M45 0zM338 0q-75 0 -130 21t-91 58.5t-54 89t-18 113.5v374q0 26 26 26h383q27 0 27 -26v-391q0 -78 26 -112.5t92 -34.5h393q26 0 26 -27v-64q0 -27 -26 -27h-654zM216 742q-20 0 -20 19v131q0 18 20 18h98q21 0 21 -18v-131q0 -19 -21 -19h-98z" />
    <glyph glyph-name="Lslash" unicode="&#x141;" horiz-adv-x="1027" 
d="M338 0q-75 0 -130 21t-91 58.5t-54 89t-18 113.5v374q0 26 26 26h383q27 0 27 -26v-226h183q26 0 26 -18v-81q0 -18 -26 -18h-183v-48q0 -78 26 -112.5t92 -34.5h393q26 0 26 -27v-64q0 -27 -26 -27h-654z" />
    <glyph glyph-name="lslash" unicode="&#x142;" horiz-adv-x="1027" 
d="M45 0zM338 0q-75 0 -130 21t-91 58.5t-54 89t-18 113.5v374q0 26 26 26h383q27 0 27 -26v-226h183q26 0 26 -18v-81q0 -18 -26 -18h-183v-48q0 -78 26 -112.5t92 -34.5h393q26 0 26 -27v-64q0 -27 -26 -27h-654z" />
    <glyph glyph-name="Nacute" unicode="&#x143;" horiz-adv-x="1282" 
d="M49 0zM1137 0q-30 0 -52.5 4t-55.5 16l-797 298v-291q0 -27 -27 -27h-129q-27 0 -27 27v629q0 26 27 26h123q16 0 29 -0.5t25 -2.5t24.5 -6t28.5 -10l744 -287v280q0 26 27 26h129q27 0 27 -26v-629q0 -27 -27 -27h-69zM579 714q-10 -5 -23 -5q-17 0 -17 20v45
q0 14 18 22l278 132q9 5 16.5 6t14.5 1q17 0 17 -20v-53q0 -16 -15 -19z" />
    <glyph glyph-name="nacute" unicode="&#x144;" horiz-adv-x="1282" 
d="M49 0zM1137 0q-30 0 -52.5 4t-55.5 16l-797 298v-291q0 -27 -27 -27h-129q-27 0 -27 27v629q0 26 27 26h123q16 0 29 -0.5t25 -2.5t24.5 -6t28.5 -10l744 -287v280q0 26 27 26h129q27 0 27 -26v-629q0 -27 -27 -27h-69zM579 714q-10 -5 -23 -5q-17 0 -17 20v45
q0 14 18 22l278 132q9 5 16.5 6t14.5 1q17 0 17 -20v-53q0 -16 -15 -19z" />
    <glyph glyph-name="Ncommaaccent" unicode="&#x145;" horiz-adv-x="1282" 
d="M49 0zM1137 0q-30 0 -52.5 4t-55.5 16l-797 298v-291q0 -27 -27 -27h-129q-27 0 -27 27v629q0 26 27 26h123q16 0 29 -0.5t25 -2.5t24.5 -6t28.5 -10l744 -287v280q0 26 27 26h129q27 0 27 -26v-629q0 -27 -27 -27h-69zM586 -216q-17 0 -20 19l-12 111q-1 6 -1 12.5v11.5
v11q0 15 18 15h104q18 0 18 -15v-11v-11.5t-1 -12.5l-12 -111q-2 -19 -19 -19h-75z" />
    <glyph glyph-name="ncommaaccent" unicode="&#x146;" horiz-adv-x="1282" 
d="M49 0zM1137 0q-30 0 -52.5 4t-55.5 16l-797 298v-291q0 -27 -27 -27h-129q-27 0 -27 27v629q0 26 27 26h123q16 0 29 -0.5t25 -2.5t24.5 -6t28.5 -10l744 -287v280q0 26 27 26h129q27 0 27 -26v-629q0 -27 -27 -27h-69zM586 -216q-17 0 -20 19l-12 111q-1 6 -1 12.5v11.5
v11q0 15 18 15h104q18 0 18 -15v-11v-11.5t-1 -12.5l-12 -111q-2 -19 -19 -19h-75z" />
    <glyph glyph-name="Ncaron" unicode="&#x147;" horiz-adv-x="1282" 
d="M49 0zM1137 0q-30 0 -52.5 4t-55.5 16l-797 298v-291q0 -27 -27 -27h-129q-27 0 -27 27v629q0 26 27 26h123q16 0 29 -0.5t25 -2.5t24.5 -6t28.5 -10l744 -287v280q0 26 27 26h129q27 0 27 -26v-629q0 -27 -27 -27h-69zM693 722q-8 -5 -16 -5q-9 0 -16 5l-192 110
q-12 7 -12 20v58q0 20 16 20q13 0 27 -7l177 -98l177 98q13 7 27 7q15 0 15 -20v-58q0 -14 -11 -20z" />
    <glyph glyph-name="ncaron" unicode="&#x148;" horiz-adv-x="1282" 
d="M49 0zM1137 0q-30 0 -52.5 4t-55.5 16l-797 298v-291q0 -27 -27 -27h-129q-27 0 -27 27v629q0 26 27 26h123q16 0 29 -0.5t25 -2.5t24.5 -6t28.5 -10l744 -287v280q0 26 27 26h129q27 0 27 -26v-629q0 -27 -27 -27h-69zM693 722q-8 -5 -16 -5q-9 0 -16 5l-192 110
q-12 7 -12 20v58q0 20 16 20q13 0 27 -7l177 -98l177 98q13 7 27 7q15 0 15 -20v-58q0 -14 -11 -20z" />
    <glyph glyph-name="Eng" unicode="&#x14a;" horiz-adv-x="1282" 
d="M626 -216q-26 0 -26 27v64q0 27 26 27h307q57 0 83.5 26.5t32.5 83.5l-817 306v-291q0 -27 -27 -27h-129q-27 0 -27 27v629q0 26 27 26h123q16 0 29 -0.5t25 -2.5t24.5 -6t28.5 -10l744 -287v280q0 26 27 26h129q27 0 27 -26v-629q0 -54 -22 -98.5t-61 -76.5t-93 -50
t-117 -18h-314z" />
    <glyph glyph-name="eng" unicode="&#x14b;" horiz-adv-x="1282" 
d="M49 0zM626 -216q-26 0 -26 27v64q0 27 26 27h307q57 0 83.5 26.5t32.5 83.5l-817 306v-291q0 -27 -27 -27h-129q-27 0 -27 27v629q0 26 27 26h123q16 0 29 -0.5t25 -2.5t24.5 -6t28.5 -10l744 -287v280q0 26 27 26h129q27 0 27 -26v-629q0 -54 -22 -98.5t-61 -76.5
t-93 -50t-117 -18h-314z" />
    <glyph glyph-name="Omacron" unicode="&#x14c;" horiz-adv-x="1220" 
d="M36 0zM365 0q-73 0 -133.5 26t-104 72t-67.5 108.5t-24 134.5q0 74 23.5 136.5t66.5 108t104 71t135 25.5h490q75 0 135.5 -26t104 -71.5t67 -108t23.5 -135.5q0 -72 -24 -134.5t-67.5 -108t-104 -72t-134.5 -26.5h-490zM786 409q0 46 -6 76t-20 48t-36.5 25t-55.5 7
h-136q-30 0 -50.5 -7.5t-34 -25.5t-19.5 -48t-6 -75v-109q0 -101 26.5 -141.5t83.5 -40.5h136q31 0 53 9.5t36.5 30.5t21.5 56t7 86v109zM442 763q-20 0 -20 18v56q0 19 20 19h328q19 0 19 -19v-56q0 -18 -19 -18h-328z" />
    <glyph glyph-name="omacron" unicode="&#x14d;" horiz-adv-x="1220" 
d="M36 0zM365 0q-73 0 -133.5 26t-104 72t-67.5 108.5t-24 134.5q0 74 23.5 136.5t66.5 108t104 71t135 25.5h490q75 0 135.5 -26t104 -71.5t67 -108t23.5 -135.5q0 -72 -24 -134.5t-67.5 -108t-104 -72t-134.5 -26.5h-490zM786 409q0 46 -6 76t-20 48t-36.5 25t-55.5 7
h-136q-30 0 -50.5 -7.5t-34 -25.5t-19.5 -48t-6 -75v-109q0 -101 26.5 -141.5t83.5 -40.5h136q31 0 53 9.5t36.5 30.5t21.5 56t7 86v109zM442 763q-20 0 -20 18v56q0 19 20 19h328q19 0 19 -19v-56q0 -18 -19 -18h-328z" />
    <glyph glyph-name="Obreve" unicode="&#x14e;" horiz-adv-x="1220" 
d="M36 0zM365 0q-73 0 -133.5 26t-104 72t-67.5 108.5t-24 134.5q0 74 23.5 136.5t66.5 108t104 71t135 25.5h490q75 0 135.5 -26t104 -71.5t67 -108t23.5 -135.5q0 -72 -24 -134.5t-67.5 -108t-104 -72t-134.5 -26.5h-490zM786 409q0 46 -6 76t-20 48t-36.5 25t-55.5 7
h-136q-30 0 -50.5 -7.5t-34 -25.5t-19.5 -48t-6 -75v-109q0 -101 26.5 -141.5t83.5 -40.5h136q31 0 53 9.5t36.5 30.5t21.5 56t7 86v109zM686 749q-9 -8 -32 -8h-105q-24 0 -32 8l-97 87q-9 6 -9 20v54q0 24 16 24q8 0 20 -8l101 -83q2 -4 8 -5t14 -1h62q18 0 24 6l99 83
q12 8 20 8q16 0 16 -24v-54q0 -14 -9 -20z" />
    <glyph glyph-name="obreve" unicode="&#x14f;" horiz-adv-x="1220" 
d="M36 0zM365 0q-73 0 -133.5 26t-104 72t-67.5 108.5t-24 134.5q0 74 23.5 136.5t66.5 108t104 71t135 25.5h490q75 0 135.5 -26t104 -71.5t67 -108t23.5 -135.5q0 -72 -24 -134.5t-67.5 -108t-104 -72t-134.5 -26.5h-490zM786 409q0 46 -6 76t-20 48t-36.5 25t-55.5 7
h-136q-30 0 -50.5 -7.5t-34 -25.5t-19.5 -48t-6 -75v-109q0 -101 26.5 -141.5t83.5 -40.5h136q31 0 53 9.5t36.5 30.5t21.5 56t7 86v109zM686 749q-9 -8 -32 -8h-105q-24 0 -32 8l-97 87q-9 6 -9 20v54q0 24 16 24q8 0 20 -8l101 -83q2 -4 8 -5t14 -1h62q18 0 24 6l99 83
q12 8 20 8q16 0 16 -24v-54q0 -14 -9 -20z" />
    <glyph glyph-name="Ohungarumlaut" unicode="&#x150;" horiz-adv-x="1220" 
d="M36 0zM365 0q-73 0 -133.5 26t-104 72t-67.5 108.5t-24 134.5q0 74 23.5 136.5t66.5 108t104 71t135 25.5h490q75 0 135.5 -26t104 -71.5t67 -108t23.5 -135.5q0 -72 -24 -134.5t-67.5 -108t-104 -72t-134.5 -26.5h-490zM786 409q0 46 -6 76t-20 48t-36.5 25t-55.5 7
h-136q-30 0 -50.5 -7.5t-34 -25.5t-19.5 -48t-6 -75v-109q0 -101 26.5 -141.5t83.5 -40.5h136q31 0 53 9.5t36.5 30.5t21.5 56t7 86v109zM478 707q-14 0 -19 5t-5 10t0.5 7.5t1.5 6.5l58 183q5 16 11 22.5t21 6.5h32q21 0 21 -22q0 -8 -3 -17l-66 -187q-5 -15 -19 -15h-33z
M682 707q-14 0 -19 5t-5 10t0.5 7.5t1.5 6.5l58 183q5 16 11 22.5t21 6.5h32q21 0 21 -22q0 -8 -3 -17l-66 -187q-5 -15 -19 -15h-33z" />
    <glyph glyph-name="ohungarumlaut" unicode="&#x151;" horiz-adv-x="1220" 
d="M36 0zM365 0q-73 0 -133.5 26t-104 72t-67.5 108.5t-24 134.5q0 74 23.5 136.5t66.5 108t104 71t135 25.5h490q75 0 135.5 -26t104 -71.5t67 -108t23.5 -135.5q0 -72 -24 -134.5t-67.5 -108t-104 -72t-134.5 -26.5h-490zM786 409q0 46 -6 76t-20 48t-36.5 25t-55.5 7
h-136q-30 0 -50.5 -7.5t-34 -25.5t-19.5 -48t-6 -75v-109q0 -101 26.5 -141.5t83.5 -40.5h136q31 0 53 9.5t36.5 30.5t21.5 56t7 86v109zM478 707q-14 0 -19 5t-5 10t0.5 7.5t1.5 6.5l58 183q5 16 11 22.5t21 6.5h32q21 0 21 -22q0 -8 -3 -17l-66 -187q-5 -15 -19 -15h-33z
M682 707q-14 0 -19 5t-5 10t0.5 7.5t1.5 6.5l58 183q5 16 11 22.5t21 6.5h32q21 0 21 -22q0 -8 -3 -17l-66 -187q-5 -15 -19 -15h-33z" />
    <glyph glyph-name="OE" unicode="&#x152;" horiz-adv-x="1782" 
d="M365 0q-73 0 -133.5 26.5t-104 72t-67.5 108t-24 134.5q0 74 23.5 136.5t66.5 108t104 71t135 25.5h1348q27 0 27 -26v-64q0 -27 -27 -27h-557v-447h561q26 0 26 -27v-64q0 -27 -26 -27h-1352zM759 565h-227q-30 0 -50.5 -7.5t-34 -25.5t-19.5 -48t-6 -75v-109
q0 -101 27 -141.5t83 -40.5h227v447zM1255 313q-27 0 -27 26v65q0 26 27 26h451q27 0 27 -18v-81q0 -18 -27 -18h-451z" />
    <glyph glyph-name="oe" unicode="&#x153;" horiz-adv-x="1782" 
d="M36 0zM365 0q-73 0 -133.5 26.5t-104 72t-67.5 108t-24 134.5q0 74 23.5 136.5t66.5 108t104 71t135 25.5h1348q27 0 27 -26v-64q0 -27 -27 -27h-557v-447h561q26 0 26 -27v-64q0 -27 -26 -27h-1352zM759 565h-227q-30 0 -50.5 -7.5t-34 -25.5t-19.5 -48t-6 -75v-109
q0 -101 27 -141.5t83 -40.5h227v447zM1255 313q-27 0 -27 26v65q0 26 27 26h451q27 0 27 -18v-81q0 -18 -27 -18h-451z" />
    <glyph glyph-name="Racute" unicode="&#x154;" horiz-adv-x="1263" 
d="M53 0zM894 0q-40 0 -66 27l-301 309q-8 8 -12.5 15.5t-4.5 21.5v31q0 26 26 26h137q48 0 71.5 18t23.5 50q0 67 -95 67h-223v-538q0 -27 -27 -27h-343q-27 0 -27 27v629q0 26 27 26h874q45 0 84 -12.5t67.5 -35.5t44.5 -55t16 -71q0 -42 -15.5 -75.5t-42 -57.5t-62 -39
t-75.5 -21l276 -283q7 -6 7 -16q0 -6 -4.5 -11t-13.5 -5h-342zM464 714q-10 -5 -23 -5q-17 0 -17 20v45q0 14 18 22l278 132q9 5 16.5 6t14.5 1q17 0 17 -20v-53q0 -16 -15 -19z" />
    <glyph glyph-name="racute" unicode="&#x155;" horiz-adv-x="1263" 
d="M53 0zM894 0q-40 0 -66 27l-301 309q-8 8 -12.5 15.5t-4.5 21.5v31q0 26 26 26h137q48 0 71.5 18t23.5 50q0 67 -95 67h-223v-538q0 -27 -27 -27h-343q-27 0 -27 27v629q0 26 27 26h874q45 0 84 -12.5t67.5 -35.5t44.5 -55t16 -71q0 -42 -15.5 -75.5t-42 -57.5t-62 -39
t-75.5 -21l276 -283q7 -6 7 -16q0 -6 -4.5 -11t-13.5 -5h-342zM464 714q-10 -5 -23 -5q-17 0 -17 20v45q0 14 18 22l278 132q9 5 16.5 6t14.5 1q17 0 17 -20v-53q0 -16 -15 -19z" />
    <glyph glyph-name="Rcommaaccent" unicode="&#x156;" horiz-adv-x="1263" 
d="M53 0zM894 0q-40 0 -66 27l-301 309q-8 8 -12.5 15.5t-4.5 21.5v31q0 26 26 26h137q48 0 71.5 18t23.5 50q0 67 -95 67h-223v-538q0 -27 -27 -27h-343q-27 0 -27 27v629q0 26 27 26h874q45 0 84 -12.5t67.5 -35.5t44.5 -55t16 -71q0 -42 -15.5 -75.5t-42 -57.5t-62 -39
t-75.5 -21l276 -283q7 -6 7 -16q0 -6 -4.5 -11t-13.5 -5h-342zM576 -216q-17 0 -20 19l-12 111q-1 6 -1 12.5v11.5v11q0 15 18 15h104q18 0 18 -15v-11v-11.5t-1 -12.5l-12 -111q-2 -19 -19 -19h-75z" />
    <glyph glyph-name="rcommaaccent" unicode="&#x157;" horiz-adv-x="1263" 
d="M53 0zM894 0q-40 0 -66 27l-301 309q-8 8 -12.5 15.5t-4.5 21.5v31q0 26 26 26h137q48 0 71.5 18t23.5 50q0 67 -95 67h-223v-538q0 -27 -27 -27h-343q-27 0 -27 27v629q0 26 27 26h874q45 0 84 -12.5t67.5 -35.5t44.5 -55t16 -71q0 -42 -15.5 -75.5t-42 -57.5t-62 -39
t-75.5 -21l276 -283q7 -6 7 -16q0 -6 -4.5 -11t-13.5 -5h-342zM576 -216q-17 0 -20 19l-12 111q-1 6 -1 12.5v11.5v11q0 15 18 15h104q18 0 18 -15v-11v-11.5t-1 -12.5l-12 -111q-2 -19 -19 -19h-75z" />
    <glyph glyph-name="Rcaron" unicode="&#x158;" horiz-adv-x="1263" 
d="M53 0zM894 0q-40 0 -66 27l-301 309q-8 8 -12.5 15.5t-4.5 21.5v31q0 26 26 26h137q48 0 71.5 18t23.5 50q0 67 -95 67h-223v-538q0 -27 -27 -27h-343q-27 0 -27 27v629q0 26 27 26h874q45 0 84 -12.5t67.5 -35.5t44.5 -55t16 -71q0 -42 -15.5 -75.5t-42 -57.5t-62 -39
t-75.5 -21l276 -283q7 -6 7 -16q0 -6 -4.5 -11t-13.5 -5h-342zM603 722q-8 -5 -16 -5q-9 0 -16 5l-192 110q-12 7 -12 20v58q0 20 16 20q13 0 27 -7l177 -98l177 98q13 7 27 7q15 0 15 -20v-58q0 -14 -11 -20z" />
    <glyph glyph-name="rcaron" unicode="&#x159;" horiz-adv-x="1263" 
d="M53 0zM894 0q-40 0 -66 27l-301 309q-8 8 -12.5 15.5t-4.5 21.5v31q0 26 26 26h137q48 0 71.5 18t23.5 50q0 67 -95 67h-223v-538q0 -27 -27 -27h-343q-27 0 -27 27v629q0 26 27 26h874q45 0 84 -12.5t67.5 -35.5t44.5 -55t16 -71q0 -42 -15.5 -75.5t-42 -57.5t-62 -39
t-75.5 -21l276 -283q7 -6 7 -16q0 -6 -4.5 -11t-13.5 -5h-342zM603 722q-8 -5 -16 -5q-9 0 -16 5l-192 110q-12 7 -12 20v58q0 20 16 20q13 0 27 -7l177 -98l177 98q13 7 27 7q15 0 15 -20v-58q0 -14 -11 -20z" />
    <glyph glyph-name="Sacute" unicode="&#x15a;" horiz-adv-x="1038" 
d="M29 0zM61 0q-26 0 -26 27v64q0 27 26 27h561l-471 221q-38 18 -62 37.5t-37.5 41t-18 45.5t-4.5 51q0 33 12 63.5t36.5 54t61 37t84.5 13.5h736q27 0 27 -26v-64q0 -27 -27 -27h-542l470 -221q39 -18 62.5 -37.5t37 -41t18 -46t4.5 -51.5q0 -33 -12 -63.5t-36.5 -54
t-60.5 -37t-84 -13.5h-755zM386 714q-10 -5 -23 -5q-17 0 -17 20v45q0 14 18 22l278 132q9 5 16.5 6t14.5 1q17 0 17 -20v-53q0 -16 -15 -19z" />
    <glyph glyph-name="sacute" unicode="&#x15b;" horiz-adv-x="1038" 
d="M29 0zM61 0q-26 0 -26 27v64q0 27 26 27h561l-471 221q-38 18 -62 37.5t-37.5 41t-18 45.5t-4.5 51q0 33 12 63.5t36.5 54t61 37t84.5 13.5h736q27 0 27 -26v-64q0 -27 -27 -27h-542l470 -221q39 -18 62.5 -37.5t37 -41t18 -46t4.5 -51.5q0 -33 -12 -63.5t-36.5 -54
t-60.5 -37t-84 -13.5h-755zM386 714q-10 -5 -23 -5q-17 0 -17 20v45q0 14 18 22l278 132q9 5 16.5 6t14.5 1q17 0 17 -20v-53q0 -16 -15 -19z" />
    <glyph glyph-name="Scedilla" unicode="&#x15e;" horiz-adv-x="1038" 
d="M29 0zM61 0q-26 0 -26 27v64q0 27 26 27h561l-471 221q-38 18 -62 37.5t-37.5 41t-18 45.5t-4.5 51q0 33 12 63.5t36.5 54t61 37t84.5 13.5h736q27 0 27 -26v-64q0 -27 -27 -27h-542l470 -221q39 -18 62.5 -37.5t37 -41t18 -46t4.5 -51.5q0 -33 -12 -63.5t-36.5 -54
t-60.5 -37t-84 -13.5h-755zM455 -216q-17 0 -20 19l-12 111q-1 6 -1 12.5v11.5v11q0 15 18 15h104q18 0 18 -15v-11v-11.5t-1 -12.5l-12 -111q-2 -19 -19 -19h-75z" />
    <glyph glyph-name="scedilla" unicode="&#x15f;" horiz-adv-x="1038" 
d="M29 0zM61 0q-26 0 -26 27v64q0 27 26 27h561l-471 221q-38 18 -62 37.5t-37.5 41t-18 45.5t-4.5 51q0 33 12 63.5t36.5 54t61 37t84.5 13.5h736q27 0 27 -26v-64q0 -27 -27 -27h-542l470 -221q39 -18 62.5 -37.5t37 -41t18 -46t4.5 -51.5q0 -33 -12 -63.5t-36.5 -54
t-60.5 -37t-84 -13.5h-755zM455 -216q-17 0 -20 19l-12 111q-1 6 -1 12.5v11.5v11q0 15 18 15h104q18 0 18 -15v-11v-11.5t-1 -12.5l-12 -111q-2 -19 -19 -19h-75z" />
    <glyph glyph-name="Scaron" unicode="&#x160;" horiz-adv-x="1038" 
d="M29 0zM61 0q-26 0 -26 27v64q0 27 26 27h561l-471 221q-38 18 -62 37.5t-37.5 41t-18 45.5t-4.5 51q0 33 12 63.5t36.5 54t61 37t84.5 13.5h736q27 0 27 -26v-64q0 -27 -27 -27h-542l470 -221q39 -18 62.5 -37.5t37 -41t18 -46t4.5 -51.5q0 -33 -12 -63.5t-36.5 -54
t-60.5 -37t-84 -13.5h-755zM544 722q-8 -5 -16 -5q-9 0 -16 5l-192 110q-12 7 -12 20v58q0 20 16 20q13 0 27 -7l177 -98l177 98q13 7 27 7q15 0 15 -20v-58q0 -14 -11 -20z" />
    <glyph glyph-name="scaron" unicode="&#x161;" horiz-adv-x="1038" 
d="M29 0zM61 0q-26 0 -26 27v64q0 27 26 27h561l-471 221q-38 18 -62 37.5t-37.5 41t-18 45.5t-4.5 51q0 33 12 63.5t36.5 54t61 37t84.5 13.5h736q27 0 27 -26v-64q0 -27 -27 -27h-542l470 -221q39 -18 62.5 -37.5t37 -41t18 -46t4.5 -51.5q0 -33 -12 -63.5t-36.5 -54
t-60.5 -37t-84 -13.5h-755zM544 722q-8 -5 -16 -5q-9 0 -16 5l-192 110q-12 7 -12 20v58q0 20 16 20q13 0 27 -7l177 -98l177 98q13 7 27 7q15 0 15 -20v-58q0 -14 -11 -20z" />
    <glyph glyph-name="Tcommaaccent" unicode="&#x162;" horiz-adv-x="1036" 
d="M9 0zM339 0q-19 0 -19 13v552h-292q-19 0 -19 11v93q0 13 19 13h981q19 0 19 -13v-93q0 -11 -19 -11h-293v-552q0 -13 -18 -13h-359zM481 -216q-17 0 -20 19l-12 111q-1 6 -1 12.5v11.5v11q0 15 18 15h104q18 0 18 -15v-11v-11.5t-1 -12.5l-12 -111q-2 -19 -19 -19h-75z
" />
    <glyph glyph-name="tcommaaccent" unicode="&#x163;" horiz-adv-x="1036" 
d="M9 0zM339 0q-19 0 -19 13v552h-292q-19 0 -19 11v93q0 13 19 13h981q19 0 19 -13v-93q0 -11 -19 -11h-293v-552q0 -13 -18 -13h-359zM481 -216q-17 0 -20 19l-12 111q-1 6 -1 12.5v11.5v11q0 15 18 15h104q18 0 18 -15v-11v-11.5t-1 -12.5l-12 -111q-2 -19 -19 -19h-75z
" />
    <glyph glyph-name="Tcaron" unicode="&#x164;" horiz-adv-x="1036" 
d="M9 0zM339 0q-19 0 -19 13v552h-292q-19 0 -19 11v93q0 13 19 13h981q19 0 19 -13v-93q0 -11 -19 -11h-293v-552q0 -13 -18 -13h-359zM534 722q-8 -5 -16 -5q-9 0 -16 5l-192 110q-12 7 -12 20v58q0 20 16 20q13 0 27 -7l177 -98l177 98q13 7 27 7q15 0 15 -20v-58
q0 -14 -11 -20z" />
    <glyph glyph-name="tcaron" unicode="&#x165;" horiz-adv-x="1036" 
d="M9 0zM339 0q-19 0 -19 13v552h-292q-19 0 -19 11v93q0 13 19 13h981q19 0 19 -13v-93q0 -11 -19 -11h-293v-552q0 -13 -18 -13h-359zM534 722q-8 -5 -16 -5q-9 0 -16 5l-192 110q-12 7 -12 20v58q0 20 16 20q13 0 27 -7l177 -98l177 98q13 7 27 7q15 0 15 -20v-58
q0 -14 -11 -20z" />
    <glyph glyph-name="Tbar" unicode="&#x166;" horiz-adv-x="1036" 
d="M716 277v-264q0 -13 -18 -13h-359q-19 0 -19 13v264h-131q-27 0 -27 27v64q0 27 27 27h131v170h-292q-19 0 -19 11v93q0 13 19 13h981q19 0 19 -13v-93q0 -11 -19 -11h-293v-170h131q27 0 27 -27v-64q0 -27 -27 -27h-131z" />
    <glyph glyph-name="tbar" unicode="&#x167;" horiz-adv-x="1036" 
d="M9 0zM716 277v-264q0 -13 -18 -13h-359q-19 0 -19 13v264h-131q-27 0 -27 27v64q0 27 27 27h131v170h-292q-19 0 -19 11v93q0 13 19 13h981q19 0 19 -13v-93q0 -11 -19 -11h-293v-170h131q27 0 27 -27v-64q0 -27 -27 -27h-131z" />
    <glyph glyph-name="Utilde" unicode="&#x168;" horiz-adv-x="1188" 
d="M45 0zM386 0q-92 0 -157 22t-106 63t-59.5 99t-18.5 130v342q0 26 26 26h374q26 0 26 -26v-342q0 -92 39 -144t124 -52h172q86 0 126.5 52t40.5 144v342q0 26 27 26h120q27 0 27 -26v-342q0 -66 -20.5 -123t-62.5 -99.5t-106.5 -67t-151.5 -24.5h-420zM837 754
q-7 -4 -13.5 -5t-11.5 -1q-11 0 -16 1l-155 46q-5 1 -12 1q-6 0 -12 -3l-98 -44q-5 -2 -9.5 -3.5t-8.5 -1.5q-15 0 -15 15v55q0 20 16 25l98 47q15 5 26 5q10 0 15 -2l155 -44q4 -1 7 -1h5q3 0 6 0.5t6 0.5l99 44q8 5 17 5q15 0 15 -13v-57q0 -18 -16 -24z" />
    <glyph glyph-name="utilde" unicode="&#x169;" horiz-adv-x="1188" 
d="M45 0zM386 0q-92 0 -157 22t-106 63t-59.5 99t-18.5 130v342q0 26 26 26h374q26 0 26 -26v-342q0 -92 39 -144t124 -52h172q86 0 126.5 52t40.5 144v342q0 26 27 26h120q27 0 27 -26v-342q0 -66 -20.5 -123t-62.5 -99.5t-106.5 -67t-151.5 -24.5h-420zM837 754
q-7 -4 -13.5 -5t-11.5 -1q-11 0 -16 1l-155 46q-5 1 -12 1q-6 0 -12 -3l-98 -44q-5 -2 -9.5 -3.5t-8.5 -1.5q-15 0 -15 15v55q0 20 16 25l98 47q15 5 26 5q10 0 15 -2l155 -44q4 -1 7 -1h5q3 0 6 0.5t6 0.5l99 44q8 5 17 5q15 0 15 -13v-57q0 -18 -16 -24z" />
    <glyph glyph-name="Umacron" unicode="&#x16a;" horiz-adv-x="1188" 
d="M45 0zM386 0q-92 0 -157 22t-106 63t-59.5 99t-18.5 130v342q0 26 26 26h374q26 0 26 -26v-342q0 -92 39 -144t124 -52h172q86 0 126.5 52t40.5 144v342q0 26 27 26h120q27 0 27 -26v-342q0 -66 -20.5 -123t-62.5 -99.5t-106.5 -67t-151.5 -24.5h-420zM554 763
q-20 0 -20 18v56q0 19 20 19h328q19 0 19 -19v-56q0 -18 -19 -18h-328z" />
    <glyph glyph-name="umacron" unicode="&#x16b;" horiz-adv-x="1188" 
d="M45 0zM386 0q-92 0 -157 22t-106 63t-59.5 99t-18.5 130v342q0 26 26 26h374q26 0 26 -26v-342q0 -92 39 -144t124 -52h172q86 0 126.5 52t40.5 144v342q0 26 27 26h120q27 0 27 -26v-342q0 -66 -20.5 -123t-62.5 -99.5t-106.5 -67t-151.5 -24.5h-420zM554 763
q-20 0 -20 18v56q0 19 20 19h328q19 0 19 -19v-56q0 -18 -19 -18h-328z" />
    <glyph glyph-name="Ubreve" unicode="&#x16c;" horiz-adv-x="1188" 
d="M45 0zM386 0q-92 0 -157 22t-106 63t-59.5 99t-18.5 130v342q0 26 26 26h374q26 0 26 -26v-342q0 -92 39 -144t124 -52h172q86 0 126.5 52t40.5 144v342q0 26 27 26h120q27 0 27 -26v-342q0 -66 -20.5 -123t-62.5 -99.5t-106.5 -67t-151.5 -24.5h-420zM812 749
q-9 -8 -32 -8h-105q-24 0 -32 8l-97 87q-9 6 -9 20v54q0 24 16 24q8 0 20 -8l101 -83q2 -4 8 -5t14 -1h62q18 0 24 6l99 83q12 8 20 8q16 0 16 -24v-54q0 -14 -9 -20z" />
    <glyph glyph-name="ubreve" unicode="&#x16d;" horiz-adv-x="1188" 
d="M45 0zM386 0q-92 0 -157 22t-106 63t-59.5 99t-18.5 130v342q0 26 26 26h374q26 0 26 -26v-342q0 -92 39 -144t124 -52h172q86 0 126.5 52t40.5 144v342q0 26 27 26h120q27 0 27 -26v-342q0 -66 -20.5 -123t-62.5 -99.5t-106.5 -67t-151.5 -24.5h-420zM812 749
q-9 -8 -32 -8h-105q-24 0 -32 8l-97 87q-9 6 -9 20v54q0 24 16 24q8 0 20 -8l101 -83q2 -4 8 -5t14 -1h62q18 0 24 6l99 83q12 8 20 8q16 0 16 -24v-54q0 -14 -9 -20z" />
    <glyph glyph-name="Uring" unicode="&#x16e;" horiz-adv-x="1188" 
d="M45 0zM386 0q-92 0 -157 22t-106 63t-59.5 99t-18.5 130v342q0 26 26 26h374q26 0 26 -26v-342q0 -92 39 -144t124 -52h172q86 0 126.5 52t40.5 144v342q0 26 27 26h120q27 0 27 -26v-342q0 -66 -20.5 -123t-62.5 -99.5t-106.5 -67t-151.5 -24.5h-420zM620 699
q-39 0 -39 48v189q0 48 39 48h197q38 0 38 -48v-189q0 -48 -38 -48h-197zM786 915q0 8 -6 8h-125q-5 0 -5 -7v-150q0 -6 5 -6h125q6 0 6 8v147z" />
    <glyph glyph-name="uring" unicode="&#x16f;" horiz-adv-x="1188" 
d="M45 0zM386 0q-92 0 -157 22t-106 63t-59.5 99t-18.5 130v342q0 26 26 26h374q26 0 26 -26v-342q0 -92 39 -144t124 -52h172q86 0 126.5 52t40.5 144v342q0 26 27 26h120q27 0 27 -26v-342q0 -66 -20.5 -123t-62.5 -99.5t-106.5 -67t-151.5 -24.5h-420zM620 699
q-39 0 -39 48v189q0 48 39 48h197q38 0 38 -48v-189q0 -48 -38 -48h-197zM786 915q0 8 -6 8h-125q-5 0 -5 -7v-150q0 -6 5 -6h125q6 0 6 8v147z" />
    <glyph glyph-name="Uhungarumlaut" unicode="&#x170;" horiz-adv-x="1188" 
d="M45 0zM386 0q-92 0 -157 22t-106 63t-59.5 99t-18.5 130v342q0 26 26 26h374q26 0 26 -26v-342q0 -92 39 -144t124 -52h172q86 0 126.5 52t40.5 144v342q0 26 27 26h120q27 0 27 -26v-342q0 -66 -20.5 -123t-62.5 -99.5t-106.5 -67t-151.5 -24.5h-420zM603 707
q-14 0 -19 5t-5 10t0.5 7.5t1.5 6.5l58 183q5 16 11 22.5t21 6.5h32q21 0 21 -22q0 -8 -3 -17l-66 -187q-5 -15 -19 -15h-33zM807 707q-14 0 -19 5t-5 10t0.5 7.5t1.5 6.5l58 183q5 16 11 22.5t21 6.5h32q21 0 21 -22q0 -8 -3 -17l-66 -187q-5 -15 -19 -15h-33z" />
    <glyph glyph-name="uhungarumlaut" unicode="&#x171;" horiz-adv-x="1188" 
d="M45 0zM386 0q-92 0 -157 22t-106 63t-59.5 99t-18.5 130v342q0 26 26 26h374q26 0 26 -26v-342q0 -92 39 -144t124 -52h172q86 0 126.5 52t40.5 144v342q0 26 27 26h120q27 0 27 -26v-342q0 -66 -20.5 -123t-62.5 -99.5t-106.5 -67t-151.5 -24.5h-420zM603 707
q-14 0 -19 5t-5 10t0.5 7.5t1.5 6.5l58 183q5 16 11 22.5t21 6.5h32q21 0 21 -22q0 -8 -3 -17l-66 -187q-5 -15 -19 -15h-33zM807 707q-14 0 -19 5t-5 10t0.5 7.5t1.5 6.5l58 183q5 16 11 22.5t21 6.5h32q21 0 21 -22q0 -8 -3 -17l-66 -187q-5 -15 -19 -15h-33z" />
    <glyph glyph-name="Uogonek" unicode="&#x172;" horiz-adv-x="1188" 
d="M582 -216q-17 0 -30 11t-13 29q0 8 3.5 18.5t13.5 21.5l117 136h-287q-92 0 -157 22t-106 63t-59.5 99t-18.5 130v342q0 26 26 26h374q26 0 26 -26v-342q0 -92 39 -144t124 -52h172q86 0 126.5 52t40.5 144v342q0 26 27 26h120q27 0 27 -26v-342q0 -66 -20.5 -123
t-62.5 -99.5t-106.5 -67t-151.5 -24.5h-56l-80 -90q-3 -3 -3 -7q0 -8 10 -8h54q19 0 19 -22v-70q0 -19 -16 -19h-152z" />
    <glyph glyph-name="uogonek" unicode="&#x173;" horiz-adv-x="1188" 
d="M45 0zM582 -216q-17 0 -30 11t-13 29q0 8 3.5 18.5t13.5 21.5l117 136h-287q-92 0 -157 22t-106 63t-59.5 99t-18.5 130v342q0 26 26 26h374q26 0 26 -26v-342q0 -92 39 -144t124 -52h172q86 0 126.5 52t40.5 144v342q0 26 27 26h120q27 0 27 -26v-342q0 -66 -20.5 -123
t-62.5 -99.5t-106.5 -67t-151.5 -24.5h-56l-80 -90q-3 -3 -3 -7q0 -8 10 -8h54q19 0 19 -22v-70q0 -19 -16 -19h-152z" />
    <glyph glyph-name="Wcircumflex" unicode="&#x174;" horiz-adv-x="1957" 
d="M3 0zM1372 0q-14 0 -25.5 4.5t-19.5 15.5l-315 425l-338 -425q-8 -11 -18.5 -15.5t-22.5 -4.5h-58q-28 0 -45 20l-519 628q-8 8 -8 17q0 17 22 17h384q17 0 29.5 -4.5t22.5 -15.5l301 -376l303 376q8 11 21 15.5t30 4.5h63q17 0 30 -4.5t21 -15.5l300 -401l314 401
q9 11 22 15.5t30 4.5h36q21 0 21 -16q0 -8 -6 -17l-476 -629q-8 -11 -19 -15.5t-23 -4.5h-57zM1139 823l-177 -98q-8 -3 -14 -5.5t-13 -2.5q-16 0 -16 21v58q0 12 12 21l192 109q8 4 16 4t16 -4l192 -109q11 -8 11 -21v-58q0 -21 -15 -21q-6 0 -13 2.5t-14 5.5z" />
    <glyph glyph-name="wcircumflex" unicode="&#x175;" horiz-adv-x="1957" 
d="M3 0zM1372 0q-14 0 -25.5 4.5t-19.5 15.5l-315 425l-338 -425q-8 -11 -18.5 -15.5t-22.5 -4.5h-58q-28 0 -45 20l-519 628q-8 8 -8 17q0 17 22 17h384q17 0 29.5 -4.5t22.5 -15.5l301 -376l303 376q8 11 21 15.5t30 4.5h63q17 0 30 -4.5t21 -15.5l300 -401l314 401
q9 11 22 15.5t30 4.5h36q21 0 21 -16q0 -8 -6 -17l-476 -629q-8 -11 -19 -15.5t-23 -4.5h-57zM1139 823l-177 -98q-8 -3 -14 -5.5t-13 -2.5q-16 0 -16 21v58q0 12 12 21l192 109q8 4 16 4t16 -4l192 -109q11 -8 11 -21v-58q0 -21 -15 -21q-6 0 -13 2.5t-14 5.5z" />
    <glyph glyph-name="Ycircumflex" unicode="&#x176;" horiz-adv-x="1139" 
d="M3 0zM397 0q-26 0 -26 27v238l-359 383q-9 9 -9 18q0 8 6 12t14 4h403q27 0 45 -20l266 -292l277 293q11 11 20 15t24 4h58q10 0 14.5 -4.5t4.5 -10.5q0 -8 -5 -13l-362 -383v-244q0 -27 -27 -27h-344zM686 823l-177 -98q-8 -3 -14 -5.5t-13 -2.5q-16 0 -16 21v58
q0 12 12 21l192 109q8 4 16 4t16 -4l192 -109q11 -8 11 -21v-58q0 -21 -15 -21q-6 0 -13 2.5t-14 5.5z" />
    <glyph glyph-name="ycircumflex" unicode="&#x177;" horiz-adv-x="1139" 
d="M3 0zM397 0q-26 0 -26 27v238l-359 383q-9 9 -9 18q0 8 6 12t14 4h403q27 0 45 -20l266 -292l277 293q11 11 20 15t24 4h58q10 0 14.5 -4.5t4.5 -10.5q0 -8 -5 -13l-362 -383v-244q0 -27 -27 -27h-344zM686 823l-177 -98q-8 -3 -14 -5.5t-13 -2.5q-16 0 -16 21v58
q0 12 12 21l192 109q8 4 16 4t16 -4l192 -109q11 -8 11 -21v-58q0 -21 -15 -21q-6 0 -13 2.5t-14 5.5z" />
    <glyph glyph-name="Ydieresis" unicode="&#x178;" horiz-adv-x="1139" 
d="M3 0zM397 0q-26 0 -26 27v238l-359 383q-9 9 -9 18q0 8 6 12t14 4h403q27 0 45 -20l266 -292l277 293q11 11 20 15t24 4h58q10 0 14.5 -4.5t4.5 -10.5q0 -8 -5 -13l-362 -383v-244q0 -27 -27 -27h-344zM512 742q-20 0 -20 19v131q0 18 20 18h98q21 0 21 -18v-131
q0 -19 -21 -19h-98zM754 742q-19 0 -19 19v131q0 18 19 18h98q21 0 21 -18v-131q0 -19 -21 -19h-98z" />
    <glyph glyph-name="Zacute" unicode="&#x179;" horiz-adv-x="1083" 
d="M35 0zM61 0q-26 0 -26 27v64q0 17 4 25.5t18 22.5l490 426h-465q-27 0 -27 27v64q0 26 27 26h934q26 0 26 -26v-64q0 -17 -4 -26t-18 -23l-454 -425h462q27 0 27 -27v-64q0 -27 -27 -27h-967zM454 714q-10 -5 -23 -5q-17 0 -17 20v45q0 14 18 22l278 132q9 5 16.5 6
t14.5 1q17 0 17 -20v-53q0 -16 -15 -19z" />
    <glyph glyph-name="zacute" unicode="&#x17a;" horiz-adv-x="1083" 
d="M35 0zM61 0q-26 0 -26 27v64q0 17 4 25.5t18 22.5l490 426h-465q-27 0 -27 27v64q0 26 27 26h934q26 0 26 -26v-64q0 -17 -4 -26t-18 -23l-454 -425h462q27 0 27 -27v-64q0 -27 -27 -27h-967zM454 714q-10 -5 -23 -5q-17 0 -17 20v45q0 14 18 22l278 132q9 5 16.5 6
t14.5 1q17 0 17 -20v-53q0 -16 -15 -19z" />
    <glyph glyph-name="Zdotaccent" unicode="&#x17b;" horiz-adv-x="1083" 
d="M35 0zM61 0q-26 0 -26 27v64q0 17 4 25.5t18 22.5l490 426h-465q-27 0 -27 27v64q0 26 27 26h934q26 0 26 -26v-64q0 -17 -4 -26t-18 -23l-454 -425h462q27 0 27 -27v-64q0 -27 -27 -27h-967zM501 742q-20 0 -20 19v131q0 18 20 18h98q21 0 21 -18v-131q0 -19 -21 -19
h-98z" />
    <glyph glyph-name="zdotaccent" unicode="&#x17c;" horiz-adv-x="1083" 
d="M35 0zM61 0q-26 0 -26 27v64q0 17 4 25.5t18 22.5l490 426h-465q-27 0 -27 27v64q0 26 27 26h934q26 0 26 -26v-64q0 -17 -4 -26t-18 -23l-454 -425h462q27 0 27 -27v-64q0 -27 -27 -27h-967zM501 742q-20 0 -20 19v131q0 18 20 18h98q21 0 21 -18v-131q0 -19 -21 -19
h-98z" />
    <glyph glyph-name="Zcaron" unicode="&#x17d;" horiz-adv-x="1083" 
d="M35 0zM61 0q-26 0 -26 27v64q0 17 4 25.5t18 22.5l490 426h-465q-27 0 -27 27v64q0 26 27 26h934q26 0 26 -26v-64q0 -17 -4 -26t-18 -23l-454 -425h462q27 0 27 -27v-64q0 -27 -27 -27h-967zM567 722q-8 -5 -16 -5q-9 0 -16 5l-192 110q-12 7 -12 20v58q0 20 16 20
q13 0 27 -7l177 -98l177 98q13 7 27 7q15 0 15 -20v-58q0 -14 -11 -20z" />
    <glyph glyph-name="zcaron" unicode="&#x17e;" horiz-adv-x="1083" 
d="M35 0zM61 0q-26 0 -26 27v64q0 17 4 25.5t18 22.5l490 426h-465q-27 0 -27 27v64q0 26 27 26h934q26 0 26 -26v-64q0 -17 -4 -26t-18 -23l-454 -425h462q27 0 27 -27v-64q0 -27 -27 -27h-967zM567 722q-8 -5 -16 -5q-9 0 -16 5l-192 110q-12 7 -12 20v58q0 20 16 20
q13 0 27 -7l177 -98l177 98q13 7 27 7q15 0 15 -20v-58q0 -14 -11 -20z" />
    <glyph glyph-name="Scommaaccent" unicode="&#x218;" horiz-adv-x="1038" 
d="M29 0zM61 0q-26 0 -26 27v64q0 27 26 27h561l-471 221q-38 18 -62 37.5t-37.5 41t-18 45.5t-4.5 51q0 33 12 63.5t36.5 54t61 37t84.5 13.5h736q27 0 27 -26v-64q0 -27 -27 -27h-542l470 -221q39 -18 62.5 -37.5t37 -41t18 -46t4.5 -51.5q0 -33 -12 -63.5t-36.5 -54
t-60.5 -37t-84 -13.5h-755zM455 -216q-17 0 -20 19l-12 111q-1 6 -1 12.5v11.5v11q0 15 18 15h104q18 0 18 -15v-11v-11.5t-1 -12.5l-12 -111q-2 -19 -19 -19h-75z" />
    <glyph glyph-name="scommaaccent" unicode="&#x219;" horiz-adv-x="1038" 
d="M29 0zM61 0q-26 0 -26 27v64q0 27 26 27h561l-471 221q-38 18 -62 37.5t-37.5 41t-18 45.5t-4.5 51q0 33 12 63.5t36.5 54t61 37t84.5 13.5h736q27 0 27 -26v-64q0 -27 -27 -27h-542l470 -221q39 -18 62.5 -37.5t37 -41t18 -46t4.5 -51.5q0 -33 -12 -63.5t-36.5 -54
t-60.5 -37t-84 -13.5h-755zM455 -216q-17 0 -20 19l-12 111q-1 6 -1 12.5v11.5v11q0 15 18 15h104q18 0 18 -15v-11v-11.5t-1 -12.5l-12 -111q-2 -19 -19 -19h-75z" />
    <glyph glyph-name="uni021A" unicode="&#x21a;" horiz-adv-x="1036" 
d="M9 0zM339 0q-19 0 -19 13v552h-292q-19 0 -19 11v93q0 13 19 13h981q19 0 19 -13v-93q0 -11 -19 -11h-293v-552q0 -13 -18 -13h-359zM481 -216q-17 0 -20 19l-12 111q-1 6 -1 12.5v11.5v11q0 15 18 15h104q18 0 18 -15v-11v-11.5t-1 -12.5l-12 -111q-2 -19 -19 -19h-75z
" />
    <glyph glyph-name="uni021B" unicode="&#x21b;" horiz-adv-x="1036" 
d="M9 0zM339 0q-19 0 -19 13v552h-292q-19 0 -19 11v93q0 13 19 13h981q19 0 19 -13v-93q0 -11 -19 -11h-293v-552q0 -13 -18 -13h-359zM481 -216q-17 0 -20 19l-12 111q-1 6 -1 12.5v11.5v11q0 15 18 15h104q18 0 18 -15v-11v-11.5t-1 -12.5l-12 -111q-2 -19 -19 -19h-75z
" />
    <glyph glyph-name="circumflex" unicode="&#x2c6;" horiz-adv-x="545" 
d="M273 823l-177 -98q-8 -3 -14 -5.5t-13 -2.5q-16 0 -16 21v58q0 12 12 21l192 109q8 4 16 4t16 -4l192 -109q11 -8 11 -21v-58q0 -21 -15 -21q-6 0 -13 2.5t-14 5.5z" />
    <glyph glyph-name="caron" unicode="&#x2c7;" horiz-adv-x="545" 
d="M289 722q-8 -5 -16 -5q-9 0 -16 5l-192 110q-12 7 -12 20v58q0 20 16 20q13 0 27 -7l177 -98l177 98q13 7 27 7q15 0 15 -20v-58q0 -14 -11 -20z" />
    <glyph glyph-name="breve" unicode="&#x2d8;" horiz-adv-x="486" 
d="M328 749q-9 -8 -32 -8h-105q-24 0 -32 8l-97 87q-9 6 -9 20v54q0 24 16 24q8 0 20 -8l101 -83q2 -4 8 -5t14 -1h62q18 0 24 6l99 83q12 8 20 8q16 0 16 -24v-54q0 -14 -9 -20z" />
    <glyph glyph-name="dotaccent" unicode="&#x2d9;" horiz-adv-x="246" 
d="M73 742q-20 0 -20 19v131q0 18 20 18h98q21 0 21 -18v-131q0 -19 -21 -19h-98z" />
    <glyph glyph-name="ring" unicode="&#x2da;" horiz-adv-x="380" 
d="M92 699q-39 0 -39 48v189q0 48 39 48h197q38 0 38 -48v-189q0 -48 -38 -48h-197zM258 915q0 8 -6 8h-125q-5 0 -5 -7v-150q0 -6 5 -6h125q6 0 6 8v147z" />
    <glyph glyph-name="ogonek" unicode="&#x2db;" horiz-adv-x="318" 
d="M96 -216q-17 0 -30 11t-13 29q0 8 4 18.5t13 21.5l117 136h78l-81 -90q-2 -4 -2 -7q0 -8 10 -8h53q20 0 20 -22v-70q0 -19 -16 -19h-153z" />
    <glyph glyph-name="tilde" unicode="&#x2dc;" horiz-adv-x="571" 
d="M404 754q-7 -4 -13.5 -5t-11.5 -1q-11 0 -16 1l-155 46q-5 1 -12 1q-6 0 -12 -3l-98 -44q-5 -2 -9.5 -3.5t-8.5 -1.5q-15 0 -15 15v55q0 20 16 25l98 47q15 5 26 5q10 0 15 -2l155 -44q4 -1 7 -1h5q3 0 6 0.5t6 0.5l99 44q8 5 17 5q15 0 15 -13v-57q0 -18 -16 -24z" />
    <glyph glyph-name="hungarumlaut" unicode="&#x2dd;" horiz-adv-x="460" 
d="M77 707q-14 0 -19 5t-5 10t0.5 7.5t1.5 6.5l58 183q5 16 11 22.5t21 6.5h32q21 0 21 -22q0 -8 -3 -17l-66 -187q-5 -15 -19 -15h-33zM281 707q-14 0 -19 5t-5 10t0.5 7.5t1.5 6.5l58 183q5 16 11 22.5t21 6.5h32q21 0 21 -22q0 -8 -3 -17l-66 -187q-5 -15 -19 -15h-33z
" />
    <glyph glyph-name="commaaccent" unicode="&#x326;" horiz-adv-x="247" 
d="M86 -216q-17 0 -20 19l-12 111q-1 6 -1 12.5v11.5v11q0 15 18 15h104q18 0 18 -15v-11v-11.5t-1 -12.5l-12 -111q-2 -19 -19 -19h-75z" />
    <glyph glyph-name="Wgrave" unicode="&#x1e80;" horiz-adv-x="1957" 
d="M3 0zM1372 0q-14 0 -25.5 4.5t-19.5 15.5l-315 425l-338 -425q-8 -11 -18.5 -15.5t-22.5 -4.5h-58q-28 0 -45 20l-519 628q-8 8 -8 17q0 17 22 17h384q17 0 29.5 -4.5t22.5 -15.5l301 -376l303 376q8 11 21 15.5t30 4.5h63q17 0 30 -4.5t21 -15.5l300 -401l314 401
q9 11 22 15.5t30 4.5h36q21 0 21 -16q0 -8 -6 -17l-476 -629q-8 -11 -19 -15.5t-23 -4.5h-57zM981 843q-15 3 -15 19v53q0 20 17 20q7 0 15 -1t16 -6l279 -132q18 -8 18 -22v-45q0 -20 -18 -20q-5 0 -10 1t-13 4z" />
    <glyph glyph-name="Wacute" unicode="&#x1e82;" horiz-adv-x="1957" 
d="M3 0zM1372 0q-14 0 -25.5 4.5t-19.5 15.5l-315 425l-338 -425q-8 -11 -18.5 -15.5t-22.5 -4.5h-58q-28 0 -45 20l-519 628q-8 8 -8 17q0 17 22 17h384q17 0 29.5 -4.5t22.5 -15.5l301 -376l303 376q8 11 21 15.5t30 4.5h63q17 0 30 -4.5t21 -15.5l300 -401l314 401
q9 11 22 15.5t30 4.5h36q21 0 21 -16q0 -8 -6 -17l-476 -629q-8 -11 -19 -15.5t-23 -4.5h-57zM1006 714q-10 -5 -23 -5q-17 0 -17 20v45q0 14 18 22l278 132q9 5 16.5 6t14.5 1q17 0 17 -20v-53q0 -16 -15 -19z" />
    <glyph glyph-name="Wdieresis" unicode="&#x1e84;" horiz-adv-x="1957" 
d="M3 0zM1372 0q-14 0 -25.5 4.5t-19.5 15.5l-315 425l-338 -425q-8 -11 -18.5 -15.5t-22.5 -4.5h-58q-28 0 -45 20l-519 628q-8 8 -8 17q0 17 22 17h384q17 0 29.5 -4.5t22.5 -15.5l301 -376l303 376q8 11 21 15.5t30 4.5h63q17 0 30 -4.5t21 -15.5l300 -401l314 401
q9 11 22 15.5t30 4.5h36q21 0 21 -16q0 -8 -6 -17l-476 -629q-8 -11 -19 -15.5t-23 -4.5h-57zM973 742q-20 0 -20 19v131q0 18 20 18h98q21 0 21 -18v-131q0 -19 -21 -19h-98zM1215 742q-19 0 -19 19v131q0 18 19 18h98q21 0 21 -18v-131q0 -19 -21 -19h-98z" />
    <glyph glyph-name="Ygrave" unicode="&#x1ef2;" horiz-adv-x="1139" 
d="M3 0zM397 0q-26 0 -26 27v238l-359 383q-9 9 -9 18q0 8 6 12t14 4h403q27 0 45 -20l266 -292l277 293q11 11 20 15t24 4h58q10 0 14.5 -4.5t4.5 -10.5q0 -8 -5 -13l-362 -383v-244q0 -27 -27 -27h-344zM527 843q-15 3 -15 19v53q0 20 17 20q7 0 15 -1t16 -6l279 -132
q18 -8 18 -22v-45q0 -20 -18 -20q-5 0 -10 1t-13 4z" />
    <glyph glyph-name="ygrave" unicode="&#x1ef3;" horiz-adv-x="1139" 
d="M3 0zM397 0q-26 0 -26 27v238l-359 383q-9 9 -9 18q0 8 6 12t14 4h403q27 0 45 -20l266 -292l277 293q11 11 20 15t24 4h58q10 0 14.5 -4.5t4.5 -10.5q0 -8 -5 -13l-362 -383v-244q0 -27 -27 -27h-344zM527 843q-15 3 -15 19v53q0 20 17 20q7 0 15 -1t16 -6l279 -132
q18 -8 18 -22v-45q0 -20 -18 -20q-5 0 -10 1t-13 4z" />
    <glyph glyph-name="endash" unicode="&#x2013;" horiz-adv-x="600" 
d="M53 277q-27 0 -27 27v64q0 27 27 27h492q27 0 27 -27v-64q0 -27 -27 -27h-492z" />
    <glyph glyph-name="emdash" unicode="&#x2014;" horiz-adv-x="927" 
d="M53 277q-27 0 -27 27v64q0 27 27 27h820q27 0 27 -27v-64q0 -27 -27 -27h-820z" />
    <glyph glyph-name="quoteleft" unicode="&#x2018;" horiz-adv-x="302" 
d="M71 408q-44 0 -44 45v27q0 21 3.5 35t14.5 34l76 142q24 45 69 45h41q44 0 44 -45v-238q0 -45 -44 -45h-160z" />
    <glyph glyph-name="quoteright" unicode="&#x2019;" horiz-adv-x="302" 
d="M71 408q-44 0 -44 45v238q0 45 44 45h160q44 0 44 -45v-27q0 -21 -3.5 -35t-14.5 -34l-76 -142q-24 -45 -69 -45h-41z" />
    <glyph glyph-name="quotesinglbase" unicode="&#x201a;" horiz-adv-x="302" 
d="M71 -94q-44 0 -44 44v239q0 44 44 44h160q44 0 44 -44v-28q0 -20 -3.5 -34t-14.5 -34l-76 -143q-24 -44 -69 -44h-41z" />
    <glyph glyph-name="quotedblleft" unicode="&#x201c;" horiz-adv-x="600" 
d="M370 408q-45 0 -45 45v27q0 21 4 35t15 34l76 142q24 45 68 45h41q45 0 45 -45v-238q0 -45 -45 -45h-159zM71 408q-44 0 -44 45v27q0 21 3.5 35t14.5 34l76 142q24 45 69 45h41q44 0 44 -45v-238q0 -45 -44 -45h-160z" />
    <glyph glyph-name="quotedblright" unicode="&#x201d;" horiz-adv-x="600" 
d="M71 408q-44 0 -44 45v238q0 45 44 45h160q44 0 44 -45v-27q0 -21 -3.5 -35t-14.5 -34l-76 -142q-24 -45 -69 -45h-41zM370 408q-45 0 -45 45v238q0 45 45 45h159q45 0 45 -45v-27q0 -21 -4 -35t-15 -34l-76 -142q-24 -45 -68 -45h-41z" />
    <glyph glyph-name="quotedblbase" unicode="&#x201e;" horiz-adv-x="600" 
d="M71 -94q-44 0 -44 44v239q0 44 44 44h160q44 0 44 -44v-28q0 -20 -3.5 -34t-14.5 -34l-76 -143q-24 -44 -69 -44h-41zM370 -94q-45 0 -45 44v239q0 44 45 44h159q45 0 45 -44v-28q0 -20 -4 -34t-15 -34l-76 -143q-24 -44 -68 -44h-41z" />
    <glyph glyph-name="dagger" unicode="&#x2020;" horiz-adv-x="358" 
d="M172 0q-15 0 -15 16v482h-88q-16 0 -16 15v15q0 16 16 16h88v122q0 16 15 16h16q14 0 14 -16v-122h88q15 0 15 -16v-15q0 -15 -15 -15h-88v-482q0 -16 -14 -16h-16z" />
    <glyph glyph-name="daggerdbl" unicode="&#x2021;" horiz-adv-x="358" 
d="M172 0q-15 0 -15 16v122h-88q-16 0 -16 16v15q0 15 16 15h88v314h-88q-16 0 -16 15v15q0 16 16 16h88v122q0 16 15 16h16q14 0 14 -16v-122h88q15 0 15 -16v-15q0 -15 -15 -15h-88v-314h88q15 0 15 -15v-15q0 -16 -15 -16h-88v-122q0 -16 -14 -16h-16z" />
    <glyph glyph-name="bullet" unicode="&#x2022;" horiz-adv-x="506" 
d="M253 159q-37 0 -70 14t-57.5 38.5t-38.5 57.5t-14 70t14 69.5t38.5 57t57.5 38.5t70 14t70 -14t57.5 -38.5t38.5 -57t14 -69.5t-14 -70t-38.5 -57.5t-57.5 -38.5t-70 -14z" />
    <glyph glyph-name="ellipsis" unicode="&#x2026;" horiz-adv-x="1777" 
d="M53 0zM98 0q-45 0 -45 45v144q0 44 45 44h159q45 0 45 -44v-144q0 -45 -45 -45h-159zM809 0q-45 0 -45 45v144q0 44 45 44h159q45 0 45 -44v-144q0 -45 -45 -45h-159zM1520 0q-45 0 -45 45v144q0 44 45 44h159q45 0 45 -44v-144q0 -45 -45 -45h-159z" />
    <glyph glyph-name="perthousand" unicode="&#x2030;" horiz-adv-x="1694" 
d="M35 0zM200 365q-37 0 -67.5 13t-52 36t-33.5 54t-12 67q0 37 12 68.5t33.5 54t52 35.5t67.5 13h196q37 0 67.5 -13t52 -36t33.5 -54t12 -68q0 -36 -12 -67t-34 -54t-52 -36t-67 -13h-196zM370 569q0 47 -13.5 62.5t-45.5 15.5h-37q-29 0 -41.5 -16t-12.5 -62v-54
q0 -51 13 -71t41 -20h37q31 0 45 20t14 71v54zM233 -20q-10 -10 -17 -13t-20 -3h-41q-9 0 -14 5.5t-5 12.5q0 9 7 16l729 704q10 10 17.5 13t20.5 3h40q9 0 14 -5.5t5 -12.5q0 -9 -7 -16zM727 -9q-37 0 -67.5 13t-52 36t-33.5 54t-12 67q0 37 12 68.5t33.5 54t52 35.5
t67.5 13h196q37 0 67.5 -13t52 -36t33.5 -54t12 -68q0 -36 -12 -67t-34 -54t-52 -36t-67 -13h-196zM897 195q0 47 -13.5 62.5t-45.5 15.5h-37q-29 0 -41.5 -16t-12.5 -62v-54q0 -51 13 -71t41 -20h37q31 0 45 20t14 71v54zM1297 -9q-37 0 -67.5 13t-52 36t-33.5 54t-12 67
q0 37 12 68.5t33.5 54t52 35.5t67.5 13h196q37 0 67.5 -13t52 -36t33.5 -54t12 -68q0 -36 -12 -67t-34 -54t-52 -36t-67 -13h-196zM1467 195q0 47 -13.5 62.5t-45.5 15.5h-37q-29 0 -41.5 -16t-12.5 -62v-54q0 -51 13 -71t41 -20h37q31 0 45 20t14 71v54z" />
    <glyph glyph-name="guilsinglleft" unicode="&#x2039;" horiz-adv-x="288" 
d="M241 193q-8 -14 -21 -14q-7 0 -15 5l-158 91q-21 12 -21 41v38q0 29 21 41l158 91q8 5 15 5q13 0 21 -14l15 -25q2 -5 3 -8.5t1 -6.5q0 -15 -14 -22l-138 -80l138 -80q14 -8 14 -22q0 -3 -1 -6.5t-3 -8.5z" />
    <glyph glyph-name="guilsinglright" unicode="&#x203a;" horiz-adv-x="288" 
d="M81 184q-8 -5 -15 -5q-13 0 -21 14l-15 25q-2 5 -3 8.5t-1 6.5q0 14 14 22l138 80l-138 80q-14 7 -14 22q0 3 1 6.5t3 8.5l15 25q8 14 21 14q7 0 15 -5l158 -91q21 -12 21 -41v-38q0 -29 -21 -41z" />
    <glyph glyph-name="fraction" unicode="&#x2044;" horiz-adv-x="241" 
d="M-199 -20q-10 -10 -17 -13t-20 -3h-41q-9 0 -14 5.5t-5 12.5q0 9 7 16l729 704q10 10 17.5 13t20.5 3h40q9 0 14 -5.5t5 -12.5q0 -9 -7 -16z" />
    <glyph glyph-name="zerosuperior" unicode="&#x2070;" horiz-adv-x="588" 
d="M31 365zM196 365q-37 0 -67.5 13t-52 36t-33.5 54t-12 67q0 37 12 68.5t33.5 54t52 35.5t67.5 13h196q37 0 67.5 -13t52 -36t33.5 -54t12 -68q0 -36 -12 -67t-34 -54t-52 -36t-67 -13h-196zM366 569q0 47 -13.5 62.5t-45.5 15.5h-37q-29 0 -41.5 -16t-12.5 -62v-54
q0 -51 13 -71t41 -20h37q31 0 45 20t14 71v54z" />
    <glyph glyph-name="foursuperior" unicode="&#x2074;" horiz-adv-x="595" 
d="M26 365zM351 365q-13 0 -13 13v61h-299q-13 0 -13 13v24q0 12 10 18l260 200q15 12 35 12h182q13 0 13 -13v-200h37q13 0 13 -13v-28q0 -13 -13 -13h-37v-61q0 -13 -13 -13h-162zM338 641l-190 -148h190v148z" />
    <glyph glyph-name="fivesuperior" unicode="&#x2075;" horiz-adv-x="562" 
d="M40 365zM53 365q-13 0 -13 13v33q0 13 13 13h265q22 0 32 14t10 31t-10 32t-32 15h-264q-13 0 -13 13v164q0 13 13 13h440q13 0 13 -13v-32q0 -14 -13 -14h-286v-79h211q28 0 48 -9t33 -23t19.5 -32t6.5 -37q0 -20 -6.5 -38t-19.5 -32.5t-33 -23t-47 -8.5h-367z" />
    <glyph glyph-name="sixsuperior" unicode="&#x2076;" horiz-adv-x="575" 
d="M31 365zM162 365q-26 0 -49.5 7.5t-41.5 23.5t-29 41t-11 61v92q0 30 11 52t29 36.5t41.5 21t48.5 6.5h349q14 0 14 -13v-32q0 -14 -14 -14h-249q-28 0 -40 -9t-12 -29v-133q0 -25 14.5 -38.5t37.5 -13.5h62q23 0 37.5 13.5t14.5 38.5q0 24 -14.5 37t-35.5 13h-67
q-13 0 -13 14v26q0 14 13 14h166q32 0 55 -9.5t38 -25t22 -35t7 -40.5q0 -20 -7 -38.5t-21 -33.5t-35.5 -24t-51.5 -9h-269z" />
    <glyph glyph-name="sevensuperior" unicode="&#x2077;" horiz-adv-x="492" 
d="M20 365zM107 365q-12 0 -12 9q0 2 3 8l163 265h-228q-13 0 -13 14v32q0 13 13 13h422q14 0 14 -13v-16q0 -12 -7 -22l-179 -281q-5 -9 -18 -9h-158z" />
    <glyph glyph-name="eightsuperior" unicode="&#x2078;" horiz-adv-x="561" 
d="M29 365zM151 365q-30 0 -53 9t-38.5 24t-23 33.5t-7.5 37.5q0 29 15.5 52.5t38.5 34.5q-19 12 -28.5 29.5t-9.5 37.5q0 15 6 30t18.5 27t31 19t42.5 7h273q25 0 43.5 -7t30.5 -19t18 -27t6 -30q0 -20 -9 -37.5t-28 -29.5q23 -11 38.5 -34.5t15.5 -52.5q0 -19 -8 -37.5
t-23.5 -33.5t-38.5 -24t-53 -9h-257zM316 424q29 0 44 15.5t15 34.5t-15 34.5t-44 15.5h-73q-29 0 -44 -15.5t-15 -34.5t15 -34.5t44 -15.5h73zM240 647q-24 0 -36 -12.5t-12 -27.5t12 -27.5t36 -12.5h80q24 0 35.5 12.5t11.5 27.5t-11.5 27.5t-35.5 12.5h-80z" />
    <glyph glyph-name="ninesuperior" unicode="&#x2079;" horiz-adv-x="569" 
d="M26 365zM77 365q-14 0 -14 13v33q0 13 14 13h227q53 0 53 37v133q0 25 -14 39t-37 14h-60q-26 0 -36 -14.5t-10 -31.5t10 -30.5t36 -13.5h62q14 0 14 -14v-26q0 -13 -14 -13h-163q-31 0 -53.5 9t-37 23.5t-21.5 33t-7 37.5q0 18 6.5 36t20.5 32t35 22.5t50 8.5h269
q25 0 49 -7.5t42 -23.5t29 -41.5t11 -60.5v-92q0 -30 -11 -52t-29 -36t-41.5 -21t-48.5 -7h-331z" />
    <glyph glyph-name="zeroinferior" unicode="&#x2080;" horiz-adv-x="588" 
d="M196 -9q-37 0 -67.5 13t-52 36t-33.5 54t-12 67q0 37 12 68.5t33.5 54t52 35.5t67.5 13h196q37 0 67.5 -13t52 -36t33.5 -54t12 -68q0 -36 -12 -67t-34 -54t-52 -36t-67 -13h-196zM366 195q0 47 -13.5 62.5t-45.5 15.5h-37q-29 0 -41.5 -16t-12.5 -62v-54q0 -51 13 -71
t41 -20h37q31 0 45 20t14 71v54z" />
    <glyph glyph-name="oneinferior" unicode="&#x2081;" horiz-adv-x="305" 
d="M89 -9q-10 0 -10 6v276h-37q-13 0 -13 14v32q0 13 13 13h149q38 0 58 -15.5t20 -43.5v-276q0 -6 -10 -6h-170z" />
    <glyph glyph-name="twoinferior" unicode="&#x2082;" horiz-adv-x="568" 
d="M53 -9q-13 0 -13 13v66q0 38 8.5 62t32.5 37.5t66 18t110 4.5h51q20 0 31 11t11 31q0 39 -42 39h-241q-14 0 -14 14v32q0 13 14 13h343q29 0 50.5 -8.5t35.5 -23t21 -32.5t7 -37q0 -18 -6.5 -35.5t-21 -31t-36 -22t-51.5 -8.5h-119q-39 0 -50 -12t-11 -39v-33h286
q13 0 13 -13v-33q0 -13 -13 -13h-462z" />
    <glyph glyph-name="threeinferior" unicode="&#x2083;" horiz-adv-x="543" 
d="M45 -9q-14 0 -14 13v33q0 13 14 13h217q53 0 53 50q0 47 -53 47h-118q-13 0 -13 13v32q0 14 13 14h126q26 0 35 9.5t9 24.5t-9 24t-35 9h-222q-13 0 -13 14v32q0 13 13 13h351q50 0 74.5 -23t24.5 -63q0 -16 -4 -27t-10 -18.5t-13 -11.5t-12 -7q16 -5 34.5 -28t18.5 -60
q0 -19 -7 -37.5t-22 -33t-38 -23.5t-55 -9h-345z" />
    <glyph glyph-name="fourinferior" unicode="&#x2084;" horiz-adv-x="595" 
d="M351 -9q-13 0 -13 13v61h-299q-13 0 -13 13v24q0 12 10 18l260 200q15 12 35 12h182q13 0 13 -13v-200h37q13 0 13 -13v-28q0 -13 -13 -13h-37v-61q0 -13 -13 -13h-162zM338 267l-190 -148h190v148z" />
    <glyph glyph-name="fiveinferior" unicode="&#x2085;" horiz-adv-x="562" 
d="M53 -9q-13 0 -13 13v33q0 13 13 13h265q22 0 32 14t10 31t-10 32t-32 15h-264q-13 0 -13 13v164q0 13 13 13h440q13 0 13 -13v-32q0 -14 -13 -14h-286v-79h211q28 0 48 -9t33 -23t19.5 -32t6.5 -37q0 -20 -6.5 -38t-19.5 -32.5t-33 -23t-47 -8.5h-367z" />
    <glyph glyph-name="sixinferior" unicode="&#x2086;" horiz-adv-x="575" 
d="M162 -9q-26 0 -49.5 7.5t-41.5 23.5t-29 41t-11 61v92q0 30 11 52t29 36.5t41.5 21t48.5 6.5h349q14 0 14 -13v-32q0 -14 -14 -14h-249q-28 0 -40 -9t-12 -29v-133q0 -25 14.5 -38.5t37.5 -13.5h62q23 0 37.5 13.5t14.5 38.5q0 24 -14.5 37t-35.5 13h-67q-13 0 -13 14v26
q0 14 13 14h166q32 0 55 -9.5t38 -25t22 -35t7 -40.5q0 -20 -7 -38.5t-21 -33.5t-35.5 -24t-51.5 -9h-269z" />
    <glyph glyph-name="seveninferior" unicode="&#x2087;" horiz-adv-x="492" 
d="M107 -9q-12 0 -12 9q0 2 3 8l163 265h-228q-13 0 -13 14v32q0 13 13 13h422q14 0 14 -13v-16q0 -12 -7 -22l-179 -281q-5 -9 -18 -9h-158z" />
    <glyph glyph-name="eightinferior" unicode="&#x2088;" horiz-adv-x="561" 
d="M151 -9q-30 0 -53 9t-38.5 24t-23 33.5t-7.5 37.5q0 29 15.5 52.5t38.5 34.5q-19 12 -28.5 29.5t-9.5 37.5q0 15 6 30t18.5 27t31 19t42.5 7h273q25 0 43.5 -7t30.5 -19t18 -27t6 -30q0 -20 -9 -37.5t-28 -29.5q23 -11 38.5 -34.5t15.5 -52.5q0 -19 -8 -37.5t-23.5 -33.5
t-38.5 -24t-53 -9h-257zM316 50q29 0 44 15.5t15 34.5t-15 34.5t-44 15.5h-73q-29 0 -44 -15.5t-15 -34.5t15 -34.5t44 -15.5h73zM240 273q-24 0 -36 -12.5t-12 -27.5t12 -27.5t36 -12.5h80q24 0 35.5 12.5t11.5 27.5t-11.5 27.5t-35.5 12.5h-80z" />
    <glyph glyph-name="nineinferior" unicode="&#x2089;" horiz-adv-x="569" 
d="M77 -9q-14 0 -14 13v33q0 13 14 13h227q53 0 53 37v133q0 25 -14 39t-37 14h-60q-26 0 -36 -14.5t-10 -31.5t10 -30.5t36 -13.5h62q14 0 14 -14v-26q0 -13 -14 -13h-163q-31 0 -53.5 9t-37 23.5t-21.5 33t-7 37.5q0 18 6.5 36t20.5 32t35 22.5t50 8.5h269q25 0 49 -7.5
t42 -23.5t29 -41.5t11 -60.5v-92q0 -30 -11 -52t-29 -36t-41.5 -21t-48.5 -7h-331z" />
    <glyph glyph-name="Euro" unicode="&#x20ac;" horiz-adv-x="1135" 
d="M437 0q-54 0 -102.5 15t-88 43t-69.5 67t-47 87h-72q-14 0 -19 6.5t-5 20.5l3 28q2 14 8 20.5t22 6.5h44q-1 11 -1.5 23t-0.5 24q0 13 0.5 25t1.5 24h-53q-14 0 -19 6.5t-5 20.5l3 28q2 14 8 20.5t22 6.5h63q17 47 46 86t68.5 66.5t88 42.5t104.5 15h644q18 0 18 -13
q0 -6 -3 -13l-30 -64q-12 -27 -38 -27h-357q-53 0 -80 -20t-34 -73h430q19 0 19 -13q0 -6 -4 -14l-13 -28q-12 -27 -38 -27h-398v-96h354q19 0 19 -13q0 -6 -4 -14l-13 -28q-12 -27 -39 -27h-310q11 -52 37.5 -73t73.5 -21h362q26 0 26 -27v-64q0 -27 -26 -27h-596z" />
    <glyph glyph-name="trademark" unicode="&#x2122;" horiz-adv-x="812" 
d="M161 344q-15 0 -15 15v269h-101q-16 0 -16 15v23q0 16 16 16h263q15 0 15 -16v-23q0 -15 -15 -15h-100v-269q0 -15 -16 -15h-31zM716 344q-16 0 -16 15v219l-101 -220q-5 -14 -22 -14h-36q-8 0 -14 2.5t-9 10.5l-102 221v-219q0 -15 -15 -15h-27q-16 0 -16 15v299
q0 24 24 24h51q8 0 14.5 -3.5t8.5 -11.5l104 -249l106 249q7 15 24 15h47q22 0 22 -24v-299q0 -15 -15 -15h-28z" />
    <glyph glyph-name="onethird" unicode="&#x2153;" horiz-adv-x="1049" 
d="M35 0zM169 365q-10 0 -10 6v276h-37q-13 0 -13 14v32q0 13 13 13h149q38 0 58 -15.5t20 -43.5v-276q0 -6 -10 -6h-170zM132 -20q-10 -10 -17 -13t-20 -3h-41q-9 0 -14 5.5t-5 12.5q0 9 7 16l729 704q10 10 17.5 13t20.5 3h40q9 0 14 -5.5t5 -12.5q0 -9 -7 -16zM547 -9
q-14 0 -14 13v33q0 13 14 13h217q53 0 53 50q0 47 -53 47h-118q-13 0 -13 13v32q0 14 13 14h126q26 0 35 9.5t9 24.5t-9 24t-35 9h-222q-13 0 -13 14v32q0 13 13 13h351q50 0 74.5 -23t24.5 -63q0 -16 -4 -27t-10 -18.5t-13 -11.5t-12 -7q16 -5 34.5 -28t18.5 -60
q0 -19 -7 -37.5t-22 -33t-38 -23.5t-55 -9h-345z" />
    <glyph glyph-name="twothirds" unicode="&#x2154;" horiz-adv-x="1175" 
d="M37 0zM50 365q-13 0 -13 13v66q0 38 8.5 62t32.5 37.5t66 18t110 4.5h51q20 0 31 11t11 31q0 39 -42 39h-241q-14 0 -14 14v32q0 13 14 13h343q29 0 50.5 -8.5t35.5 -23t21 -32.5t7 -37q0 -18 -6.5 -35.5t-21 -31t-36 -22t-51.5 -8.5h-119q-39 0 -50 -12t-11 -39v-33h286
q13 0 13 -13v-33q0 -13 -13 -13h-462zM258 -20q-10 -10 -17 -13t-20 -3h-41q-9 0 -14 5.5t-5 12.5q0 9 7 16l729 704q10 10 17.5 13t20.5 3h40q9 0 14 -5.5t5 -12.5q0 -9 -7 -16zM672 -9q-14 0 -14 13v33q0 13 14 13h217q53 0 53 50q0 47 -53 47h-118q-13 0 -13 13v32
q0 14 13 14h126q26 0 35 9.5t9 24.5t-9 24t-35 9h-222q-13 0 -13 14v32q0 13 13 13h351q50 0 74.5 -23t24.5 -63q0 -16 -4 -27t-10 -18.5t-13 -11.5t-12 -7q16 -5 34.5 -28t18.5 -60q0 -19 -7 -37.5t-22 -33t-38 -23.5t-55 -9h-345z" />
    <glyph glyph-name="oneeighth" unicode="&#x215b;" horiz-adv-x="1050" 
d="M35 0zM169 365q-10 0 -10 6v276h-37q-13 0 -13 14v32q0 13 13 13h149q38 0 58 -15.5t20 -43.5v-276q0 -6 -10 -6h-170zM132 -20q-10 -10 -17 -13t-20 -3h-41q-9 0 -14 5.5t-5 12.5q0 9 7 16l729 704q10 10 17.5 13t20.5 3h40q9 0 14 -5.5t5 -12.5q0 -9 -7 -16zM635 -9
q-30 0 -53 9t-38.5 24t-23 33.5t-7.5 37.5q0 29 15.5 52.5t38.5 34.5q-19 12 -28.5 29.5t-9.5 37.5q0 15 6 30t18.5 27t31 19t42.5 7h273q25 0 43.5 -7t30.5 -19t18 -27t6 -30q0 -20 -9 -37.5t-28 -29.5q23 -11 38.5 -34.5t15.5 -52.5q0 -19 -8 -37.5t-23.5 -33.5t-38.5 -24
t-53 -9h-257zM800 50q29 0 44 15.5t15 34.5t-15 34.5t-44 15.5h-73q-29 0 -44 -15.5t-15 -34.5t15 -34.5t44 -15.5h73zM724 273q-24 0 -36 -12.5t-12 -27.5t12 -27.5t36 -12.5h80q24 0 35.5 12.5t11.5 27.5t-11.5 27.5t-35.5 12.5h-80z" />
    <glyph glyph-name="threeeighths" unicode="&#x215c;" horiz-adv-x="1142" 
d="M35 0zM49 365q-14 0 -14 13v33q0 13 14 13h217q53 0 53 50q0 47 -53 47h-118q-13 0 -13 13v32q0 14 13 14h126q26 0 35 9.5t9 24.5t-9 24t-35 9h-222q-13 0 -13 14v32q0 13 13 13h351q50 0 74.5 -23t24.5 -63q0 -16 -4 -27t-10 -18.5t-13 -11.5t-12 -7q16 -5 34.5 -28
t18.5 -60q0 -19 -7 -37.5t-22 -33t-38 -23.5t-55 -9h-345zM242 -20q-10 -10 -17 -13t-20 -3h-41q-9 0 -14 5.5t-5 12.5q0 9 7 16l729 704q10 10 17.5 13t20.5 3h40q9 0 14 -5.5t5 -12.5q0 -9 -7 -16zM726 -9q-30 0 -53 9t-38.5 24t-23 33.5t-7.5 37.5q0 29 15.5 52.5
t38.5 34.5q-19 12 -28.5 29.5t-9.5 37.5q0 15 6 30t18.5 27t31 19t42.5 7h273q25 0 43.5 -7t30.5 -19t18 -27t6 -30q0 -20 -9 -37.5t-28 -29.5q23 -11 38.5 -34.5t15.5 -52.5q0 -19 -8 -37.5t-23.5 -33.5t-38.5 -24t-53 -9h-257zM891 50q29 0 44 15.5t15 34.5t-15 34.5
t-44 15.5h-73q-29 0 -44 -15.5t-15 -34.5t15 -34.5t44 -15.5h73zM815 273q-24 0 -36 -12.5t-12 -27.5t12 -27.5t36 -12.5h80q24 0 35.5 12.5t11.5 27.5t-11.5 27.5t-35.5 12.5h-80z" />
    <glyph glyph-name="fiveeighths" unicode="&#x215d;" horiz-adv-x="1125" 
d="M37 0zM50 365q-13 0 -13 13v33q0 13 13 13h265q22 0 32 14t10 31t-10 32t-32 15h-264q-13 0 -13 13v164q0 13 13 13h440q13 0 13 -13v-32q0 -14 -13 -14h-286v-79h211q28 0 48 -9t33 -23t19.5 -32t6.5 -37q0 -20 -6.5 -38t-19.5 -32.5t-33 -23t-47 -8.5h-367zM225 -20
q-10 -10 -17 -13t-20 -3h-41q-9 0 -14 5.5t-5 12.5q0 9 7 16l729 704q10 10 17.5 13t20.5 3h40q9 0 14 -5.5t5 -12.5q0 -9 -7 -16zM710 -9q-30 0 -53 9t-38.5 24t-23 33.5t-7.5 37.5q0 29 15.5 52.5t38.5 34.5q-19 12 -28.5 29.5t-9.5 37.5q0 15 6 30t18.5 27t31 19t42.5 7
h273q25 0 43.5 -7t30.5 -19t18 -27t6 -30q0 -20 -9 -37.5t-28 -29.5q23 -11 38.5 -34.5t15.5 -52.5q0 -19 -8 -37.5t-23.5 -33.5t-38.5 -24t-53 -9h-257zM875 50q29 0 44 15.5t15 34.5t-15 34.5t-44 15.5h-73q-29 0 -44 -15.5t-15 -34.5t15 -34.5t44 -15.5h73zM799 273
q-24 0 -36 -12.5t-12 -27.5t12 -27.5t36 -12.5h80q24 0 35.5 12.5t11.5 27.5t-11.5 27.5t-35.5 12.5h-80z" />
    <glyph glyph-name="seveneighths" unicode="&#x215e;" horiz-adv-x="1050" 
d="M35 0zM125 365q-12 0 -12 9q0 2 3 8l163 265h-228q-13 0 -13 14v32q0 13 13 13h422q14 0 14 -13v-16q0 -12 -7 -22l-179 -281q-5 -9 -18 -9h-158zM132 -20q-10 -10 -17 -13t-20 -3h-41q-9 0 -14 5.5t-5 12.5q0 9 7 16l729 704q10 10 17.5 13t20.5 3h40q9 0 14 -5.5
t5 -12.5q0 -9 -7 -16zM635 -9q-30 0 -53 9t-38.5 24t-23 33.5t-7.5 37.5q0 29 15.5 52.5t38.5 34.5q-19 12 -28.5 29.5t-9.5 37.5q0 15 6 30t18.5 27t31 19t42.5 7h273q25 0 43.5 -7t30.5 -19t18 -27t6 -30q0 -20 -9 -37.5t-28 -29.5q23 -11 38.5 -34.5t15.5 -52.5
q0 -19 -8 -37.5t-23.5 -33.5t-38.5 -24t-53 -9h-257zM800 50q29 0 44 15.5t15 34.5t-15 34.5t-44 15.5h-73q-29 0 -44 -15.5t-15 -34.5t15 -34.5t44 -15.5h73zM724 273q-24 0 -36 -12.5t-12 -27.5t12 -27.5t36 -12.5h80q24 0 35.5 12.5t11.5 27.5t-11.5 27.5t-35.5 12.5h-80
z" />
    <glyph glyph-name="minus" unicode="&#x2212;" horiz-adv-x="747" 
d="M80 301q-27 0 -27 27v28q0 27 27 27h587q27 0 27 -27v-28q0 -27 -27 -27h-587z" />
    <glyph glyph-name="approxequal" unicode="&#x2248;" horiz-adv-x="522" 
d="M53 190zM359 202q-8 -4 -20 -4q-4 0 -7 0.5t-7 1.5l-128 31q-8 2 -13 2q-4 0 -10 -2l-95 -37q-5 -4 -16 -4q-10 0 -10 14v49q0 10 9 13l101 40q9 3 21 3q3 0 6 -0.5t7 -0.5l128 -32q4 -1 13 -1q7 0 10 1l95 38q6 3 16 3t10 -14v-49q0 -11 -9 -12zM359 379q-8 -4 -20 -4
q-4 0 -7 0.5t-7 1.5l-128 31q-8 2 -13 2q-4 0 -10 -2l-95 -37q-5 -4 -16 -4q-10 0 -10 14v49q0 10 9 13l101 40q9 3 21 3q3 0 6 -0.5t7 -0.5l128 -32q4 -1 13 -1q7 0 10 1l95 38q6 3 16 3t10 -14v-49q0 -11 -9 -12z" />
    <glyph glyph-name="notequal" unicode="&#x2260;" horiz-adv-x="747" 
d="M515 426l-173 -168h325q27 0 27 -26v-29q0 -27 -27 -27h-410l-203 -196q-10 -10 -17 -13t-20 -3h-41q-9 0 -14 5.5t-5 12.5q0 9 7 16l185 178h-69q-27 0 -27 27v29q0 26 27 26h153l174 168h-327q-27 0 -27 27v28q0 27 27 27h412l201 194q10 10 17.5 13t20.5 3h40
q9 0 14 -5.5t5 -12.5q0 -9 -7 -16l-183 -176h67q27 0 27 -27v-28q0 -27 -27 -27h-152z" />
    <glyph glyph-name="lessequal" unicode="&#x2264;" horiz-adv-x="613" 
d="M541 45q-10 -16 -22 -16q-6 0 -15 6l-428 246q-23 13 -23 38v42q0 28 22 41l429 247q10 5 15 5q13 0 22 -14l14 -25q4 -8 4 -15q0 -14 -14 -22l-410 -236l410 -236q14 -7 14 -20q0 -9 -4 -17zM13 -126q-27 0 -27 27v28q0 27 27 27h587q27 0 27 -27v-28q0 -27 -27 -27
h-587z" />
    <glyph glyph-name="greaterequal" unicode="&#x2265;" horiz-adv-x="613" 
d="M109 35q-9 -6 -15 -6q-12 0 -22 16l-14 24q-5 10 -5 17q0 12 15 20l410 236l-410 236q-15 9 -15 22q0 5 5 15l14 25q9 14 22 14q5 0 15 -5l429 -247q21 -12 21 -41v-42q0 -26 -22 -38zM13 -126q-27 0 -27 27v28q0 27 27 27h587q27 0 27 -27v-28q0 -27 -27 -27h-587z" />
    <glyph glyph-name="uniE000" unicode="&#xe000;" horiz-adv-x="637" 
d="M79 309q-26 8 -26 27t26 27l460 108q10 3 19 3q8 0 17 -5.5t9 -15.5q0 -6 -2 -9.5t-6 -8.5l-68 -99l68 -99q8 -10 8 -18q0 -10 -9 -15.5t-17 -5.5q-5 0 -9.5 0.5t-9.5 1.5z" />
    <glyph glyph-name="uniE001" unicode="&#xe001;" horiz-adv-x="637" 
d="M98 200q-5 -1 -9.5 -1.5t-9.5 -0.5q-8 0 -17 5.5t-9 15.5q0 8 8 18l68 99l-68 99q-4 5 -6 8.5t-2 9.5q0 10 9 15.5t17 5.5t19 -3l460 -108q26 -8 26 -27t-26 -27z" />
    <glyph glyph-name="uniE002" unicode="&#xe002;" 
d="M974 0q-32 0 -52 20l-387 401l-404 -401q-20 -20 -52 -20h-57q-19 0 -19 17q0 3 1.5 7.5t6.5 8.5l627 630q19 19 42 19h66q25 0 44 -19l618 -628q5 -5 6.5 -10t1.5 -9q0 -16 -23 -16h-419z" />
    <glyph glyph-name="uniE004" unicode="&#xe004;" 
d="M974 0q-32 0 -52 20l-144 149h-353q-11 0 -17 5t-6 13q0 11 10 20l54 53q28 27 54 27h145l-130 134l-404 -401q-20 -20 -52 -20h-57q-19 0 -19 17q0 3 1.5 7.5t6.5 8.5l627 630q19 19 42 19h66q25 0 44 -19l618 -628q5 -5 6.5 -10t1.5 -9q0 -16 -23 -16h-419z" />
    <glyph glyph-name=".ttfautohint" horiz-adv-x="109" 
d="M0 0z" />
    </font>
</defs>
</svg>
