<?xml version="1.0" standalone="no"?>
<!DOCTYPE svg PUBLIC "-//W3C//DTD SVG 1.1//EN" "http://www.w3.org/Graphics/SVG/1.1/DTD/svg11.dtd" >
<svg xmlns="http://www.w3.org/2000/svg" xmlns:xlink="http://www.w3.org/1999/xlink" version="1.1">
<metadata>
Created by FontForge 20170731 at Tue Apr  2 21:43:54 2013
 By Aleksey,,,
Copyright (c) 2000, 2006 Nick Curtis. All Rights Reserved. Distributed under the 1001Fonts Free For Commercial Use License (FFC) http://www.1001fonts.com/licenses/ffc.html - PayPal donations in any amount may be made at nicksfonts.com.
</metadata>
<defs>
<font id="TeamSpiritNF" horiz-adv-x="758" >
  <font-face 
    font-family="Team Spirit NF"
    font-weight="400"
    font-stretch="normal"
    units-per-em="1000"
    panose-1="2 1 9 5 6 3 1 9 1 3"
    ascent="935"
    descent="-65"
    x-height="505"
    cap-height="756"
    bbox="-31 -200 2142 987"
    underline-thickness="20"
    underline-position="-153"
    unicode-range="U+0020-2022"
  />
<missing-glyph horiz-adv-x="500" 
 />
    <glyph glyph-name=".notdef" horiz-adv-x="500" 
 />
    <glyph glyph-name=".null" horiz-adv-x="0" 
 />
    <glyph glyph-name="nonmarkingreturn" horiz-adv-x="333" 
 />
    <glyph glyph-name="space" unicode=" " horiz-adv-x="500" 
 />
    <glyph glyph-name="quotedbl" unicode="&#x22;" horiz-adv-x="428" 
d="M428 -65h-428v201h428v-201zM313 758q88 -59 88 -124q0 -37 -17 -68t-49 -54.5t-61.5 -39t-69.5 -32.5l-14 49q4 2 23 12t29.5 16.5t24.5 17.5t21 23.5t7 26.5q0 39 -53 61q0 -75 -52.5 -121.5t-143.5 -84.5l-14 49q4 2 23 12t29.5 16.5t24.5 17.5t21 23.5t7 26.5
q0 23 -18 38.5t-52 30.5l88 104q69 -47 82 -90z" />
    <glyph glyph-name="ampersand" unicode="&#x26;" horiz-adv-x="694" 
d="M344 280q-37 70 -52 161q-23 -11 -37 -19.5t-31 -22.5t-25.5 -31.5t-8.5 -39.5q0 -35 20.5 -62.5t52.5 -27.5q31 0 81 42zM694 -65h-694v201h694v-201zM570 492q40 0 73 -29t33 -71q0 -8 -15 -61h-102q49 61 49 89q0 12 -11.5 19t-25.5 7q-46 0 -114 -95q45 -113 94 -113
q6 0 12 2t10.5 4t10.5 7l9 7.5t9.5 9l8.5 8.5l39 -29q-72 -89 -144 -89q-76 0 -135 77q-35 -25 -55.5 -38.5t-53 -26.5t-62.5 -13q-54 0 -95 33.5t-41 86.5q0 120 222 210q-2 24 -2 38q0 80 45.5 137.5t125.5 57.5q42 0 78 -18.5t40 -56.5l-89 -64q-13 91 -46 91
q-19 0 -27.5 -24t-8.5 -49q0 -65 32 -180q25 34 62 53.5t74 19.5z" />
    <glyph glyph-name="quotesingle" unicode="'" horiz-adv-x="237" 
d="M237 -65h-237v201h237v-201zM125 758q87 -59 87 -124q0 -37 -17 -68t-49 -55t-61 -39t-70 -32l-14 49q2 1 16.5 8t20 10.5t19 11.5t20 14t14.5 15t11.5 18.5t3.5 19.5q0 13 -5.5 23.5t-18.5 19.5t-20.5 13t-24.5 12z" />
    <glyph glyph-name="parenleft" unicode="(" horiz-adv-x="283" 
d="M283 -65h-16q-24 0 -41.5 -17t-17.5 -42q0 -40 38 -55l-3 -19q-22 -2 -34 -2q-77 0 -143 45.5t-66 121.5q0 75 65 122t145 47h73v-201z" />
    <glyph glyph-name="parenright" unicode=")" horiz-adv-x="288" 
d="M288 166q0 -231 -274 -231h-14v201h74q33 0 52 23t19 54q0 30 -18.5 51.5t-52.5 21.5q-24 0 -58 -23v45q47 32 101 32q70 0 120.5 -51.5t50.5 -122.5z" />
    <glyph glyph-name="hyphen" unicode="-" horiz-adv-x="172" 
d="M172 -65h-172v201h172v-201z" />
    <glyph glyph-name="zero" unicode="0" horiz-adv-x="487" 
d="M487 -65h-487v201h487v-201zM487 559l-13 -42q-5 1 -15 3.5t-15 3.5q-78 -365 -276 -365q-78 0 -119.5 47.5t-41.5 130.5q0 135 78.5 236t215.5 163l22 -36q-164 -173 -164 -357q0 -105 50 -111q56 0 98 70q66 110 83 233q-73 22 -73 92q0 33 19.5 65t51.5 37
q63 0 63 -121q0 -27 -2 -39z" />
    <glyph glyph-name="one" unicode="1" horiz-adv-x="341" 
d="M341 -65h-341v201h341v-201zM341 730q-17 -65 -46 -180t-54 -210t-49 -178l-169 -9q106 281 154 468q-40 -33 -90 -100l-57 17q86 122 206 187q11 6 45 6q8 0 27.5 -0.5t32.5 -0.5z" />
    <glyph glyph-name="two" unicode="2" horiz-adv-x="525" 
d="M525 -65h-525v201h525v-201zM346 729q71 0 125 -41t54 -112q0 -51 -40 -97.5t-90.5 -75.5t-115.5 -68.5t-97 -69.5q26 5 63 5q34 0 102 -6q24 -2 33 -2q49 0 68 50l51 -16q-32 -77 -50 -98q-35 -44 -115 -44q-27 0 -79.5 5t-78.5 5q-41 0 -110 -20q1 26 1.5 37.5
t6.5 30.5t17 34q28 39 78.5 81t99 84t75.5 82q27 41 27 92q0 36 -22 61.5t-61 25.5q-28 0 -54 -20t-26 -48q0 -7 2 -13.5t7 -12.5t8.5 -10t12.5 -9.5t13 -7.5l16 -8t15 -8l-121 -50q-58 30 -58 75q0 49 41 89.5t96 60t106 19.5z" />
    <glyph glyph-name="three" unicode="3" horiz-adv-x="509" 
d="M509 -65h-509v201h509v-201zM316 729q71 0 127 -33.5t56 -100.5q0 -91 -132 -131q115 -48 115 -138q0 -58 -42 -98.5t-98 -57t-117 -16.5q-30 0 -60.5 5.5t-62.5 18t-51.5 37.5t-19.5 60q0 6 1.5 17.5t1.5 14.5l152 47q-2 -4 -10.5 -20t-12.5 -25.5t-8.5 -24t-4.5 -26.5
q0 -26 22.5 -43t52.5 -17q47 0 76 40t29 90q0 39 -20.5 66.5t-59.5 27.5q-2 0 -47 -3l-8 64q7 0 19.5 -0.5t19.5 -0.5q57 0 94 29t37 87q0 33 -22.5 56.5t-56.5 23.5q-26 0 -55 -13t-29 -38q0 -12 22 -56l-98 -42q-30 35 -30 63q0 62 74 99.5t146 37.5z" />
    <glyph glyph-name="four" unicode="4" horiz-adv-x="508" 
d="M324 629q-122 -100 -221 -241h144q31 91 77 241zM508 -65h-508v201h508v-201zM508 407l-28 -92q-36 -1 -108 -1q-24 -83 -43 -146l-169 -17q39 100 61 164q-66 0 -200 4q1 6 3 21.5t5 27t7 18.5q157 232 336 335q4 3 9 3l99 8q-48 -200 -86 -338q47 2 114 13z" />
    <glyph glyph-name="five" unicode="5" horiz-adv-x="480" 
d="M480 -65h-480v201h480v-201zM470 732l-21 -56q-28 -73 -138 -73q-30 0 -102 9l-29 -98q34 4 52 4q55 0 105 -18t85.5 -60t35.5 -100q0 -81 -75.5 -134t-178.5 -53q-30 0 -60.5 6t-61.5 19.5t-50.5 39t-19.5 60.5v16l130 51q-15 -66 -15 -78q0 -29 20 -48.5t50 -19.5
q51 0 80 47t29 103q0 48 -33 76t-84 28q-24 0 -85 -13l85 296q54 -19 124 -19q59 0 157 15z" />
    <glyph glyph-name="six" unicode="6" horiz-adv-x="472" 
d="M473 -65h-473v201h473v-201zM472 370q0 -94 -77 -153t-173 -59q-85 0 -142.5 50t-57.5 147q0 128 97 237.5t241 139.5l30 -30q-230 -157 -230 -413q0 -90 58 -90q47 0 73 53.5t26 111.5q0 74 -48 74q-13 0 -30 -6l-22 27q41 48 106 48q58 0 103.5 -38.5t45.5 -98.5z" />
    <glyph glyph-name="seven" unicode="7" horiz-adv-x="449" 
d="M449 -65h-449v201h449v-201zM449 693q-11 -22 -44 -82.5t-47.5 -88.5t-41 -82.5t-41.5 -91t-31 -85t-25 -92.5q-108 -14 -161 -20q19 96 53 156t122 158q83 95 113 146q-24 -2 -35 -2q-23 0 -71 6t-75 6q-72 0 -82 -52l-3 -13h-58q2 10 7 34.5t8.5 39t12 35.5t18.5 32.5
t28 21.5t42 11q9 1 29 1q41 0 164 -16q20 -2 27 -2q26 0 80 20q11 -26 11 -40z" />
    <glyph glyph-name="eight" unicode="8" horiz-adv-x="487" 
d="M205 200q38 0 69.5 22.5t31.5 61.5q0 50 -94 131q-130 -69 -130 -128q0 -39 40 -63t83 -24zM487 -65h-487v201h487v-201zM477 611v-44q-19 0 -39 3q-31 -46 -102 -87q27 -26 43.5 -45.5t33 -51.5t16.5 -62q0 -73 -73.5 -121.5t-151.5 -48.5q-63 0 -120.5 34.5t-57.5 94.5
q0 52 39 90.5t108 77.5q-63 63 -63 126q0 64 54 101t130 54l29 -29q-26 -12 -42.5 -21.5t-32.5 -26.5t-16 -36q0 -9 3.5 -18.5t6.5 -16t12.5 -18t13 -15.5t16.5 -17l16 -16q61 38 81 75q-29 23 -29 65q0 27 17.5 48.5t47.5 21.5q27 0 40 -20.5t13 -47.5q0 -17 -10 -49h17z
" />
    <glyph glyph-name="nine" unicode="9" horiz-adv-x="494" 
d="M494 -65h-494v201h494v-201zM280 730q82 0 136.5 -59t54.5 -143q0 -128 -98 -237.5t-242 -139.5l-30 31q105 57 167.5 172t62.5 241q0 89 -62 90q-31 -3 -54 -32t-32 -64t-9 -68q0 -76 49 -76q13 0 29 6l22 -27q-39 -43 -100 -47q-63 0 -108 38.5t-45 104.5
q0 88 81.5 149t177.5 61z" />
    <glyph glyph-name="equal" unicode="=" horiz-adv-x="172" 
d="M172 -65h-172v201h172v-201z" />
    <glyph glyph-name="at" unicode="@" horiz-adv-x="538" 
d="M426 289l24 -38q-90 -63 -195 -63q-103 0 -169.5 74.5t-66.5 178.5q0 114 84 194.5t198 80.5q92 0 155 -56t63 -147q0 -85 -53 -143.5t-113 -58.5q-37 0 -54 35q-36 -31 -74 -31q-31 0 -50.5 22t-19.5 53q0 63 46 121.5t108 58.5q35 0 58 -33l8 6l36 -22l-41 -136v-8
q0 -8 5 -8q21 0 45.5 35.5t24.5 78.5q0 72 -50.5 115t-123.5 43q-77 0 -127.5 -55t-50.5 -133q0 -81 65.5 -137t147.5 -56q65 0 120 29zM250 389q25 0 48 31.5t23 66.5q0 10 -5.5 20.5t-15.5 10.5q-22 0 -44.5 -36.5t-22.5 -67.5q0 -8 5 -16.5t12 -8.5zM538 -65h-538v201
h538v-201z" />
    <glyph glyph-name="A" unicode="A" 
d="M576 683q-38 14 -77 14q-49 0 -93.5 -28t-76.5 -73.5t-56 -100.5t-35.5 -110t-11.5 -102q0 -24 4 -47.5t19.5 -46t41.5 -22.5q21 0 47.5 19.5t38.5 34t32 40.5q10 224 167 422zM758 -65h-490q-25 0 -42.5 -17t-17.5 -42q0 -40 38 -55l-2 -19q-22 -2 -34 -2
q-77 0 -143.5 45.5t-66.5 121.5q0 71 62 120q17 13 30 19q20 -30 52 -50q38 -24 80 -24q84 0 177 99q32 -99 127 -99t209 104h21v-201zM755 714q-12 -13 -34 -41q-70 -87 -113 -207.5t-50 -236.5q0 -66 48 -70q18 0 36.5 9.5t28.5 17.5t34.5 32t31.5 31l5 -77
q-46 -49 -102.5 -85t-110.5 -36q-49 0 -78.5 33.5t-38.5 87.5q-102 -121 -188 -121q-74 0 -113.5 65t-39.5 147q0 128 54.5 239.5t160.5 181.5t241 70q117 0 228 -40z" />
    <glyph glyph-name="B" unicode="B" horiz-adv-x="741" 
d="M203 136q-15 -12 -33 -12q-16 0 -19 5q21 5 52 7zM741 -65h-473q-25 0 -42 -17t-17 -42q0 -41 37 -55l-2 -19q-22 -2 -33 -2q-48 0 -95.5 18.5t-81.5 58t-34 91.5t37 95q39 -36 109 -36q59 0 120.5 25t99.5 63q21 -85 122 -85q59 0 112 28t87 78h54v-201zM543 623
q-23 -17 -38 -41.5t-23 -57.5t-11.5 -58t-7 -65.5t-5.5 -57.5q-16 -121 -100.5 -209t-202.5 -88q-58 0 -97.5 28.5t-45.5 87.5q-2 20 -4 30l137 71q-16 -61 -16 -106q0 -52 40 -52q99 0 131 249q7 49 14 84.5t22.5 75t37.5 65.5t57 47t82 29zM744 574q0 -56 -37 -93.5
t-102 -64.5q53 -22 79 -62.5t26 -90.5q0 -86 -66.5 -150t-154.5 -64t-105 73l68 80q0 -14 12 -54.5t26 -40.5q30 0 49 79.5t19 140.5q0 56 -66 70l8 50q4 -1 11 -1q40 0 64.5 38t24.5 82q0 59 -41 96t-103 37q-40 0 -96.5 -18t-105 -55t-48.5 -80q0 -28 20.5 -53.5
t54.5 -43.5l-123 -60q-59 47 -59 102q0 81 60 144t142.5 92.5t166.5 29.5q43 0 88 -10t88.5 -30t71.5 -57.5t28 -85.5z" />
    <glyph glyph-name="C" unicode="C" horiz-adv-x="618" 
d="M618 -65h-350q-25 0 -42.5 -17t-17.5 -42q0 -40 38 -55l-3 -19q-22 -2 -33 -2q-77 0 -143.5 45.5t-66.5 121.5q0 48 30.5 87.5t77.5 59.5q80 -83 217 -83q140 0 268 105h25v-201zM602 169q-136 -120 -279 -120q-113 0 -190.5 74t-77.5 192q0 70 27.5 146.5t74 141.5
t115.5 107.5t144 42.5q71 0 119.5 -46t48.5 -120q0 -77 -52 -143.5t-130 -66.5q-37 0 -64 20t-27 56q0 45 25 68q8 -39 39 -39q38 0 67.5 48.5t29.5 98.5q0 28 -13.5 49t-41.5 21q-58 0 -108 -65.5t-74 -144t-24 -135.5q0 -83 51 -152t137 -69q41 0 80.5 19.5t63.5 41
t59 59.5v-84z" />
    <glyph glyph-name="D" unicode="D" horiz-adv-x="750" 
d="M750 -65h-483q-24 0 -41.5 -17t-17.5 -42q0 -40 38 -55l-3 -19q-22 -2 -34 -2q-77 0 -143 45.5t-66 121.5q0 41 22 76q22 -14 50 -14q44 0 106 36q80 -34 164 -34q143 0 263 105h145v-201zM47 523q0 94 104.5 154t240.5 60q90 0 165 -27.5t126 -93t51 -160.5
q0 -157 -117.5 -281t-276.5 -124q-89 0 -164 36q-63 -38 -103 -38q-27 0 -46.5 16t-19.5 43q0 42 37.5 65t84.5 23q35 0 77 -11q16 15 26 39t12 36t8 47q21 131 40 178q39 95 142 134q15 6 32 11l33 -42q-33 -27 -51 -65t-23.5 -78t-11 -80.5t-20.5 -82.5t-44 -73
q-22 -25 -63 -53q84 -35 124 -35q44 0 78.5 35t52 88.5t26 103.5t8.5 92q0 119 -73 184t-168 65q-72 0 -122 -38.5t-50 -105.5q0 -59 81 -93l-118 -66q-78 64 -78 137z" />
    <glyph glyph-name="E" unicode="E" horiz-adv-x="597" 
d="M597 -65h-329q-25 0 -42.5 -17t-17.5 -42q0 -40 38 -55l-3 -19q-22 -2 -34 -2q-77 0 -143 45.5t-66 121.5q0 43 26.5 82t67.5 58q38 -38 93.5 -59t113.5 -21q125 0 260 109h36v-201zM578 175q-144 -127 -273 -127q-57 0 -111.5 20.5t-94.5 66t-40 106.5q0 72 54 125
t133 76q-77 44 -77 121q0 84 76.5 138.5t168.5 54.5q55 0 95.5 -25t51.5 -77l-78 -89q0 18 -4 38.5t-12.5 42.5t-25 36.5t-38.5 14.5q-39 0 -66 -45.5t-27 -94.5q0 -34 20.5 -52t38.5 -21t61 -6q6 -1 9 -1l-25 -89q-40 7 -67 7q-55 0 -92 -37t-37 -94q0 -55 39.5 -95.5
t97.5 -40.5t107.5 32.5t102.5 88.5z" />
    <glyph glyph-name="F" unicode="F" horiz-adv-x="603" 
d="M603 -65h-336q-25 0 -42 -17t-17 -42q0 -40 37 -55l-2 -19q-22 -2 -33 -2q-78 0 -144 45.5t-66 122.5q0 63 51 110q41 -52 132 -52q135 0 229 110h191v-201zM234 136q-16 -14 -32 -14q-19 0 -21 12q18 2 29 2h24zM602 484q-6 -72 -8 -113q-66 -32 -115 -48
q-21 -114 -102.5 -195.5t-194.5 -81.5q-76 0 -106 34t-40 112l136 71q-11 -51 -11 -98q0 -19 2 -30.5t11.5 -22t27.5 -10.5q24 0 45 19t34.5 49.5t22 58t13.5 54.5q-39 -14 -94 -50q-1 3 -1 14q0 51 24.5 77t84.5 55q10 69 28 120t60 93l111 13q-24 -48 -33.5 -81.5
t-10.5 -90.5q43 14 116 51zM628 771q-8 -33 -13 -49.5t-16 -39.5t-24.5 -33.5t-36.5 -18.5t-55 -8q-19 0 -62 2.5t-69 2.5q-23 0 -46 -3t-49 -11t-42 -26t-16 -43q0 -21 15 -38t29 -24.5t42 -20.5l-82 -76q-42 17 -60.5 38t-18.5 55q0 100 81 189t185 89q23 0 71 -5.5
t75 -5.5q37 0 40 13l4 17z" />
    <glyph glyph-name="G" unicode="G" horiz-adv-x="751" 
d="M399 -42l-9 -23h-18q11 12 27 23zM432 0q-29 0 -64 -41.5t-35 -66.5q0 -15 14 -16q18 0 32.5 11t24 31t15 36t11.5 38q1 5 2 8zM388 64q-99 -60 -121 -129q-24 0 -41.5 -17.5t-17.5 -41.5q0 -40 38 -55l-2 -19q-22 -2 -33 -2q-87 0 -148 48q-63 50 -63 119q0 58 42.5 101
t103.5 60q63 -83 155 -83q42 0 87 19zM751 -65h-172q26 52 45 133q59 32 99 68h28v-201zM739 259q-1 -8 -1.5 -30t-3 -37.5t-8.5 -27.5q-49 -46 -119 -83q-11 -50 -28 -92.5t-44 -83.5t-70 -64.5t-97 -23.5q-39 0 -64 20t-25 56q0 59 47.5 102t124.5 80l19 66
q-80 -77 -170 -77q-73 0 -123 56q-70 77 -70 193q0 105 55 206t151.5 167t205.5 66q76 0 136 -46.5t60 -125.5q0 -81 -60.5 -148t-142.5 -67q-46 0 -76.5 28.5t-32.5 82.5l54 43q1 -2 4.5 -11.5t5.5 -13t6.5 -11.5t8 -11.5t9 -6.5t11.5 -3q37 0 66 54.5t29 96.5
q0 37 -23 62.5t-61 25.5q-71 0 -132.5 -68t-92.5 -154.5t-31 -156.5q0 -17 1 -25q4 -44 25 -79t58 -45q13 -4 30 -4q93 0 173 131q94 13 130 17q-5 -16 -17 -50t-20 -60.5t-14 -51.5q35 23 116 104z" />
    <glyph glyph-name="H" unicode="H" horiz-adv-x="863" 
d="M863 -65h-488q-25 0 -42.5 -17t-17.5 -42q0 -40 38 -55l-2 -19q-22 -2 -33 -2q-48 0 -95.5 18.5t-81.5 58t-34 91.5q0 35 18 68q21 -3 42 -3q132 0 220 103h122q19 -46 57 -76.5t86 -30.5q51 0 108 32t103 78v-204zM863 260v-88q-112 -123 -209 -123q-69 0 -107 60
t-38 136q0 50 11 97q-46 -2 -69 -4q-63 -286 -287 -286q-66 0 -112.5 30.5t-51.5 92.5l117 89q-3 -42 -3 -57q0 -104 55 -104q30 0 52.5 19.5t36.5 57t21 65.5t14 69q-50 -16 -113 -59l-5 65q60 52 130 75q8 48 31 94.5t42.5 71.5t64.5 77q-19 -4 -39 -4q-18 0 -54.5 8.5
t-56.5 8.5q-27 0 -49.5 -21.5t-22.5 -49.5q0 -34 60 -71l-70 -73q-69 41 -69 111q0 77 66.5 141.5t148.5 64.5q19 0 56 -11t57 -11q30 0 64 25l55 -31q-2 -2 -11 -13t-11.5 -13.5t-10.5 -12.5t-10.5 -14t-9.5 -13.5t-10 -14.5t-8.5 -14t-8.5 -16t-6 -15.5t-6 -16.5
q-10 -36 -31 -160l77 5q28 83 70 162t80 127l169 44q-7 -12 -34 -57.5t-37.5 -65t-30 -56t-32.5 -67.5t-24 -63q43 14 96 46l19 -53q-63 -60 -140 -81q-17 -62 -17 -116q0 -37 14 -65.5t48 -28.5q16 0 32 7t32.5 21t27 25t26.5 30t21 24z" />
    <glyph glyph-name="I" unicode="I" horiz-adv-x="528" 
d="M528 -65h-260q-25 0 -42 -17t-17 -42q0 -40 37 -55l-2 -19q-22 -2 -33 -2q-48 0 -95.5 18.5t-81.5 58t-34 91.5q0 60 48 107q51 -42 135 -42q137 0 223 103h122v-201zM225 136q-16 -13 -36 -13q-14 0 -22 9q28 4 44 4h14zM607 725q-7 -9 -25 -31t-27.5 -34.5t-21.5 -34.5
t-18 -43q-11 -39 -23.5 -107t-21.5 -119.5t-30.5 -111.5t-51 -99.5t-82 -66t-124.5 -26.5q-66 0 -112 30.5t-52 92.5l117 89q-3 -42 -3 -58q0 -102 56 -102q33 0 57 23.5t37.5 65t21 80t14 86.5t11.5 67q10 42 34 83t40 60.5t58 68.5q-4 0 -14.5 -2.5t-19.5 -2.5
q-19 0 -57.5 8.5t-55.5 8.5q-28 0 -51.5 -20t-23.5 -50q0 -34 60 -71l-70 -73q-67 39 -67 110q0 75 65 142q29 30 69 47.5t78 17.5q19 0 56.5 -11t57.5 -11q30 0 64 25z" />
    <glyph glyph-name="J" unicode="J" horiz-adv-x="578" 
d="M229 12q-101 -43 -113 -76q0 -7 12 -7q66 0 101 83zM246 -179l-2 -19q-22 -2 -33 -2q-48 0 -95.5 18.5t-81.5 58t-34 91.5q0 70 63 119q62 49 148 49h30l-8 -42q-30 -11 -58 -24t-62.5 -34t-55.5 -49t-21 -57q0 -37 31.5 -55t74.5 -18q31 0 68 8q7 -33 36 -44zM578 -65
h-243q50 50 74 121q99 40 150 80h19v-201zM587 209q-22 -35 -25 -40q-26 -41 -168 -98q-20 -55 -37 -82q-31 -50 -91 -81.5t-123 -31.5q-33 0 -59.5 13t-27.5 44q3 46 64.5 85t128.5 62q16 67 36 242q9 85 14 104q10 42 34 83t40 60.5t58 68.5q-4 0 -15 -2.5t-20 -2.5
q-19 0 -57 8.5t-55 8.5q-28 0 -51.5 -20t-23.5 -50q0 -34 60 -71l-70 -73q-66 39 -66 111q0 75 66.5 141t142.5 66q20 0 58 -12t59 -12q24 0 63 26l55 -31q-2 -3 -13.5 -16t-14.5 -17t-12.5 -16t-13.5 -18t-11.5 -17t-11 -19t-8 -19t-7.5 -21q-14 -47 -33 -199
q-24 -176 -40 -245q100 45 123 90z" />
    <glyph glyph-name="K" unicode="K" horiz-adv-x="842" 
d="M842 -65h-565q-25 0 -42.5 -17t-17.5 -42q0 -40 38 -55l-2 -19q-22 -2 -34 -2q-77 0 -143.5 45.5t-66.5 121.5q0 53 37 96q49 -32 121 -32q137 0 224 105h107q10 -40 40 -69q37 -37 90 -37q50 0 103.5 31.5t95.5 74.5h15v-201zM823 246l17 -74q-34 -34 -60.5 -56.5
t-69.5 -44.5t-82 -22q-45 0 -77 32q-39 39 -39 109q0 25 6 69q5 33 5 56q0 32 -11 50h-9q-32 0 -37 22q-12 -70 -32 -124.5t-54 -105t-88.5 -78.5t-126.5 -28q-67 0 -113.5 30.5t-51.5 93.5l116 89q-3 -42 -3 -57q0 -99 51 -103q36 0 61.5 23.5t38.5 65t20.5 80.5t14 86
t11.5 67q15 59 47.5 107.5t85.5 104.5q-17 -4 -37 -4q-21 0 -62.5 11.5t-64.5 11.5q-27 0 -47.5 -18.5t-20.5 -46.5q0 -49 58 -85l-70 -74q-72 42 -72 115q0 75 68.5 140.5t148.5 65.5q21 0 60.5 -12.5t61.5 -12.5q31 0 67 27l55 -31q-2 -3 -11.5 -14.5t-12.5 -15t-11 -13.5
t-11.5 -15t-10 -14.5t-9.5 -16.5t-7.5 -16t-8 -18t-5.5 -18q-6 -24 -11 -50t-10.5 -64t-7.5 -51q7 11 22 14t29 2.5t29.5 9t24.5 31.5q7 17 18.5 57t22.5 74.5t27.5 70t40.5 56.5t53 21q30 0 56.5 -22.5t26.5 -55.5l-51 -90q-7 20 -21 32.5t-29 12.5q-20 0 -30 -21
q-11 -23 -22 -71.5t-28 -83.5t-52 -53q77 -41 77 -148q0 -8 -1 -25t-1 -27q0 -55 32 -55q47 0 127 98z" />
    <glyph glyph-name="L" unicode="L" horiz-adv-x="648" 
d="M648 -65h-381q-25 0 -42 -17t-17 -42q0 -40 37 -55l-2 -19q-22 -2 -33 -2q-77 0 -143.5 45.5t-66.5 121.5q0 43 23 78q20 -15 48 -15q56 0 118 68q13 -5 52.5 -21.5t57.5 -23t49.5 -13.5t58.5 -7q106 0 223 103h18v-201zM642 251l-1 -78q-123 -121 -237 -121
q-35 0 -70 10t-83.5 30.5t-67.5 27.5q-63 -70 -112 -70q-24 0 -41 14.5t-17 38.5q0 79 139 108q16 25 25.5 55.5t11.5 50t4 54.5q8 124 29 183q26 75 99 138t149 63q65 0 110.5 -48.5t45.5 -116.5t-44.5 -129.5t-111.5 -61.5q-32 0 -52 23t-20 57l3 39q36 -14 48 -14
q33 0 50 40t17 80q0 31 -15 53.5t-46 22.5q-73 0 -93 -168q-18 -150 -40 -206q-20 -55 -64 -109q44 -3 112 -31q68 -26 104 -26q15 0 28.5 2.5t27.5 8.5t23.5 11t24 15.5t21 16t22.5 19t21 18.5z" />
    <glyph glyph-name="M" unicode="M" horiz-adv-x="1002" 
d="M1002 -65h-733q-25 0 -42.5 -17t-17.5 -42q0 -40 38 -55l-3 -19q-22 -2 -34 -2q-77 0 -143.5 45.5t-66.5 121.5q0 52 36 94q32 -28 80 -28q53 0 100 35q38 29 65 68h82q-8 -66 -15 -98q11 -6 39 -6q68 0 99 20.5t72 83.5h110q15 -45 45.5 -74.5t73.5 -29.5q88 0 196 104
h19v-201zM998 178q-44 -49 -102.5 -87.5t-108.5 -38.5q-69 0 -98 85q-18 53 -18 123q0 147 76 328q-36 -53 -68.5 -130t-54 -139.5t-61 -133.5t-90.5 -120q-30 -14 -104 -14q18 91 25 270.5t24 266.5q-16 -41 -54.5 -192.5t-79.5 -220.5q-30 -51 -73.5 -87t-94.5 -36
q-41 0 -70.5 27.5t-36.5 76.5l123 112q0 -4 -2 -17t-3.5 -27.5t-1.5 -26.5q0 -56 29 -60q93 0 164 307q22 97 53 170.5t84 137.5l112 4q-22 -86 -22 -227v-113q0 -107 -10 -168q26 49 57.5 130t54 138.5t67 122t103.5 105.5l128 16q-130 -359 -130 -509q0 -88 47 -92
q15 0 29 5.5t28.5 17.5t23.5 21t24 26.5t20 22.5z" />
    <glyph glyph-name="N" unicode="N" horiz-adv-x="719" 
d="M719 -65h-451q-25 0 -42 -17t-17 -42q0 -40 37 -55l-2 -19q-22 -2 -33 -2q-48 0 -95.5 18.5t-81.5 58t-34 91.5q0 48 31 88q33 -24 77 -24q51 0 96.5 29t70.5 75h154q2 -36 2 -53q0 -23 -1 -34q0 -20 17 -20l127 16q26 46 45 91h100v-201zM829 643q-52 -2 -76 -23.5
t-40 -74.5q-13 -44 -31 -132q-42 -215 -121 -352l-112 -13q1 14 1 41q0 79 -18 161q-33 159 -48 286q-8 -27 -31 -110.5t-37 -129.5q-12 -41 -20.5 -65.5t-27 -63t-38.5 -60.5t-52 -39t-71 -17q-48 0 -74.5 28.5t-31.5 77.5l107 95l2 -24q1 -25 2.5 -34.5t6 -27.5t14 -27
t22.5 -11q63 0 124 232q2 7 3 10q74 281 107 372l124 16q14 -199 37 -327q28 -151 32 -191q18 44 50 200q2 8 7 34t8.5 42.5t10 45t13 47.5t16 43.5t20 40.5t23.5 31t28.5 22.5t33.5 7.5q24 0 40.5 -11.5t16.5 -35.5q0 -26 -20 -64z" />
    <glyph glyph-name="O" unicode="O" horiz-adv-x="666" 
d="M666 -65h-398q-25 0 -42 -17t-17 -42q0 -40 37 -55l-2 -19q-22 -2 -33 -2q-48 0 -95.5 18.5t-81.5 58t-34 91.5q0 49 32 87.5t83 61.5q24 -40 66.5 -64t89.5 -24q103 0 215 107h180v-201zM338 156q60 0 116.5 51t93 124.5t58.5 151t22 134.5q0 77 -41 77q-33 0 -69.5 -47
t-36.5 -96q0 -22 10 -34.5t21.5 -15t30.5 -3.5q-17 -89 -82 -89q-37 0 -59.5 28t-22.5 68q0 81 62 166t133 85q60 0 85.5 -41t25.5 -101q0 -76 -34.5 -169t-70.5 -157q-28 -50 -71.5 -101t-109.5 -95t-127 -44q-80 0 -127.5 64.5t-47.5 151.5q0 130 66 257t174 216l155 31
q-57 -57 -95 -102.5t-74.5 -105t-54 -127.5t-17.5 -146q0 -65 24.5 -98t62.5 -33z" />
    <glyph glyph-name="P" unicode="P" horiz-adv-x="647" 
d="M647 -65h-379q-25 0 -42 -17t-17 -42q0 -40 37 -55l-2 -19q-22 -2 -33 -2q-77 0 -144 45.5t-67 121.5q0 64 52 111q45 -42 122 -42q125 0 225 100h248v-201zM563 633q-31 -29 -44.5 -57.5t-20.5 -73.5q-1 -11 -7.5 -49.5t-8.5 -59.5q-6 -85 -43 -160.5t-107 -126
t-158 -50.5q-76 0 -106 34t-39 112l136 72q-16 -76 -16 -106q0 -53 41 -53q99 0 131 249q7 49 14 84.5t22.5 75.5t37 66t57 47t81.5 29zM689 568q0 -58 -36 -114.5t-93 -56.5q-32 0 -56 44q82 84 82 157q0 47 -38.5 76.5t-90.5 29.5q-42 0 -96 -20t-97 -60t-43 -86
q0 -7 2 -13.5t4.5 -11.5t8.5 -11l9.5 -9.5t12.5 -9t13 -8t15 -8.5t15 -8l-122 -59q-59 47 -59 99q0 76 54 137t131.5 91.5t155.5 30.5q89 0 158.5 -50t69.5 -140z" />
    <glyph glyph-name="Q" unicode="Q" horiz-adv-x="677" 
d="M677 -65h-409q-24 0 -41.5 -17t-17.5 -42q0 -40 37 -55l-2 -19q-22 -2 -34 -2q-77 0 -143.5 46t-66.5 122q0 71 64 120q53 -56 126 -56q79 0 166 66q49 -63 108 -63q68 0 171 101h42v-201zM670 198q-82 -86 -116 -110q-48 -36 -88 -36q-52 0 -106 73q-91 -74 -170 -74
q-78 0 -123.5 66t-45.5 151q0 128 66 255t174 215l149 23q-235 -207 -235 -472q0 -27 5.5 -52t21 -48t40.5 -30q12 -3 23 -3q29 0 61 20q-28 41 -51 41q-7 0 -16 -3l-22 30q41 53 90 53q44 0 82 -44q144 182 144 364q0 78 -38 78q-36 0 -70.5 -57t-34.5 -103
q0 -22 14.5 -28.5t42.5 -7.5q-29 -89 -82 -89q-35 0 -58 29.5t-23 67.5q0 81 62 165t133 84q53 0 81.5 -43.5t28.5 -101.5q0 -92 -45 -201q-46 -114 -120 -202q35 -53 69 -53q40 0 99 64z" />
    <glyph glyph-name="R" unicode="R" horiz-adv-x="802" 
d="M802 -65h-450q-25 0 -42 -17t-17 -42q0 -41 37 -55l-2 -19q-22 -2 -33 -2q-48 0 -95.5 18.5t-81.5 58t-34 91.5q0 38 19 70l26 -3q4 0 10.5 -0.5t9.5 -0.5q129 0 221 102h92q8 -49 41 -79t85 -30q36 0 73.5 19t58 36.5t57.5 53.5h25v-201zM788 176q-28 -30 -44 -45.5
t-44 -39t-56.5 -34t-57.5 -10.5q-52 0 -79.5 36.5t-27.5 93.5q0 26 10.5 76.5t10.5 77.5q0 37 -21 37h-19l-5 42q-1 -89 -36.5 -168.5t-107.5 -133.5t-165 -54q-76 0 -106 34t-40 112l137 71q-16 -58 -16 -104q0 -54 40 -54q99 0 131 249q7 49 14 84.5t22.5 75t37.5 65.5
t57 47t82 29l30 -32q-31 -29 -44.5 -57.5t-20.5 -73.5q-1 -8 -6 -32.5t-7 -38.5q7 0 21 -0.5t20 -0.5q108 0 108 145q0 60 -45.5 94.5t-111.5 34.5q-93 0 -174.5 -44.5t-81.5 -101.5q0 -53 80 -99l-123 -60q-59 47 -59 102q0 81 58.5 142t138.5 88.5t162 27.5q45 0 93 -8.5
t98 -28t81.5 -58.5t31.5 -92q0 -131 -163 -181q47 -47 47 -124q0 -15 -5.5 -46t-5.5 -48q0 -27 19 -27q17 0 35 9.5t39.5 33.5t28.5 32.5t28 35.5z" />
    <glyph glyph-name="S" unicode="S" horiz-adv-x="539" 
d="M539 -65h-271q-25 0 -42.5 -17t-17.5 -42q0 -40 38 -55l-2 -19q-22 -2 -34 -2q-87 0 -148 48q-62 49 -62 120q0 74 69 124q64 -60 174 -60q136 0 222 104h74v-201zM294 136q-21 -8 -40 -8q-23 0 -37 8h77zM559 658l-92 -125q0 2 -5 28t-7.5 33t-8.5 29t-13 30.5
t-17.5 21.5t-25 18t-32.5 5q-31 0 -55.5 -24.5t-24.5 -56.5q0 -22 15.5 -48.5t31.5 -44.5t48 -50q30 -30 43.5 -45t37 -44.5t33.5 -58.5t10 -59q0 -92 -79.5 -153.5t-174.5 -61.5q-66 0 -120.5 27.5t-79.5 85.5l104 166q1 -10 2.5 -33.5t3.5 -41t6 -41.5t11 -41t17.5 -33
t27.5 -24t39 -8q47 0 84 30.5t37 76.5q0 41 -52 91q-2 2 -23 22t-25 24.5t-22 23t-23.5 26.5t-19 25t-18 29t-11.5 28.5t-9.5 32t-2.5 32.5q0 84 63 145.5t152 61.5q102 0 175 -99z" />
    <glyph glyph-name="T" unicode="T" horiz-adv-x="547" 
d="M547 -65h-280q-25 0 -42 -17t-17 -42q0 -40 37 -55l-2 -19q-22 -2 -33 -2q-78 0 -144 45.5t-66 122.5q0 59 46 105q44 -45 129 -45q132 0 230 108h142v-201zM219 136q-14 -11 -33 -11q-12 0 -17 8q19 3 50 3zM522 605q-26 -45 -35.5 -86t-9.5 -118q0 -49 -12.5 -99
t-38.5 -95.5t-62 -81t-85.5 -56.5t-105.5 -21q-61 0 -101 28t-41 87q0 9 -4 29l137 72q-16 -71 -16 -95q0 -19 1.5 -30.5t11 -22.5t27.5 -11q53 0 94 88q17 39 28 98t16.5 106.5t26 102t57.5 92.5zM668 757q-9 -34 -13.5 -49.5t-15.5 -39t-24 -33.5t-35.5 -18t-53.5 -8
q-29 0 -100 1.5t-119 1.5q-46 0 -88 -21t-42 -63q0 -15 7.5 -28t23.5 -23.5t26 -15.5t30 -14l-82 -76q-42 17 -62.5 42t-20.5 69q0 101 82.5 180.5t190.5 79.5q30 0 92 -5t97 -5q27 0 40.5 5.5t18.5 23.5z" />
    <glyph glyph-name="U" unicode="U" horiz-adv-x="750" 
d="M750 -65h-482q-25 0 -42.5 -17t-17.5 -42q0 -40 38 -55l-3 -19q-22 -2 -34 -2q-77 0 -143 45.5t-66 121.5q0 53 35 93t91 62q23 -43 52 -66t75 -23q91 0 168 102q16 -44 48.5 -73t78.5 -29q86 0 185 103h17v-201zM757 198q-109 -145 -210 -145q-49 0 -78 37t-38 95
q-78 -133 -179 -133q-58 0 -89.5 45.5t-31.5 109.5q0 23 3 46t11 53t11.5 43.5t16.5 51.5t14 42q3 10 19.5 55t24 75t7.5 59q0 24 -11 43.5t-32 19.5q-39 0 -70.5 -41.5t-31.5 -84.5q0 -58 55 -91l-80 -79l-8 8q-23 22 -33 34t-18.5 34t-8.5 50q0 84 66.5 157t149.5 73
q70 0 110.5 -54t40.5 -128q0 -17 -1.5 -35t-5 -38t-7 -36t-10 -38t-10 -34.5t-11.5 -35.5t-11 -31.5t-11.5 -31.5t-9.5 -27q-17 -51 -17 -83q0 -40 27 -40q76 0 142 219q12 42 32.5 119.5t39 140t39.5 117.5l147 17q-92 -313 -127 -517q-3 -24 -3 -38q0 -57 34 -57
q14 0 30.5 9.5t25.5 18t27 27.5t21 22z" />
    <glyph glyph-name="V" unicode="V" horiz-adv-x="630" 
d="M630 -65h-330q-25 0 -42.5 -17t-17.5 -42q0 -40 38 -55l-2 -19q-22 -2 -33 -2q-48 0 -95.5 18.5t-81.5 58t-34 91.5q0 48 33 89t82 60q51 -87 144 -87q104 0 196 106h143v-201zM585 762q51 -70 51 -174q0 -124 -73 -294q-17 -41 -43 -81.5t-60 -78.5t-78 -61.5t-88 -23.5
q-45 0 -81.5 25t-56.5 67q-19 41 -19 90q0 67 50.5 206t50.5 199q0 27 -12 42t-32 15q-39 0 -70 -41.5t-31 -83.5q0 -56 55 -90l-80 -79l-11.5 11.5l-11 11t-9.5 10t-9.5 11l-7.5 10.5t-6.5 12t-5 12.5t-4.5 14.5t-2 15.5t-1 18.5q0 84 68 157.5t148 73.5q78 0 115 -53
t37 -130q0 -22 -2.5 -45t-8.5 -49t-10.5 -45t-14 -48t-14 -41.5t-15 -41.5t-12.5 -34q-13 -39 -13 -73q0 -29 14 -50.5t43 -21.5q44 0 88 51t66 99q48 105 48 193q0 99 -61 206l-10 17z" />
    <glyph glyph-name="W" unicode="W" horiz-adv-x="902" 
d="M902 -65h-614q-25 0 -42.5 -17t-17.5 -42q0 -40 38 -55l-3 -19q-22 -2 -34 -2q-77 0 -143 45.5t-66 121.5q0 48 30 87t77 60q20 -43 61 -66q33 -18 65 -18q86 0 169 105q32 -102 125 -102q99 0 194 103h161v-201zM859 761q56 -68 56 -168q0 -113 -77 -279
q-18 -40 -47 -83t-66 -85t-83.5 -68.5t-91.5 -26.5q-53 0 -81.5 36.5t-36.5 93.5q-35 -53 -82 -92t-97 -39q-56 0 -89 44t-33 105q0 75 44 200q21 57 43 134q19 67 19 100q0 23 -9.5 42.5t-30.5 19.5q-20 0 -46 -22q-55 -46 -55 -102q0 -57 55 -93l-80 -79l-11.5 11.5
l-12 12t-10.5 11t-10.5 13t-8.5 12.5t-8 14l-5 15t-4 17.5t-1 18.5q0 83 67 158t148 75q67 0 111 -51.5t44 -121.5q0 -36 -9.5 -83.5t-19.5 -80.5t-27 -84t-22 -67q-19 -68 -19 -85t8.5 -30.5t24.5 -13.5q21 0 44.5 27.5t42.5 67.5t31 69.5t18 49.5q14 44 35 123t40.5 144
t43.5 120l142 7q-30 -94 -80 -284q-52 -191 -52 -263q0 -61 33 -61q55 0 134 117q72 109 72 215q0 102 -67 220z" />
    <glyph glyph-name="X" unicode="X" horiz-adv-x="772" 
d="M772 -65h-504q-25 0 -42.5 -17t-17.5 -42q0 -40 38 -55l-2 -19q-22 -2 -33 -2q-48 0 -95.5 18.5t-81.5 58t-34 91.5q0 61 50 108q35 -45 86 -45q42 0 86.5 29t80.5 76h39q26 -46 69.5 -75t95.5 -29q101 0 226 104h39v-201zM742 169q-132 -118 -234 -118
q-69 0 -115.5 50.5t-56.5 124.5q-90 -175 -199 -175q-66 0 -99 87l107 101q1 -3 3 -15.5t4 -20t6 -19t8.5 -18t12.5 -11.5t18 -5q22 0 46 30t42 70t36 95t27.5 88.5t17.5 67.5q18 78 18 112q0 33 -14 58t-45 25q-40 0 -75.5 -43t-35.5 -90q0 -21 10.5 -37.5t20.5 -24.5
t32 -23l-85 -78q-26 21 -39 34.5t-24 37t-11 52.5q0 84 76 158t161 74q60 0 103.5 -43t52.5 -107q30 58 69 103.5t80 45.5q25 0 43.5 -16.5t38.5 -45.5l-77 -97q-1 2 -6.5 14t-9.5 20.5t-11.5 16t-15.5 7.5q-55 0 -111 -206q-1 -6 -2 -9q-36 -126 -36 -182q0 -47 23 -82
t69 -35q31 0 69 23t53.5 38t51.5 51z" />
    <glyph glyph-name="Y" unicode="Y" horiz-adv-x="782" 
d="M403 -20q-7 -20 -20 -45h-45q8 9 29 25q24 14 36 20zM434 15q-131 -53 -131 -116q0 -26 31 -26q58 0 100 142zM445 136l-10 -42q-39 -14 -66.5 -26.5t-58.5 -33t-51 -48.5t-27 -63q-23 -18 -23 -47q0 -40 37 -55l-2 -19q-22 -2 -33 -2q-48 0 -95.5 18.5t-81.5 58
t-34 91.5q0 54 39.5 96.5t97.5 60.5q25 -84 132 -85q83 0 158 96h18zM785 200q-35 -54 -74.5 -78t-119.5 -52q-16 -43 -36.5 -81.5t-51.5 -80t-73 -66t-89 -24.5q-40 0 -66.5 20t-26.5 57q0 36 16.5 65t49.5 51.5t62.5 36.5t74.5 31q20 81 62 243q-18 -42 -40 -81
t-53.5 -83.5t-71 -71.5t-79.5 -27q-121 0 -121 131q0 76 52.5 237t52.5 207q0 27 -12.5 43t-33.5 16q-39 0 -70.5 -40.5t-31.5 -81.5q0 -57 55 -93l-80 -79q-24 23 -36 38t-22 39t-10 53q0 84 67 156.5t147 72.5q65 0 113 -55q42 -47 42 -131q0 -25 -4 -54t-9 -51.5t-15 -56
t-15 -49t-17 -50t-14 -40.5q0 -1 -3.5 -10.5t-6.5 -19.5t-6.5 -22.5t-5.5 -25.5t-2 -23q0 -34 24 -34q77 0 211 344q78 197 96 264l146 16q-14 -60 -42.5 -193.5t-52.5 -234.5t-50 -191q43 19 69 36.5t51 47.5zM782 -65h-235q34 56 59 120q103 36 151 81h25v-201z" />
    <glyph glyph-name="Z" unicode="Z" horiz-adv-x="665" 
d="M665 -65h-397q-25 0 -42 -17t-17 -42q0 -40 37 -55l-2 -19q-22 -2 -33 -2q-48 0 -95.5 18.5t-81.5 58t-34 91.5q0 35 19 70t49 53q-9 -18 -9 -38q0 -17 17 -20h73q15 0 19 14q9 36 42 36q30 0 93 -25t102 -25q118 0 223 103h37v-201zM657 197q-50 -64 -115 -104t-136 -40
q-37 0 -101.5 25t-96.5 25q-46 0 -59 -49h-72l7 24q25 79 77.5 155.5t105 129t123 125t112.5 126.5q-23 -5 -42 -5q-29 0 -87 13.5t-89 13.5q-28 0 -52.5 -13.5t-24.5 -40.5q0 -8 3.5 -16.5t11.5 -17t13.5 -13.5t16.5 -14.5t14 -11.5l-76 -77q-55 48 -55 104
q0 81 70.5 149.5t154.5 68.5q26 0 78.5 -13t81.5 -13q47 0 76 32l44 -15q-23 -62 -61.5 -121.5t-84.5 -110.5t-92 -98t-96.5 -103t-84.5 -106q37 11 74 11q39 0 110 -25t106 -25q43 0 94 52z" />
    <glyph glyph-name="underscore" unicode="_" horiz-adv-x="382" 
d="M382 -65h-382v201h382v-201z" />
    <glyph glyph-name="grave" unicode="`" horiz-adv-x="184" 
d="M184 540l-26 -12q-112 74 -158 166l107 18q0 -68 77 -172z" />
    <glyph glyph-name="a" unicode="a" horiz-adv-x="520" 
d="M294 411q0 45 -30 45q-42 0 -78.5 -53.5t-36.5 -98.5q0 -42 33 -42q45 0 78.5 50t33.5 99zM520 -65h-520v201h520v-201zM536 263q-102 -90 -165 -90q-36 0 -59 24.5t-29 62.5q-30 -37 -71 -61t-83 -24q-49 0 -84 34t-35 85q0 84 78.5 146.5t166.5 64.5q56 -2 83 -39
q54 24 82 35q6 4 31 4h23q-3 -10 -23.5 -61t-32 -89t-11.5 -62q0 -40 29 -40q9 0 21 4.5t25 12.5t22 14t20 14.5t12 9.5v-45z" />
    <glyph glyph-name="b" unicode="b" horiz-adv-x="432" 
d="M197 486q40 33 78 76.5t38 74.5q0 12 -11 12q-22 0 -41 -29q-26 -41 -64 -134zM432 -65h-432v201h432v-201zM448 263q-29 -25 -75 -25q-47 0 -81 22q-84 -84 -164 -84q-53 0 -85 35.5t-32 90.5q0 74 48 190q37 92 96 184q93 18 155 31q5 1 13 1q24 0 35.5 -17.5
t11.5 -43.5q0 -33 -17.5 -66.5t-50 -66.5t-59.5 -55.5t-65 -51.5l-12 -9q-17 -72 -17 -96q0 -38 21 -42q43 0 84 35q-25 32 -25 75q0 47 32 90.5t79 43.5q23 0 38 -16t15 -42q0 -65 -69 -148q14 -13 46 -13q44 0 78 23v-45z" />
    <glyph glyph-name="c" unicode="c" horiz-adv-x="368" 
d="M368 -65h-368v201h368v-201zM384 263q-51 -36 -71.5 -49t-61 -27.5t-82.5 -14.5q-64 0 -112.5 35t-48.5 100q0 81 69 136t157 60q45 -1 77 -22t32 -63v-15l-123 -35q11 40 11 56q0 29 -24 29q-34 0 -55 -35.5t-21 -73.5q0 -41 28.5 -65t74.5 -24q27 0 54.5 8t46.5 17.5
t49 27.5v-45z" />
    <glyph glyph-name="d" unicode="d" horiz-adv-x="516" 
d="M291 412q0 45 -31 45q-41 0 -77.5 -53.5t-36.5 -98.5q0 -42 34 -42q45 0 78 50t33 99zM516 -65h-516v201h516v-201zM532 263q-32 -26 -51 -40t-54.5 -31.5t-62.5 -17.5q-35 0 -55.5 25t-26.5 64q-30 -36 -75 -61.5t-87 -25.5q-47 0 -80 35t-33 84q0 77 79 144t161 67
q37 0 64 -17q6 23 16.5 64.5t19 75.5t15.5 64l146 24q-54 -192 -89 -361q-9 -42 -9 -66q0 -31 20 -31q36 0 102 49v-45z" />
    <glyph glyph-name="e" unicode="e" horiz-adv-x="368" 
d="M136 352q97 24 97 78q0 26 -22 26q-34 0 -53 -32.5t-22 -71.5zM368 -65h-368v201h368v-201zM384 263q-55 -44 -102 -66t-106 -22q-64 0 -115.5 34t-51.5 96q0 80 68.5 140.5t152.5 60.5q40 0 76 -20.5t36 -58.5q0 -25 -20.5 -46.5t-58.5 -37t-60.5 -23t-56.5 -16.5
q29 -61 84 -61q53 0 154 65v-45z" />
    <glyph glyph-name="f" unicode="f" horiz-adv-x="435" 
d="M373 620q0 31 -19 31q-11 0 -20.5 -11t-17 -32t-12.5 -37t-10.5 -42t-6.5 -30q26 22 40 35t30 38t16 48zM435 -65h-435v201h68l-23 -157l177 22q10 90 17 135h196v-201zM451 263q-105 -85 -181 -85q-20 0 -43 6q-9 -55 -23 -165l-136 -18l48 330q-46 -45 -104 -68v45
q59 24 116 94q35 163 100 267q82 38 127 38q34 0 52.5 -23.5t18.5 -60.5q0 -56 -41.5 -103.5t-114.5 -100.5q-15 -72 -32 -170q16 -17 42 -17q54 0 171 76v-45z" />
    <glyph glyph-name="g" unicode="g" horiz-adv-x="487" 
d="M201 128q-7 -19 -13 -30.5t-20 -23.5t-31 -12q-19 3 -19 13q0 20 83 53zM225 151q-22 -6 -44.5 -14t-50 -25.5t-27.5 -35.5q0 -12 10.5 -20t24.5 -8q18 0 31.5 7.5t24 25.5t15.5 28.5t13 33.5q2 5 3 8zM281 445q-9 12 -24 12q-40 0 -74.5 -48.5t-34.5 -92.5q0 -43 36 -43
q49 0 83 64q12 73 14 108zM487 -65h-487v201h50q-20 -28 -20 -55q0 -44 36.5 -71t84.5 -27q66 0 121 41.5t91 111.5h124v-201zM503 263q-78 -53 -139 -73q-30 -80 -83 -133.5t-131 -53.5q-38 0 -69.5 19.5t-31.5 57.5q0 33 29 59t66 39q28 9 97 29l7 28q-57 -47 -117 -47
q-49 0 -85.5 34t-36.5 85q0 79 77.5 139t161.5 60q47 0 76 -29l115 34q-14 -49 -31 -135q-13 -75 -25 -125q65 22 120 57v-45z" />
    <glyph glyph-name="h" unicode="h" horiz-adv-x="480" 
d="M173 449q125 119 125 184q0 10 -7 10q-9 0 -25.5 -15t-24.5 -27q-43 -61 -68 -152zM480 -65h-480v201h480v-201zM496 263q-5 -3 -25 -17t-29.5 -20.5t-29.5 -18t-33.5 -17t-31.5 -10.5t-34 -5q-34 0 -62.5 21t-28.5 56q0 32 28.5 90t28.5 75q0 4 -4 4q-20 0 -45.5 -13.5
t-37.5 -23t-40 -33.5q-5 -35 -5 -83q0 -38 3 -75l-122 -20q-16 67 -16 133q0 180 132 354q20 13 73.5 30.5t79.5 17.5q27 0 43 -19t16 -48q0 -63 -81 -158q46 20 76 20t50.5 -17t20.5 -47q0 -35 -28 -99t-28 -74q0 -12 15 -12q30 0 115 54v-45z" />
    <glyph glyph-name="i" unicode="i" horiz-adv-x="244" 
d="M244 -65h-244v201h244v-201zM260 263q-33 -27 -50 -40.5t-51 -30.5t-61 -17q-41 0 -65.5 30t-24.5 74q0 32 10 72t18 61t28 71l148 23q-10 -31 -26 -71q-42 -98 -42 -145q0 -24 25 -24t91 42v-45zM234 648q-3 -55 -24 -83.5t-74 -28.5q-39 0 -92 29q39 39 55 81
q55 -20 70 -20q19 0 65 22z" />
    <glyph glyph-name="j" unicode="j" horiz-adv-x="358" 
d="M120 120q0 -8 -5.5 -32.5t-11.5 -24.5q-10 0 -10 17q0 19 27 40zM136 147q-58 -29 -58 -67q0 -11 7 -21t17 -10q14 0 22.5 22.5t10 41t1.5 34.5zM358 -65h-358v201h17q-12 -22 -12 -50q0 -44 31.5 -74.5t75.5 -30.5q60 0 103 44.5t64 110.5h79v-201zM374 263
q-58 -42 -101 -62q-7 -48 -23 -90t-52.5 -76.5t-85.5 -34.5q-36 0 -62 24.5t-26 60.5q0 72 117 119l17 187q-55 -64 -144 -129v46q94 67 170 181l128 16q-14 -83 -32 -242q45 18 94 45v-45zM353 648q-3 -56 -24 -83.5t-75 -27.5q-38 0 -91 28q33 33 47 61q4 9 8 20
q51 -19 71 -19t64 21z" />
    <glyph glyph-name="k" unicode="k" horiz-adv-x="477" 
d="M184 471q1 1 12.5 11t15.5 13.5l16 14t18 16.5t16 17t16 18.5t13.5 18t11 19t6.5 18t3 17.5q0 9 -7 9q-26 0 -53 -35.5t-42 -69t-26 -67.5zM477 -65h-477v201h477v-201zM493 263q-4 -3 -21.5 -15.5l-24.5 -17.5t-23.5 -15.5t-27.5 -16t-26 -12t-29 -9t-27 -2.5
q-36 0 -63.5 21.5t-27.5 57.5q0 7 3 21.5t3 23.5q0 18 -23 18q-12 0 -19.5 10t-7.5 25q0 19 37 21q93 9 93 43q0 24 -43 24t-105 -58q-13 -68 -13 -141q0 -32 1 -48l-122 -20q-16 68 -16 133q0 92 33.5 176.5t101.5 177.5q8 3 35.5 13t45.5 16t42.5 12t40.5 6q27 0 44.5 -18
t17.5 -47q0 -56 -86 -142q20 3 46 3q106 0 107 -70q0 -36 -29.5 -55.5t-77.5 -31.5q25 -16 25 -62q0 -32 29 -32q12 0 27.5 7t27 14t29.5 19.5t23 15.5v-45z" />
    <glyph glyph-name="l" unicode="l" horiz-adv-x="329" 
d="M260 613q0 34 -9 34q-11 0 -26 -30q-37 -72 -62 -181q92 94 97 177zM329 -65h-329v201h329v-201zM345 263q-129 -91 -204 -91q-58 0 -93.5 43.5t-35.5 105.5q0 78 38 183.5t87 166.5q8 2 37 12t52.5 16t39.5 6q25 0 36.5 -22.5t11.5 -54.5q0 -80 -43 -143t-121 -132
q0 -3 -0.5 -10t-0.5 -11q0 -82 57 -82q47 0 139 58v-45z" />
    <glyph glyph-name="m" unicode="m" horiz-adv-x="709" 
d="M709 -65h-709v201h709v-201zM725 263q-7 -4 -26.5 -18t-29 -21t-28 -18t-31.5 -16t-30 -9.5t-32 -4.5q-37 0 -61 21t-24 59q0 22 6 48t17.5 59t13.5 41t2 10q-21 -3 -65 -40t-48 -53q-2 -7 -14 -56t-19 -74q-23 -3 -71.5 -9t-72.5 -10q58 171 58 240q0 6 -3 6
q-21 0 -121 -100q-6 -34 -6 -68q0 -19 4 -57l-121 -19q-12 52 -12 98q0 85 57 214l139 23q-26 -64 -37 -96q101 91 169 91q30 0 53 -15.5t23 -44.5q0 -6 -2 -22q93 81 157 81q33 0 55.5 -18.5t22.5 -51.5q0 -13 -2.5 -27.5t-9 -32t-10.5 -27t-13 -30t-10 -23.5
q-9 -22 -9 -30q0 -11 16 -11q29 0 115 56v-45z" />
    <glyph glyph-name="n" unicode="n" horiz-adv-x="473" 
d="M473 -65h-473v201h473v-201zM489 263q-3 -2 -21.5 -15.5t-25 -18t-24 -16t-27.5 -16.5t-25 -11.5t-28.5 -9t-26.5 -2.5q-36 0 -64 22t-28 57q0 30 26.5 86.5t26.5 73.5q0 3 -3 3q-28 0 -122 -98q-6 -36 -6 -70q0 -26 3 -55l-121 -19q-14 56 -14 106q0 80 59 206l139 23
q-26 -64 -37 -97q99 91 173 91q30 0 51 -16.5t21 -47.5q0 -35 -28 -100t-28 -75t15 -10q34 0 115 54v-45z" />
    <glyph glyph-name="o" unicode="o" horiz-adv-x="437" 
d="M256 279q-44 46 -44 98q0 49 40 85q-48 -3 -77 -45.5t-29 -94.5q0 -31 11.5 -54t36.5 -23q30 0 62 34zM437 -65h-437v201h437v-201zM453 263q-47 -31 -90 -31q-31 0 -63 16q-28 -33 -68.5 -52.5t-82.5 -19.5q-56 0 -98.5 38t-42.5 95q0 70 52.5 122t125.5 65q32 12 75 12
q105 0 105 -81q0 -57 -39 -135q23 -15 49 -15q30 0 77 31v-45z" />
    <glyph glyph-name="p" unicode="p" horiz-adv-x="539" 
d="M335 421q-39 0 -66.5 -46t-27.5 -94q0 -55 37 -55q38 0 68 48t30 95q0 52 -41 52zM539 -65h-539v201h52q-8 -53 -22 -159l178 25q5 38 20 134h311v-201zM555 263q-41 -30 -116 -58t-138 -28q-52 0 -82 22q-15 -84 -28 -180l-139 -19q21 167 59 333q-24 -24 -97 -71v45
q91 61 147 183l122 16l-10 -45q60 53 116 53q54 0 88 -45t34 -107q0 -50 -25 -93q33 15 69 39v-45z" />
    <glyph glyph-name="q" unicode="q" horiz-adv-x="517" 
d="M270 456q-44 0 -84 -58t-40 -105q0 -36 30 -36q46 0 88 56t42 103q0 40 -36 40zM517 -65h-517v201h209l-49 -156l175 21q56 79 101 135h81v-201zM533 263q-87 -73 -209 -244l-136 -16l72 229q-71 -56 -143 -56q-44 0 -76 31.5t-32 77.5q0 83 83 153t170 70q62 0 89 -46
l77 42l47 3l-96 -321q67 76 154 122v-45z" />
    <glyph glyph-name="r" unicode="r" horiz-adv-x="367" 
d="M367 -65h-367v201h367v-201zM383 262q-8 -5 -38 -26.5t-45 -31t-42 -19.5t-52 -10q-34 0 -60 22.5t-26 56.5q0 46 42 109q-26 -8 -60 -8q-31 -48 -87 -92v45q37 35 42 53q-35 15 -35 56q0 36 28.5 63t66.5 27q21 0 36 -14.5t15 -36.5q0 -17 -9 -39q34 9 57.5 30.5
t48.5 57.5h63q-40 -100 -61 -150q-17 -38 -17 -65q0 -25 31 -25q39 0 102 42v-45z" />
    <glyph glyph-name="s" unicode="s" horiz-adv-x="377" 
d="M377 -65h-377v201h377v-201zM393 308v-45q-43 -32 -116.5 -60t-136.5 -28q-45 0 -70 12.5t-48 43.5l88 76q1 -3 6 -14l7.5 -16.5t8.5 -15t11.5 -14t13.5 -8.5t17 -4q22 0 41.5 16t19.5 36q0 14 -13 32.5t-34 40t-27 30.5q-52 -64 -146 -128v46q97 60 141 184
q90 12 136 17q-19 -38 -19 -52q0 -24 31.5 -60.5t34.5 -60.5q0 -48 -28 -72q16 6 33 15t32.5 18.5t16.5 10.5z" />
    <glyph glyph-name="t" unicode="t" horiz-adv-x="286" 
d="M286 -65h-286v201h286v-201zM302 264q-38 -28 -57 -41t-56.5 -30t-67.5 -17q-47 0 -79.5 31t-32.5 80q0 46 26 131l-34 -2l20 79l41 2q32 87 39 107l148 26l-42 -126l67 3l-18 -75l-74 -5q-3 -9 -10.5 -31t-12 -35t-8.5 -31t-4 -31q0 -43 35 -43q33 0 120 52v-44z" />
    <glyph glyph-name="u" unicode="u" horiz-adv-x="509" 
d="M509 -65h-509v201h509v-201zM525 263q-107 -86 -172 -86q-85 0 -102 67q-85 -69 -154 -69q-96 0 -96 104q0 32 9 70.5t17 61.5t27 73q49 9 147 25q-7 -22 -25.5 -66.5t-29.5 -83t-11 -74.5q0 -32 21 -32q38 0 96 71q7 41 53 162l149 22q-5 -15 -17.5 -48.5t-19 -53.5
t-15.5 -49.5t-14 -55.5q-2 -12 -2 -16q0 -24 22 -24q37 0 117 47v-45z" />
    <glyph glyph-name="v" unicode="v" horiz-adv-x="438" 
d="M438 -65h-438v201h438v-201zM454 264q-48 -30 -84 -30q-32 0 -67 20q-34 -34 -79.5 -57t-89.5 -23q-52 0 -89.5 34t-37.5 87q0 22 6.5 50t13 46.5t19 51t16.5 42.5l149 24q-6 -20 -25.5 -67t-32.5 -87.5t-13 -70.5q0 -17 11 -30t29 -13q37 0 82 50q-26 35 -26 82
q0 48 31 89.5t79 41.5q24 0 37.5 -16.5t13.5 -43.5q0 -65 -61 -152q23 -13 44 -13q30 0 74 30v-45z" />
    <glyph glyph-name="w" unicode="w" horiz-adv-x="673" 
d="M674 -65h-674v201h674v-201zM689 263q-46 -27 -82 -27q-37 0 -69 18q-82 -80 -169 -80q-68 0 -107 51q-67 -51 -129 -51q-51 0 -87.5 34.5t-36.5 86.5q0 22 6.5 50t13 46.5t19 51t16.5 42.5l149 24q-1 -3 -36.5 -94.5t-35.5 -130.5q0 -18 11.5 -30.5t30.5 -12.5
q27 0 59 36q-1 6 -1 17q0 23 6 50.5t13 45.5t19.5 50t17.5 45l148 24q-4 -16 -37.5 -99t-33.5 -126q0 -17 10.5 -30t28.5 -13q38 0 83 50q-26 37 -26 82q0 48 31 89.5t79 41.5q24 0 37.5 -16.5t13.5 -43.5q0 -65 -61 -152q22 -11 47 -11q32 0 72 28v-46z" />
    <glyph glyph-name="x" unicode="x" horiz-adv-x="565" 
d="M565 -65h-565v201h565v-201zM581 263q-38 -27 -62.5 -42.5t-63 -30.5t-73.5 -15q-80 0 -120 64q-44 -63 -133 -63q-33 2 -53.5 17t-38.5 43l77 53q28 -57 56 -57q35 0 59.5 64.5t24.5 107.5q0 35 -23 35q-21 0 -43.5 -16.5t-34 -30t-32.5 -41.5q-13 -18 -34 -36
t-33.5 -26.5t-40.5 -25.5v45q38 26 86 92q78 105 160 105q72 0 101 -57q38 56 103 56q72 0 91 -66l-75 -56q0 1 -4 13.5t-6.5 17.5l-7 14t-9.5 12.5t-11 3.5q-29 0 -49.5 -59t-20.5 -101q0 -48 39 -48q11 0 23 2t21.5 4.5t23 8.5t20.5 9t22 11.5t20 12t21 13.5t20 12v-45z
" />
    <glyph glyph-name="y" unicode="y" horiz-adv-x="526" 
d="M188 110q-7 -14 -11 -21.5t-13.5 -16t-21.5 -9.5q5 25 46 47zM215 137q-89 -32 -89 -77q0 -12 13 -12q19 0 34.5 14.5t23 30.5t16.5 38q1 4 2 6zM526 -65h-526v201h80q-30 -35 -30 -68q0 -39 31 -61.5t73 -22.5q127 0 210 152h162v-201zM542 263q-53 -33 -179 -85
q-79 -174 -209 -174q-33 0 -59 16t-26 48t31 60.5t64 43t70 25.5q2 8 10 35q-81 -58 -141 -58q-41 0 -66 25.5t-25 67.5q0 102 72 221l153 16q-7 -16 -32.5 -67t-40 -91t-14.5 -70q0 -23 17 -23q33 0 67 39q14 15 25.5 32.5t23 41.5t17 37t18 45t15.5 39l148 20
q-83 -239 -94 -268q12 5 34 13t33.5 12.5t28 11.5t30.5 14.5t29 17.5v-45z" />
    <glyph glyph-name="z" unicode="z" horiz-adv-x="480" 
d="M485 -65h-485v201h485v-201zM496 263q-5 -4 -30 -25t-39 -30.5t-39 -20t-49 -10.5q-27 0 -77 12q-42 10 -60 10q-33 0 -66 -26h-68l233 233q-11 -1 -34 -1q-47 0 -78 10q-62 -83 -176 -152v45q38 24 73.5 61t53 62.5t50.5 77.5q53 -14 113 -14q57 0 127 13l17 -32
l-193 -194q27 0 77 -10q39 -7 52 -7q55 0 113 43v-45z" />
    <glyph glyph-name="section" unicode="&#xa7;" horiz-adv-x="2170" 
d="M27 750h128v-750h-128v750zM2020 750h122v-750h-122v750zM1249 468q15 40 40.5 74t60 58.5t76 38t86.5 13.5t86.5 -13.5t76 -38t60 -58.5t40.5 -74h123q-12 50 -36.5 94.5t-59 81t-77 63.5t-91.5 43h-244q-49 -16 -91.5 -43t-77 -63.5t-59 -81t-36.5 -94.5h123zM1775 276
q-15 -40 -40.5 -74t-60 -58.5t-76 -38t-86.5 -13.5t-86.5 13.5t-76 38t-60 58.5t-40.5 74h-123q24 -96 89.5 -168.5t156.5 -107.5h281q91 35 156 107.5t89 168.5h-123zM923 276q-15 -40 -41 -74t-60.5 -58.5t-76 -38t-86.5 -13.5t-86 13.5t-75.5 38t-60.5 58.5t-41 74h-122
q12 -48 34.5 -90.5t54 -78t71.5 -63t85 -44.5h281q45 17 85 44.5t71.5 63t54 78t34.5 90.5h-122zM397 468q15 40 40.5 74t60 58.5t75.5 38t86 13.5t86.5 -13.5t76 -38t60 -58.5t40.5 -74h123q-12 50 -36.5 94.5t-59 81t-77 63.5t-90.5 43h-245q-48 -16 -90.5 -43t-77 -63.5
t-59 -81t-36.5 -94.5h123zM274 448h95v-30h-56v-33h50v-32h-51v-58h-38v153zM1006 448h44l71 -102v102h38v-153h-35l-81 104v-104h-37v153zM1457 448h115v-38h-32v-115h-51v116h-32v37zM662 456q-14 0 -29.5 -4t-28.5 -14t-22 -28t-9 -46t12.5 -44t27.5 -24q18 -10 41 -12
q24 2 43 12q17 8 30.5 25t13.5 49t-12.5 49t-27.5 25q-18 10 -39 12zM655 322q-12 2 -22 7q-8 5 -14.5 13.5t-6.5 24.5q0 15 4.5 25t11.5 16t15.5 8t15.5 2q11 -1 21 -6q8 -5 15 -15t7 -27q0 -18 -7.5 -27.5t-16.5 -14.5q-11 -5 -23 -6zM1790 333q8 -4 18.5 -7t23.5 -3
q10 0 17.5 3t7.5 12q0 10 -11.5 14t-25 8.5t-24.5 13.5t-11 30q0 13 6 22t15.5 14.5t21.5 7.5t23 2q24 0 39 -6l-3 -31q-14 7 -33 7q-8 0 -17.5 -2t-9.5 -12q0 -9 11 -12.5t24.5 -8t24.5 -13t11 -29.5q0 -29 -20 -39t-46 -10q-11 0 -23 1t-23 5z" />
    <glyph glyph-name="dieresis" unicode="&#xa8;" horiz-adv-x="275" 
d="M133 604l-2 -10q-13 -66 -62 -66q-32 0 -69 31q22 32 39 82q50 -33 84 -36zM275 604l-2 -10q-13 -66 -61 -66q-32 0 -69 31q20 29 38 82q52 -33 84 -36z" />
    <glyph glyph-name="ordfeminine" unicode="&#xaa;" horiz-adv-x="468" 
d="M235 659q0 33 -11 33q-30 0 -56 -59t-26 -95q0 -32 15 -32q13 0 31 23q20 25 33.5 62t13.5 68zM404 507q-12 0 -20 4q-41 -51 -74 -72q62 22 94 68zM248 -65h-248v201h248v-201zM431 641q19 0 28 -16.5t9 -38.5q0 -65 -42.5 -114.5t-108.5 -71.5q-14 -5 -36 -19.5
t-37 -26.5l-14 -12q16 0 26.5 -13t10.5 -31q0 -29 -19 -59t-48 -30q-38 0 -38 58q0 52 30 92t80 64q-42 0 -53 66q-51 -68 -104 -68q-37 0 -58.5 32.5t-21.5 73.5q0 69 56 141.5t125 72.5q38 0 61 -34l52 31l46 4l-46 -149q-14 -46 -14 -75q0 -12 7 -12q4 0 8 2t8.5 6t8 7
t9.5 9.5t9 9.5q-3 6 -3 15q0 27 22.5 56.5t46.5 29.5z" />
    <glyph glyph-name="twosuperior" unicode="&#xb2;" horiz-adv-x="689" 
d="M527 578q0 30 -20 30q-28 0 -52.5 -36t-24.5 -66q0 -28 22 -28q31 0 53 33.5t22 66.5zM662 -65h-662v201h662v-201zM547 336l-9 -17q-64 26 -131 26q-138 0 -250 -102l-47 76q107 79 231 79q114 0 206 -62zM689 475q-2 -2 -12.5 -9.5t-15.5 -11t-15.5 -10.5t-18 -10.5
t-17 -7.5t-18 -6t-16.5 -2q-24 0 -38 17t-17 43q-19 -25 -49 -42t-59 -17q-41 0 -63 35q-2 4 -4 6q-58 -42 -95 -42q-23 0 -42.5 15t-19.5 38q0 20 18 56.5t18 50.5q0 2 -2 2q-17 0 -82 -65q-4 -21 -4 -48q0 -12 2 -36l-81 -13q-9 36 -9 71q0 55 40 138l93 16
q-19 -48 -25 -65q66 61 116 61q20 0 34.5 -11t14.5 -32q0 -23 -19.5 -67t-19.5 -50q0 -5 3 -6q2 -1 7 -1q17 0 45 16q-1 4 -1 12q0 53 52 97t109 44q24 0 43 -12l34 137l97 16q-36 -130 -59 -242q-6 -28 -6 -45q0 -20 13 -20q26 0 69 30v-30z" />
    <glyph glyph-name="threesuperior" unicode="&#xb3;" horiz-adv-x="616" 
d="M454 578q0 30 -20 30q-28 0 -52.5 -36t-24.5 -66q0 -28 22 -28q31 0 53 33.5t22 66.5zM612 -65h-612v201h612v-201zM517 336l-9 -17q-64 26 -131 26q-138 0 -250 -102l-47 76q107 79 231 79q114 0 206 -62zM616 475q-2 -2 -12.5 -9.5t-15.5 -11t-15.5 -10.5t-18 -10.5
t-17 -7.5t-18 -6t-16.5 -2q-24 0 -38 17t-17 43q-19 -25 -49 -42t-59 -17q-42 0 -69 46q-65 -46 -100 -46q-20 0 -35 11q-22 15 -22 42q0 31 27 73q-8 -3 -26 -5q-25 -37 -73 -71v33q12 6 20.5 17.5t8.5 22.5q-9 3 -16.5 14.5t-7.5 25.5q0 23 19.5 41t43.5 18q15 0 25 -9.5
t10 -24.5q0 -14 -6 -26q39 11 71 59h43l-41 -100q-11 -22 -11 -44q0 -17 19 -17q20 0 44 14v6q0 54 51.5 98t108.5 44q24 0 44 -12l34 137l98 16q-35 -123 -60 -242q-6 -28 -6 -45q0 -20 13 -20q26 0 69 30v-30z" />
    <glyph glyph-name="acute" unicode="&#xb4;" horiz-adv-x="207" 
d="M97 690l110 13q-8 -53 -58.5 -100.5t-111.5 -74.5l-37 9q75 82 97 153z" />
    <glyph glyph-name="onesuperior" unicode="&#xb9;" horiz-adv-x="502" 
d="M502 -65h-502v201h502v-201zM487 336l-9 -17q-66 26 -132 26q-135 0 -249 -102l-48 76q107 79 231 79q113 0 207 -62zM482 478q-1 -1 -11 -8.5t-12.5 -9t-12.5 -8t-14 -9t-13 -7.5t-15 -7t-13.5 -5t-15 -4t-14.5 -1q-24 0 -45 14t-28 39q-31 -20 -76.5 -36.5t-84.5 -16.5
q-47 0 -79 37l59 51q1 -2 6.5 -13.5t9 -17t11 -11.5t16.5 -6q15 0 28 11t13 24q0 11 -8.5 23t-22.5 25.5t-19 20.5q-45 -57 -97 -92v30q62 40 94 130l91 12q-13 -29 -13 -36q0 -16 21.5 -39t23.5 -40q0 -23 -19 -50q25 11 44 23q2 22 5 33q5 22 12 48l-22 -2l13 53l27 1
q23 60 26 72q74 13 100 17l-28 -84l44 2l-11 -50l-50 -3q-22 -58 -24 -86q0 -29 23 -29t81 35v-30z" />
    <glyph glyph-name="ordmasculine" unicode="&#xba;" horiz-adv-x="443" 
d="M234 531q-29 38 -29 83t29 77q-32 -7 -50 -46.5t-18 -83.5q0 -59 27 -59q21 0 41 29zM232 -65h-232v201h232v-201zM406 641q19 0 28 -16.5t9 -38.5q0 -66 -43.5 -116.5t-108.5 -69.5q-52 -15 -86 -58q16 0 25.5 -12.5t9.5 -29.5q0 -30 -18.5 -60.5t-47.5 -30.5
q-37 0 -37 58q0 60 39.5 103.5t102.5 65.5q65 22 100 71q-35 -20 -62 -20q-24 0 -45 12q-48 -63 -115 -63q-49 0 -81 43q-24 32 -24 74q0 59 42 111t99 63q23 13 55 13q35 0 59.5 -16.5t24.5 -51.5q0 -38 -35 -130q11 -6 20 -6q11 0 22 6q0 59 38 88q14 11 29 11z" />
    <glyph glyph-name="onequarter" unicode="&#xbc;" horiz-adv-x="564" 
d="M347 602q1 1 12 11.5t14 13.5t13.5 14t14.5 16.5t11 15.5t10.5 17.5t6 17t2.5 18.5q0 6 -4 6q-6 0 -17.5 -10t-16.5 -18q-27 -37 -46 -102zM562 -65h-562v201h562v-201zM497 336l-9 -17q-64 26 -131 26q-135 0 -250 -102l-47 76q107 79 231 79q114 0 206 -62zM564 477
q-76 -58 -122 -58q-24 0 -43 14t-19 38q0 20 19 55t19 51q0 6 -7 6q-29 -4 -78 -46q-3 -29 -3 -57q0 -17 2 -49l-82 -13q-7 28 -8 52q-71 -51 -110 -51q-31 0 -53 21t-22 53q0 34 17 89l-22 -2l13 53l27 1q18 48 26 72q61 11 100 17l-28 -84l44 2l-11 -50l-50 -3
q-24 -69 -24 -86q0 -30 23 -30q22 0 68 28q0 125 88 243q15 11 48 21.5t55 10.5q18 0 28.5 -11.5t10.5 -31.5q0 -41 -54 -107q32 14 52 14t33.5 -11.5t13.5 -31.5q0 -23 -19.5 -67t-19.5 -50q0 -7 11 -7q19 0 77 35v-30z" />
    <glyph glyph-name="Agrave" unicode="&#xc0;" 
d="M576 683q-38 14 -77 14q-49 0 -93.5 -28t-76.5 -73.5t-56 -100.5t-35.5 -110t-11.5 -102q0 -24 4 -47.5t19.5 -46t41.5 -22.5q21 0 47.5 19.5t38.5 34t32 40.5q10 224 167 422zM758 -65h-490q-25 0 -42.5 -17t-17.5 -42q0 -40 38 -55l-2 -19q-22 -2 -34 -2
q-77 0 -143.5 45.5t-66.5 121.5q0 71 62 120q17 13 30 19q20 -30 52 -50q38 -24 80 -24q84 0 177 99q32 -99 127 -99t209 104h21v-201zM755 714q-12 -13 -34 -41q-70 -87 -113 -207.5t-50 -236.5q0 -66 48 -70q18 0 36.5 9.5t28.5 17.5t34.5 32t31.5 31l5 -77
q-46 -49 -102.5 -85t-110.5 -36q-49 0 -78.5 33.5t-38.5 87.5q-102 -121 -188 -121q-74 0 -113.5 65t-39.5 147q0 128 54.5 239.5t160.5 181.5t241 70q117 0 228 -40zM560 795l-26 -12q-112 74 -158 166l107 18q0 -68 77 -172z" />
    <glyph glyph-name="Aacute" unicode="&#xc1;" 
d="M576 683q-38 14 -77 14q-49 0 -93.5 -28t-76.5 -73.5t-56 -100.5t-35.5 -110t-11.5 -102q0 -24 4 -47.5t19.5 -46t41.5 -22.5q21 0 47.5 19.5t38.5 34t32 40.5q10 224 167 422zM758 -65h-490q-25 0 -42.5 -17t-17.5 -42q0 -40 38 -55l-2 -19q-22 -2 -34 -2
q-77 0 -143.5 45.5t-66.5 121.5q0 71 62 120q17 13 30 19q20 -30 52 -50q38 -24 80 -24q84 0 177 99q32 -99 127 -99t209 104h21v-201zM755 714q-12 -13 -34 -41q-70 -87 -113 -207.5t-50 -236.5q0 -66 48 -70q18 0 36.5 9.5t28.5 17.5t34.5 32t31.5 31l5 -77
q-46 -49 -102.5 -85t-110.5 -36q-49 0 -78.5 33.5t-38.5 87.5q-102 -121 -188 -121q-74 0 -113.5 65t-39.5 147q0 128 54.5 239.5t160.5 181.5t241 70q117 0 228 -40zM558 945l110 13q-8 -53 -58.5 -100.5t-111.5 -74.5l-37 9q75 82 97 153z" />
    <glyph glyph-name="Acircumflex" unicode="&#xc2;" 
d="M576 683q-38 14 -77 14q-49 0 -93.5 -28t-76.5 -73.5t-56 -100.5t-35.5 -110t-11.5 -102q0 -24 4 -47.5t19.5 -46t41.5 -22.5q21 0 47.5 19.5t38.5 34t32 40.5q10 224 167 422zM758 -65h-490q-25 0 -42.5 -17t-17.5 -42q0 -40 38 -55l-2 -19q-22 -2 -34 -2
q-77 0 -143.5 45.5t-66.5 121.5q0 71 62 120q17 13 30 19q20 -30 52 -50q38 -24 80 -24q84 0 177 99q32 -99 127 -99t209 104h21v-201zM755 714q-12 -13 -34 -41q-70 -87 -113 -207.5t-50 -236.5q0 -66 48 -70q18 0 36.5 9.5t28.5 17.5t34.5 32t31.5 31l5 -77
q-46 -49 -102.5 -85t-110.5 -36q-49 0 -78.5 33.5t-38.5 87.5q-102 -121 -188 -121q-74 0 -113.5 65t-39.5 147q0 128 54.5 239.5t160.5 181.5t241 70q117 0 228 -40zM681 809l-5 -20q-96 7 -127 108q-58 -77 -175 -114l6 29q89 55 146 155l109 20q-2 -38 -2 -57
q0 -81 48 -121z" />
    <glyph glyph-name="Atilde" unicode="&#xc3;" 
d="M576 683q-38 14 -77 14q-49 0 -93.5 -28t-76.5 -73.5t-56 -100.5t-35.5 -110t-11.5 -102q0 -24 4 -47.5t19.5 -46t41.5 -22.5q21 0 47.5 19.5t38.5 34t32 40.5q10 224 167 422zM758 -65h-490q-25 0 -42.5 -17t-17.5 -42q0 -40 38 -55l-2 -19q-22 -2 -34 -2
q-77 0 -143.5 45.5t-66.5 121.5q0 71 62 120q17 13 30 19q20 -30 52 -50q38 -24 80 -24q84 0 177 99q32 -99 127 -99t209 104h21v-201zM755 714q-12 -13 -34 -41q-70 -87 -113 -207.5t-50 -236.5q0 -66 48 -70q18 0 36.5 9.5t28.5 17.5t34.5 32t31.5 31l5 -77
q-46 -49 -102.5 -85t-110.5 -36q-49 0 -78.5 33.5t-38.5 87.5q-102 -121 -188 -121q-74 0 -113.5 65t-39.5 147q0 128 54.5 239.5t160.5 181.5t241 70q117 0 228 -40zM704 872q-21 -40 -46 -61.5t-63 -21.5q-25 0 -67.5 18.5t-61.5 18.5q-29 0 -51 -33l-28 17q10 21 16.5 32
t19.5 27t30.5 24.5t39.5 9.5q18 0 65.5 -19t69.5 -19q15 0 24 7t22 25z" />
    <glyph glyph-name="Adieresis" unicode="&#xc4;" 
d="M576 683q-38 14 -77 14q-49 0 -93.5 -28t-76.5 -73.5t-56 -100.5t-35.5 -110t-11.5 -102q0 -24 4 -47.5t19.5 -46t41.5 -22.5q21 0 47.5 19.5t38.5 34t32 40.5q10 224 167 422zM758 -65h-490q-25 0 -42.5 -17t-17.5 -42q0 -40 38 -55l-2 -19q-22 -2 -34 -2
q-77 0 -143.5 45.5t-66.5 121.5q0 71 62 120q17 13 30 19q20 -30 52 -50q38 -24 80 -24q84 0 177 99q32 -99 127 -99t209 104h21v-201zM755 714q-12 -13 -34 -41q-70 -87 -113 -207.5t-50 -236.5q0 -66 48 -70q18 0 36.5 9.5t28.5 17.5t34.5 32t31.5 31l5 -77
q-46 -49 -102.5 -85t-110.5 -36q-49 0 -78.5 33.5t-38.5 87.5q-102 -121 -188 -121q-74 0 -113.5 65t-39.5 147q0 128 54.5 239.5t160.5 181.5t241 70q117 0 228 -40zM518 859l-2 -10q-13 -66 -62 -66q-32 0 -69 31q22 32 39 82q50 -33 84 -36zM660 859l-2 -10
q-13 -66 -61 -66q-32 0 -69 31q20 29 38 82q52 -33 84 -36z" />
    <glyph glyph-name="Aring" unicode="&#xc5;" 
d="M576 683q-38 14 -77 14q-49 0 -93.5 -28t-76.5 -73.5t-56 -100.5t-35.5 -110t-11.5 -102q0 -24 4 -47.5t19.5 -46t41.5 -22.5q21 0 47.5 19.5t38.5 34t32 40.5q10 224 167 422zM758 -65h-490q-25 0 -42.5 -17t-17.5 -42q0 -40 38 -55l-2 -19q-22 -2 -34 -2
q-77 0 -143.5 45.5t-66.5 121.5q0 71 62 120q17 13 30 19q20 -30 52 -50q38 -24 80 -24q84 0 177 99q32 -99 127 -99t209 104h21v-201zM755 714q-12 -13 -34 -41q-70 -87 -113 -207.5t-50 -236.5q0 -66 48 -70q18 0 36.5 9.5t28.5 17.5t34.5 32t31.5 31l5 -77
q-46 -49 -102.5 -85t-110.5 -36q-49 0 -78.5 33.5t-38.5 87.5q-102 -121 -188 -121q-74 0 -113.5 65t-39.5 147q0 128 54.5 239.5t160.5 181.5t241 70q117 0 228 -40zM589 821q0 18 -12.5 31t-30.5 13t-31 -13t-13 -31t13 -30.5t31 -12.5t30.5 12.5t12.5 30.5zM628 821
q0 -34 -24 -58t-58 -24t-58 24t-24 58t24 58t58 24t58 -24t24 -58z" />
    <glyph glyph-name="AE" unicode="&#xc6;" horiz-adv-x="842" 
d="M510 442q-77 45 -77 121q0 70 60 125q-31 9 -61 9q-61 0 -114 -43t-86.5 -107.5t-52.5 -134.5t-19 -129q0 -17 2.5 -34t9 -37t20.5 -32.5t34 -12.5q40 0 98 69q0 74 52 126t134 80zM842 -65h-574q-25 0 -42.5 -17t-17.5 -42q0 -40 38 -55l-2 -19q-22 -2 -33 -2
q-48 0 -95.5 18.5t-81.5 58t-34 91.5q0 62 51 109q45 -45 107 -45q86 0 180 102q36 -52 98.5 -79t131.5 -27q128 0 257 108h17v-201zM842 175q-144 -127 -273 -127q-73 0 -135.5 30.5t-91.5 88.5q-99 -116 -184 -116q-74 0 -113.5 65t-39.5 147q0 73 23 151.5t59 136.5
q127 203 373 203q58 0 128 -13q43 15 89 15q55 0 96.5 -25t52.5 -77l-79 -89q0 43 -19.5 87.5t-59.5 44.5t-67 -46t-27 -95q0 -33 20 -51t38 -21.5t60 -5.5q7 -1 11 -1l-25 -89q-40 7 -67 7q-55 0 -92 -36.5t-37 -93.5q0 -55 39.5 -96t98.5 -41q57 0 106.5 32.5t102.5 88.5z
" />
    <glyph glyph-name="Ccedilla" unicode="&#xc7;" horiz-adv-x="618" 
d="M259 -42q0 -7 -2 -13t-7.5 -10.5t-10 -7.5t-13 -5.5t-13.5 -3.5t-15.5 -2t-14 -1t-14 -0.5t-11.5 -0.5l-9 -73h71q9 -14 26 -20l-3 -19q-22 -2 -33 -2q-77 0 -143.5 45.5t-66.5 121.5q0 48 30.5 87.5t77.5 59.5q51 -52 131 -73l-53 -54l44 -10q27 -9 29 -19zM618 -65
h-227q7 17 7 38q0 36 -27 60q16 2 23 4q107 20 199 99h25v-201zM602 169q-129 -114 -272 -120l-13 -13q28 -4 45 -21.5t17 -42.5q0 -48 -49 -80t-104 -32h-56l5 35q21 1 35 3t32 8t27 19.5t9 33.5q0 7 -1.5 12.5t-5 9l-6 6t-9.5 4.5t-9.5 2.5t-11.5 2.5t-11 2l54 54
q-30 5 -55 13q-66 22 -109 70.5t-54 115.5q-5 35 -5 64q0 70 27.5 146.5t74 141.5t115.5 107.5t144 42.5q71 0 119.5 -46t48.5 -120q0 -77 -52 -143.5t-130 -66.5q-37 0 -64 20t-27 56q0 45 25 68q1 -2 5 -9l6 -10.5t6 -8.5t8.5 -7.5t9.5 -3.5q44 0 72.5 48.5t28.5 98.5
q0 28 -13.5 49t-41.5 21q-58 0 -108 -65.5t-74 -144t-24 -135.5q0 -83 51 -152t137 -69q41 0 80.5 19.5t63.5 41t59 59.5v-84z" />
    <glyph glyph-name="Egrave" unicode="&#xc8;" horiz-adv-x="597" 
d="M597 -65h-329q-25 0 -42.5 -17t-17.5 -42q0 -40 38 -55l-3 -19q-22 -2 -34 -2q-77 0 -143 45.5t-66 121.5q0 43 26.5 82t67.5 58q38 -38 93.5 -59t113.5 -21q125 0 260 109h36v-201zM578 175q-144 -127 -273 -127q-57 0 -111.5 20.5t-94.5 66t-40 106.5q0 72 54 125
t133 76q-77 44 -77 121q0 84 76.5 138.5t168.5 54.5q55 0 95.5 -25t51.5 -77l-78 -89q0 18 -4 38.5t-12.5 42.5t-25 36.5t-38.5 14.5q-39 0 -66 -45.5t-27 -94.5q0 -34 20.5 -52t38.5 -21t61 -6q6 -1 9 -1l-25 -89q-40 7 -67 7q-55 0 -92 -37t-37 -94q0 -55 39.5 -95.5
t97.5 -40.5t107.5 32.5t102.5 88.5zM459 795l-26 -12q-112 74 -158 166l107 18q0 -68 77 -172z" />
    <glyph glyph-name="Eacute" unicode="&#xc9;" horiz-adv-x="597" 
d="M597 -65h-329q-25 0 -42.5 -17t-17.5 -42q0 -40 38 -55l-3 -19q-22 -2 -34 -2q-77 0 -143 45.5t-66 121.5q0 43 26.5 82t67.5 58q38 -38 93.5 -59t113.5 -21q125 0 260 109h36v-201zM578 175q-144 -127 -273 -127q-57 0 -111.5 20.5t-94.5 66t-40 106.5q0 72 54 125
t133 76q-77 44 -77 121q0 84 76.5 138.5t168.5 54.5q55 0 95.5 -25t51.5 -77l-78 -89q0 18 -4 38.5t-12.5 42.5t-25 36.5t-38.5 14.5q-39 0 -66 -45.5t-27 -94.5q0 -34 20.5 -52t38.5 -21t61 -6q6 -1 9 -1l-25 -89q-40 7 -67 7q-55 0 -92 -37t-37 -94q0 -55 39.5 -95.5
t97.5 -40.5t107.5 32.5t102.5 88.5zM432 945l110 13q-8 -53 -58.5 -100.5t-111.5 -74.5l-37 9q75 82 97 153z" />
    <glyph glyph-name="Ecircumflex" unicode="&#xca;" horiz-adv-x="597" 
d="M597 -65h-329q-25 0 -42.5 -17t-17.5 -42q0 -40 38 -55l-3 -19q-22 -2 -34 -2q-77 0 -143 45.5t-66 121.5q0 43 26.5 82t67.5 58q38 -38 93.5 -59t113.5 -21q125 0 260 109h36v-201zM578 175q-144 -127 -273 -127q-57 0 -111.5 20.5t-94.5 66t-40 106.5q0 72 54 125
t133 76q-77 44 -77 121q0 84 76.5 138.5t168.5 54.5q55 0 95.5 -25t51.5 -77l-78 -89q0 18 -4 38.5t-12.5 42.5t-25 36.5t-38.5 14.5q-39 0 -66 -45.5t-27 -94.5q0 -34 20.5 -52t38.5 -21t61 -6q6 -1 9 -1l-25 -89q-40 7 -67 7q-55 0 -92 -37t-37 -94q0 -55 39.5 -95.5
t97.5 -40.5t107.5 32.5t102.5 88.5zM567 809l-5 -20q-96 7 -127 108q-58 -77 -175 -114l6 29q89 55 146 155l109 20q-2 -38 -2 -57q0 -81 48 -121z" />
    <glyph glyph-name="Edieresis" unicode="&#xcb;" horiz-adv-x="597" 
d="M597 -65h-329q-25 0 -42.5 -17t-17.5 -42q0 -40 38 -55l-3 -19q-22 -2 -34 -2q-77 0 -143 45.5t-66 121.5q0 43 26.5 82t67.5 58q38 -38 93.5 -59t113.5 -21q125 0 260 109h36v-201zM578 175q-144 -127 -273 -127q-57 0 -111.5 20.5t-94.5 66t-40 106.5q0 72 54 125
t133 76q-77 44 -77 121q0 84 76.5 138.5t168.5 54.5q55 0 95.5 -25t51.5 -77l-78 -89q0 18 -4 38.5t-12.5 42.5t-25 36.5t-38.5 14.5q-39 0 -66 -45.5t-27 -94.5q0 -34 20.5 -52t38.5 -21t61 -6q6 -1 9 -1l-25 -89q-40 7 -67 7q-55 0 -92 -37t-37 -94q0 -55 39.5 -95.5
t97.5 -40.5t107.5 32.5t102.5 88.5zM398 859l-2 -10q-13 -66 -62 -66q-32 0 -69 31q22 32 39 82q50 -33 84 -36zM540 859l-2 -10q-13 -66 -61 -66q-32 0 -69 31q20 29 38 82q52 -33 84 -36z" />
    <glyph glyph-name="Igrave" unicode="&#xcc;" horiz-adv-x="528" 
d="M528 -65h-260q-25 0 -42 -17t-17 -42q0 -40 37 -55l-2 -19q-22 -2 -33 -2q-48 0 -95.5 18.5t-81.5 58t-34 91.5q0 60 48 107q51 -42 135 -42q137 0 223 103h122v-201zM225 136q-16 -13 -36 -13q-14 0 -22 9q28 4 44 4h14zM607 725q-7 -9 -25 -31t-27.5 -34.5t-21.5 -34.5
t-18 -43q-11 -39 -23.5 -107t-21.5 -119.5t-30.5 -111.5t-51 -99.5t-82 -66t-124.5 -26.5q-66 0 -112 30.5t-52 92.5l117 89q-3 -42 -3 -58q0 -102 56 -102q33 0 57 23.5t37.5 65t21 80t14 86.5t11.5 67q10 42 34 83t40 60.5t58 68.5q-4 0 -14.5 -2.5t-19.5 -2.5
q-19 0 -57.5 8.5t-55.5 8.5q-28 0 -51.5 -20t-23.5 -50q0 -34 60 -71l-70 -73q-67 39 -67 110q0 75 65 142q29 30 69 47.5t78 17.5q19 0 56.5 -11t57.5 -11q30 0 64 25zM490 795l-26 -12q-112 74 -158 166l107 18q0 -68 77 -172z" />
    <glyph glyph-name="Iacute" unicode="&#xcd;" horiz-adv-x="528" 
d="M528 -65h-260q-25 0 -42 -17t-17 -42q0 -40 37 -55l-2 -19q-22 -2 -33 -2q-48 0 -95.5 18.5t-81.5 58t-34 91.5q0 60 48 107q51 -42 135 -42q137 0 223 103h122v-201zM225 136q-16 -13 -36 -13q-14 0 -22 9q28 4 44 4h14zM607 725q-7 -9 -25 -31t-27.5 -34.5t-21.5 -34.5
t-18 -43q-11 -39 -23.5 -107t-21.5 -119.5t-30.5 -111.5t-51 -99.5t-82 -66t-124.5 -26.5q-66 0 -112 30.5t-52 92.5l117 89q-3 -42 -3 -58q0 -102 56 -102q33 0 57 23.5t37.5 65t21 80t14 86.5t11.5 67q10 42 34 83t40 60.5t58 68.5q-4 0 -14.5 -2.5t-19.5 -2.5
q-19 0 -57.5 8.5t-55.5 8.5q-28 0 -51.5 -20t-23.5 -50q0 -34 60 -71l-70 -73q-67 39 -67 110q0 75 65 142q29 30 69 47.5t78 17.5q19 0 56.5 -11t57.5 -11q30 0 64 25zM415 945l110 13q-8 -53 -58.5 -100.5t-111.5 -74.5l-37 9q75 82 97 153z" />
    <glyph glyph-name="Icircumflex" unicode="&#xce;" horiz-adv-x="528" 
d="M528 -65h-260q-25 0 -42 -17t-17 -42q0 -40 37 -55l-2 -19q-22 -2 -33 -2q-48 0 -95.5 18.5t-81.5 58t-34 91.5q0 60 48 107q51 -42 135 -42q137 0 223 103h122v-201zM225 136q-16 -13 -36 -13q-14 0 -22 9q28 4 44 4h14zM607 725q-7 -9 -25 -31t-27.5 -34.5t-21.5 -34.5
t-18 -43q-11 -39 -23.5 -107t-21.5 -119.5t-30.5 -111.5t-51 -99.5t-82 -66t-124.5 -26.5q-66 0 -112 30.5t-52 92.5l117 89q-3 -42 -3 -58q0 -102 56 -102q33 0 57 23.5t37.5 65t21 80t14 86.5t11.5 67q10 42 34 83t40 60.5t58 68.5q-4 0 -14.5 -2.5t-19.5 -2.5
q-19 0 -57.5 8.5t-55.5 8.5q-28 0 -51.5 -20t-23.5 -50q0 -34 60 -71l-70 -73q-67 39 -67 110q0 75 65 142q29 30 69 47.5t78 17.5q19 0 56.5 -11t57.5 -11q30 0 64 25zM551 809l-5 -20q-96 7 -127 108q-58 -77 -175 -114l6 29q89 55 146 155l109 20q-2 -38 -2 -57
q0 -81 48 -121z" />
    <glyph glyph-name="Idieresis" unicode="&#xcf;" horiz-adv-x="528" 
d="M528 -65h-260q-25 0 -42 -17t-17 -42q0 -40 37 -55l-2 -19q-22 -2 -33 -2q-48 0 -95.5 18.5t-81.5 58t-34 91.5q0 60 48 107q51 -42 135 -42q137 0 223 103h122v-201zM225 136q-16 -13 -36 -13q-14 0 -22 9q28 4 44 4h14zM607 725q-7 -9 -25 -31t-27.5 -34.5t-21.5 -34.5
t-18 -43q-11 -39 -23.5 -107t-21.5 -119.5t-30.5 -111.5t-51 -99.5t-82 -66t-124.5 -26.5q-66 0 -112 30.5t-52 92.5l117 89q-3 -42 -3 -58q0 -102 56 -102q33 0 57 23.5t37.5 65t21 80t14 86.5t11.5 67q10 42 34 83t40 60.5t58 68.5q-4 0 -14.5 -2.5t-19.5 -2.5
q-19 0 -57.5 8.5t-55.5 8.5q-28 0 -51.5 -20t-23.5 -50q0 -34 60 -71l-70 -73q-67 39 -67 110q0 75 65 142q29 30 69 47.5t78 17.5q19 0 56.5 -11t57.5 -11q30 0 64 25zM409 859l-2 -10q-13 -66 -62 -66q-32 0 -69 31q22 32 39 82q50 -33 84 -36zM551 859l-2 -10
q-13 -66 -61 -66q-32 0 -69 31q20 29 38 82q52 -33 84 -36z" />
    <glyph glyph-name="Eth" unicode="&#xd0;" horiz-adv-x="810" 
d="M810 -65h-542q-24 0 -41.5 -17t-17.5 -42q0 -40 38 -55l-3 -19q-22 -2 -34 -2q-77 0 -143.5 46t-66.5 122q0 35 18.5 70t48.5 52q7 -28 30 -44.5t53 -16.5q43 0 105 36q80 -34 164 -34q144 0 264 105h127v-201zM481 754q85 0 159.5 -35.5t122.5 -104.5t48 -157
q0 -157 -117 -281.5t-276 -124.5q-89 0 -164 36q-63 -38 -103 -38q-27 0 -47 16.5t-20 43.5q0 23 14 42q33 45 108 45q35 0 77 -11q15 14 25 35.5t13 34.5t8 45t6 40h-62l9 39h60q9 50 20.5 84.5t33 69t58 58.5t89.5 39l34 -42q-11 -9 -20.5 -18.5t-16.5 -21.5t-12.5 -20.5
t-10 -24t-7 -23t-6 -25.5t-4.5 -24t-3.5 -26.5t-3.5 -25.5h73l-8 -39h-71q-16 -83 -60 -131q-24 -25 -64 -53q84 -35 124 -35q44 0 78.5 35t52 88.5t26 103.5t8.5 92q0 62 -20 118.5t-66.5 97.5t-112.5 41q-78 0 -146 -49t-68 -121q0 -52 82 -75l-119 -66q-74 39 -74 110
q0 45 29 92.5t72 81.5q105 84 252 84z" />
    <glyph glyph-name="Ntilde" unicode="&#xd1;" horiz-adv-x="719" 
d="M719 -65h-451q-25 0 -42 -17t-17 -42q0 -40 37 -55l-2 -19q-22 -2 -33 -2q-48 0 -95.5 18.5t-81.5 58t-34 91.5q0 48 31 88q33 -24 77 -24q51 0 96.5 29t70.5 75h154q2 -36 2 -53q0 -23 -1 -34q0 -20 17 -20l127 16q26 46 45 91h100v-201zM829 643q-52 -2 -76 -23.5
t-40 -74.5q-13 -44 -31 -132q-42 -215 -121 -352l-112 -13q1 14 1 41q0 79 -18 161q-33 159 -48 286q-8 -27 -31 -110.5t-37 -129.5q-12 -41 -20.5 -65.5t-27 -63t-38.5 -60.5t-52 -39t-71 -17q-48 0 -74.5 28.5t-31.5 77.5l107 95l2 -24q1 -25 2.5 -34.5t6 -27.5t14 -27
t22.5 -11q63 0 124 232q2 7 3 10q74 281 107 372l124 16q14 -199 37 -327q28 -151 32 -191q18 44 50 200q2 8 7 34t8.5 42.5t10 45t13 47.5t16 43.5t20 40.5t23.5 31t28.5 22.5t33.5 7.5q24 0 40.5 -11.5t16.5 -35.5q0 -26 -20 -64zM776 870q-21 -40 -46 -61.5t-63 -21.5
q-25 0 -67.5 18.5t-61.5 18.5q-29 0 -51 -33l-28 17q10 21 16.5 32t19.5 27t30.5 24.5t39.5 9.5q18 0 65.5 -19t69.5 -19q15 0 24 7t22 25z" />
    <glyph glyph-name="Ograve" unicode="&#xd2;" horiz-adv-x="666" 
d="M666 -65h-398q-25 0 -42 -17t-17 -42q0 -40 37 -55l-2 -19q-22 -2 -33 -2q-48 0 -95.5 18.5t-81.5 58t-34 91.5q0 49 32 87.5t83 61.5q24 -40 66.5 -64t89.5 -24q103 0 215 107h180v-201zM338 156q60 0 116.5 51t93 124.5t58.5 151t22 134.5q0 77 -41 77q-33 0 -69.5 -47
t-36.5 -96q0 -22 10 -34.5t21.5 -15t30.5 -3.5q-17 -89 -82 -89q-37 0 -59.5 28t-22.5 68q0 81 62 166t133 85q60 0 85.5 -41t25.5 -101q0 -76 -34.5 -169t-70.5 -157q-28 -50 -71.5 -101t-109.5 -95t-127 -44q-80 0 -127.5 64.5t-47.5 151.5q0 130 66 257t174 216l155 31
q-57 -57 -95 -102.5t-74.5 -105t-54 -127.5t-17.5 -146q0 -65 24.5 -98t62.5 -33zM569 795l-26 -12q-112 74 -158 166l107 18q0 -68 77 -172z" />
    <glyph glyph-name="Oacute" unicode="&#xd3;" horiz-adv-x="666" 
d="M666 -65h-398q-25 0 -42 -17t-17 -42q0 -40 37 -55l-2 -19q-22 -2 -33 -2q-48 0 -95.5 18.5t-81.5 58t-34 91.5q0 49 32 87.5t83 61.5q24 -40 66.5 -64t89.5 -24q103 0 215 107h180v-201zM338 156q60 0 116.5 51t93 124.5t58.5 151t22 134.5q0 77 -41 77q-33 0 -69.5 -47
t-36.5 -96q0 -22 10 -34.5t21.5 -15t30.5 -3.5q-17 -89 -82 -89q-37 0 -59.5 28t-22.5 68q0 81 62 166t133 85q60 0 85.5 -41t25.5 -101q0 -76 -34.5 -169t-70.5 -157q-28 -50 -71.5 -101t-109.5 -95t-127 -44q-80 0 -127.5 64.5t-47.5 151.5q0 130 66 257t174 216l155 31
q-57 -57 -95 -102.5t-74.5 -105t-54 -127.5t-17.5 -146q0 -65 24.5 -98t62.5 -33zM529 945l110 13q-8 -53 -58.5 -100.5t-111.5 -74.5l-37 9q75 82 97 153z" />
    <glyph glyph-name="Ocircumflex" unicode="&#xd4;" horiz-adv-x="666" 
d="M666 -65h-398q-25 0 -42 -17t-17 -42q0 -40 37 -55l-2 -19q-22 -2 -33 -2q-48 0 -95.5 18.5t-81.5 58t-34 91.5q0 49 32 87.5t83 61.5q24 -40 66.5 -64t89.5 -24q103 0 215 107h180v-201zM338 156q60 0 116.5 51t93 124.5t58.5 151t22 134.5q0 77 -41 77q-33 0 -69.5 -47
t-36.5 -96q0 -22 10 -34.5t21.5 -15t30.5 -3.5q-17 -89 -82 -89q-37 0 -59.5 28t-22.5 68q0 81 62 166t133 85q60 0 85.5 -41t25.5 -101q0 -76 -34.5 -169t-70.5 -157q-28 -50 -71.5 -101t-109.5 -95t-127 -44q-80 0 -127.5 64.5t-47.5 151.5q0 130 66 257t174 216l155 31
q-57 -57 -95 -102.5t-74.5 -105t-54 -127.5t-17.5 -146q0 -65 24.5 -98t62.5 -33zM627 809l-5 -20q-96 7 -127 108q-58 -77 -175 -114l6 29q89 55 146 155l109 20q-2 -38 -2 -57q0 -81 48 -121z" />
    <glyph glyph-name="Otilde" unicode="&#xd5;" horiz-adv-x="666" 
d="M666 -65h-398q-25 0 -42 -17t-17 -42q0 -40 37 -55l-2 -19q-22 -2 -33 -2q-48 0 -95.5 18.5t-81.5 58t-34 91.5q0 49 32 87.5t83 61.5q24 -40 66.5 -64t89.5 -24q103 0 215 107h180v-201zM338 156q60 0 116.5 51t93 124.5t58.5 151t22 134.5q0 77 -41 77q-33 0 -69.5 -47
t-36.5 -96q0 -22 10 -34.5t21.5 -15t30.5 -3.5q-17 -89 -82 -89q-37 0 -59.5 28t-22.5 68q0 81 62 166t133 85q60 0 85.5 -41t25.5 -101q0 -76 -34.5 -169t-70.5 -157q-28 -50 -71.5 -101t-109.5 -95t-127 -44q-80 0 -127.5 64.5t-47.5 151.5q0 130 66 257t174 216l155 31
q-57 -57 -95 -102.5t-74.5 -105t-54 -127.5t-17.5 -146q0 -65 24.5 -98t62.5 -33zM648 870q-21 -40 -46 -61.5t-63 -21.5q-25 0 -67.5 18.5t-61.5 18.5q-29 0 -51 -33l-28 17q10 21 16.5 32t19.5 27t30.5 24.5t39.5 9.5q18 0 65.5 -19t69.5 -19q15 0 24 7t22 25z" />
    <glyph glyph-name="Odieresis" unicode="&#xd6;" horiz-adv-x="666" 
d="M666 -65h-398q-25 0 -42 -17t-17 -42q0 -40 37 -55l-2 -19q-22 -2 -33 -2q-48 0 -95.5 18.5t-81.5 58t-34 91.5q0 49 32 87.5t83 61.5q24 -40 66.5 -64t89.5 -24q103 0 215 107h180v-201zM338 156q60 0 116.5 51t93 124.5t58.5 151t22 134.5q0 77 -41 77q-33 0 -69.5 -47
t-36.5 -96q0 -22 10 -34.5t21.5 -15t30.5 -3.5q-17 -89 -82 -89q-37 0 -59.5 28t-22.5 68q0 81 62 166t133 85q60 0 85.5 -41t25.5 -101q0 -76 -34.5 -169t-70.5 -157q-28 -50 -71.5 -101t-109.5 -95t-127 -44q-80 0 -127.5 64.5t-47.5 151.5q0 130 66 257t174 216l155 31
q-57 -57 -95 -102.5t-74.5 -105t-54 -127.5t-17.5 -146q0 -65 24.5 -98t62.5 -33zM480 859l-2 -10q-13 -66 -62 -66q-32 0 -69 31q22 32 39 82q50 -33 84 -36zM622 859l-2 -10q-13 -66 -61 -66q-32 0 -69 31q20 29 38 82q52 -33 84 -36z" />
    <glyph glyph-name="Oslash" unicode="&#xd8;" horiz-adv-x="709" 
d="M661 603v17q0 23 -3 36l-107 -157q9 -1 25 -1q-9 -25 -17.5 -41t-26.5 -31.5t-42 -15.5l-163 -240q18 -14 44 -14q67 0 141 88q64 77 104.5 171.5t44.5 187.5zM636 691q-6 2 -7 2q-42 0 -76.5 -56.5t-34.5 -103.5q0 -8 1 -12zM710 -65h-442q-25 0 -42.5 -17t-17.5 -42
q0 -40 38 -55l-2 -19q-22 -2 -33 -2q-77 0 -144 45.5t-67 121.5q0 57 40.5 99t101.5 61q19 -34 47 -56l-33 -49q-3 -4 -3 -10t5 -12t10.5 -10t14 -9t10.5 -7q5 -3 10 -3q11 0 17 8l38 56q24 -6 47 -6q105 0 214 107h191v-201zM741 778l-47 -70q24 -35 24 -94
q0 -76 -34 -167.5t-71 -158.5q-27 -49 -71 -101t-110 -95.5t-126 -43.5q-30 0 -56 10l-46 -68l-32 21l43 64q-85 57 -85 190q0 129 66 256t174 216l155 31q-98 -98 -133 -146q-15 -21 -28 -42q-80 -136 -80 -293q3 -53 18 -85l150 220q-40 23 -40 83q0 81 62.5 165.5
t133.5 84.5q22 0 58 -19l43 63z" />
    <glyph glyph-name="Ugrave" unicode="&#xd9;" horiz-adv-x="750" 
d="M750 -65h-482q-25 0 -42.5 -17t-17.5 -42q0 -40 38 -55l-3 -19q-22 -2 -34 -2q-77 0 -143 45.5t-66 121.5q0 53 35 93t91 62q23 -43 52 -66t75 -23q91 0 168 102q16 -44 48.5 -73t78.5 -29q86 0 185 103h17v-201zM757 198q-109 -145 -210 -145q-49 0 -78 37t-38 95
q-78 -133 -179 -133q-58 0 -89.5 45.5t-31.5 109.5q0 23 3 46t11 53t11.5 43.5t16.5 51.5t14 42q3 10 19.5 55t24 75t7.5 59q0 24 -11 43.5t-32 19.5q-39 0 -70.5 -41.5t-31.5 -84.5q0 -58 55 -91l-80 -79l-8 8q-23 22 -33 34t-18.5 34t-8.5 50q0 84 66.5 157t149.5 73
q70 0 110.5 -54t40.5 -128q0 -17 -1.5 -35t-5 -38t-7 -36t-10 -38t-10 -34.5t-11.5 -35.5t-11 -31.5t-11.5 -31.5t-9.5 -27q-17 -51 -17 -83q0 -40 27 -40q76 0 142 219q12 42 32.5 119.5t39 140t39.5 117.5l147 17q-92 -313 -127 -517q-3 -24 -3 -38q0 -57 34 -57
q14 0 30.5 9.5t25.5 18t27 27.5t21 22zM484 736l-26 -12q-112 74 -158 166l107 18q0 -68 77 -172z" />
    <glyph glyph-name="Uacute" unicode="&#xda;" horiz-adv-x="750" 
d="M750 -65h-482q-25 0 -42.5 -17t-17.5 -42q0 -40 38 -55l-3 -19q-22 -2 -34 -2q-77 0 -143 45.5t-66 121.5q0 53 35 93t91 62q23 -43 52 -66t75 -23q91 0 168 102q16 -44 48.5 -73t78.5 -29q86 0 185 103h17v-201zM757 198q-109 -145 -210 -145q-49 0 -78 37t-38 95
q-78 -133 -179 -133q-58 0 -89.5 45.5t-31.5 109.5q0 23 3 46t11 53t11.5 43.5t16.5 51.5t14 42q3 10 19.5 55t24 75t7.5 59q0 24 -11 43.5t-32 19.5q-39 0 -70.5 -41.5t-31.5 -84.5q0 -58 55 -91l-80 -79l-8 8q-23 22 -33 34t-18.5 34t-8.5 50q0 84 66.5 157t149.5 73
q70 0 110.5 -54t40.5 -128q0 -17 -1.5 -35t-5 -38t-7 -36t-10 -38t-10 -34.5t-11.5 -35.5t-11 -31.5t-11.5 -31.5t-9.5 -27q-17 -51 -17 -83q0 -40 27 -40q76 0 142 219q12 42 32.5 119.5t39 140t39.5 117.5l147 17q-92 -313 -127 -517q-3 -24 -3 -38q0 -57 34 -57
q14 0 30.5 9.5t25.5 18t27 27.5t21 22zM465 909l110 13q-8 -53 -58.5 -100.5t-111.5 -74.5l-37 9q75 82 97 153z" />
    <glyph glyph-name="Ucircumflex" unicode="&#xdb;" horiz-adv-x="750" 
d="M750 -65h-482q-25 0 -42.5 -17t-17.5 -42q0 -40 38 -55l-3 -19q-22 -2 -34 -2q-77 0 -143 45.5t-66 121.5q0 53 35 93t91 62q23 -43 52 -66t75 -23q91 0 168 102q16 -44 48.5 -73t78.5 -29q86 0 185 103h17v-201zM757 198q-109 -145 -210 -145q-49 0 -78 37t-38 95
q-78 -133 -179 -133q-58 0 -89.5 45.5t-31.5 109.5q0 23 3 46t11 53t11.5 43.5t16.5 51.5t14 42q3 10 19.5 55t24 75t7.5 59q0 24 -11 43.5t-32 19.5q-39 0 -70.5 -41.5t-31.5 -84.5q0 -58 55 -91l-80 -79l-8 8q-23 22 -33 34t-18.5 34t-8.5 50q0 84 66.5 157t149.5 73
q70 0 110.5 -54t40.5 -128q0 -17 -1.5 -35t-5 -38t-7 -36t-10 -38t-10 -34.5t-11.5 -35.5t-11 -31.5t-11.5 -31.5t-9.5 -27q-17 -51 -17 -83q0 -40 27 -40q76 0 142 219q12 42 32.5 119.5t39 140t39.5 117.5l147 17q-92 -313 -127 -517q-3 -24 -3 -38q0 -57 34 -57
q14 0 30.5 9.5t25.5 18t27 27.5t21 22zM601 796l-5 -20q-96 7 -127 108q-58 -77 -175 -114l6 29q89 55 146 155l109 20q-2 -38 -2 -57q0 -81 48 -121z" />
    <glyph glyph-name="Udieresis" unicode="&#xdc;" horiz-adv-x="750" 
d="M750 -65h-482q-25 0 -42.5 -17t-17.5 -42q0 -40 38 -55l-3 -19q-22 -2 -34 -2q-77 0 -143 45.5t-66 121.5q0 53 35 93t91 62q23 -43 52 -66t75 -23q91 0 168 102q16 -44 48.5 -73t78.5 -29q86 0 185 103h17v-201zM757 198q-109 -145 -210 -145q-49 0 -78 37t-38 95
q-78 -133 -179 -133q-58 0 -89.5 45.5t-31.5 109.5q0 23 3 46t11 53t11.5 43.5t16.5 51.5t14 42q3 10 19.5 55t24 75t7.5 59q0 24 -11 43.5t-32 19.5q-39 0 -70.5 -41.5t-31.5 -84.5q0 -58 55 -91l-80 -79l-8 8q-23 22 -33 34t-18.5 34t-8.5 50q0 84 66.5 157t149.5 73
q70 0 110.5 -54t40.5 -128q0 -17 -1.5 -35t-5 -38t-7 -36t-10 -38t-10 -34.5t-11.5 -35.5t-11 -31.5t-11.5 -31.5t-9.5 -27q-17 -51 -17 -83q0 -40 27 -40q76 0 142 219q12 42 32.5 119.5t39 140t39.5 117.5l147 17q-92 -313 -127 -517q-3 -24 -3 -38q0 -57 34 -57
q14 0 30.5 9.5t25.5 18t27 27.5t21 22zM438 833l-2 -10q-13 -66 -62 -66q-32 0 -69 31q22 32 39 82q50 -33 84 -36zM580 833l-2 -10q-13 -66 -61 -66q-32 0 -69 31q20 29 38 82q52 -33 84 -36z" />
    <glyph glyph-name="Yacute" unicode="&#xdd;" horiz-adv-x="782" 
d="M403 -20q-7 -20 -20 -45h-45q8 9 29 25q24 14 36 20zM434 15q-131 -53 -131 -116q0 -26 31 -26q58 0 100 142zM445 136l-10 -42q-39 -14 -66.5 -26.5t-58.5 -33t-51 -48.5t-27 -63q-23 -18 -23 -47q0 -40 37 -55l-2 -19q-22 -2 -33 -2q-48 0 -95.5 18.5t-81.5 58
t-34 91.5q0 54 39.5 96.5t97.5 60.5q25 -84 132 -85q83 0 158 96h18zM785 200q-35 -54 -74.5 -78t-119.5 -52q-16 -43 -36.5 -81.5t-51.5 -80t-73 -66t-89 -24.5q-40 0 -66.5 20t-26.5 57q0 36 16.5 65t49.5 51.5t62.5 36.5t74.5 31q20 81 62 243q-18 -42 -40 -81
t-53.5 -83.5t-71 -71.5t-79.5 -27q-121 0 -121 131q0 76 52.5 237t52.5 207q0 27 -12.5 43t-33.5 16q-39 0 -70.5 -40.5t-31.5 -81.5q0 -57 55 -93l-80 -79q-24 23 -36 38t-22 39t-10 53q0 84 67 156.5t147 72.5q65 0 113 -55q42 -47 42 -131q0 -25 -4 -54t-9 -51.5t-15 -56
t-15 -49t-17 -50t-14 -40.5q0 -1 -3.5 -10.5t-6.5 -19.5t-6.5 -22.5t-5.5 -25.5t-2 -23q0 -34 24 -34q77 0 211 344q78 197 96 264l146 16q-14 -60 -42.5 -193.5t-52.5 -234.5t-50 -191q43 19 69 36.5t51 47.5zM782 -65h-235q34 56 59 120q103 36 151 81h25v-201zM496 875
l110 13q-8 -53 -58.5 -100.5t-111.5 -74.5l-37 9q75 82 97 153z" />
    <glyph glyph-name="Thorn" unicode="&#xde;" horiz-adv-x="746" 
d="M746 -65h-419q-25 0 -42.5 -17t-17.5 -42q0 -40 38 -55l-2 -19q-22 -2 -34 -2q-78 0 -144 45.5t-66 122.5q0 34 16 65q33 -12 71 -12q135 0 234 115h366v-201zM558 584q82 0 134.5 -56.5t52.5 -142.5q0 -91 -58 -155.5t-150 -64.5q-57 0 -114 51l51 75l35 -8
q9 -61 28 -61q32 0 48 67t16 123q0 47 -14 76t-57 29q-28 0 -68 -10q-2 -17 -4.5 -60.5t-5.5 -66.5q-8 -65 -30 -123t-58 -108t-92.5 -79.5t-125.5 -29.5q-65 0 -97.5 29t-48.5 93l149 106q-23 -79 -23 -118q0 -56 40 -56q41 0 68.5 41.5t42.5 91.5q13 46 20.5 126.5
t13 138.5t37 120t90.5 95q33 19 63 28l36 -40q-52 -53 -67 -126q45 15 88 15z" />
    <glyph glyph-name="germandbls" unicode="&#xdf;" horiz-adv-x="545" 
d="M393 319q0 91 -121 100l-44 -24q-14 -71 -24 -139l78 59q1 -4 1.5 -17.5t1.5 -23.5t4 -21.5t10.5 -18t18.5 -6.5q29 0 52 29t23 62zM394 602q0 19 -16 31t-36 12q-27 0 -47 -20.5t-28 -52.5q-9 -36 -25 -108q152 80 152 138zM545 -65h-545v201h35q-5 -48 -13 -157l171 28
q4 43 14 129h338v-201zM561 308v-45q-99 -87 -256 -87q-71 0 -108 37q-12 -84 -22 -189l-132 -22q13 179 35 308q-45 -38 -62 -47v45q7 5 13.5 10t13 11.5t11 10.5t11 12t9 11t9.5 12.5t9 11.5q32 150 86 265q15 5 60.5 22.5t79.5 26t67 8.5q44 0 81.5 -25t37.5 -68
q0 -29 -19.5 -57t-49.5 -47l-39 -24q52 -12 89 -45t37 -79q0 -45 -40 -96q26 6 79 40z" />
    <glyph glyph-name="agrave" unicode="&#xe0;" horiz-adv-x="520" 
d="M294 411q0 45 -30 45q-42 0 -78.5 -53.5t-36.5 -98.5q0 -42 33 -42q45 0 78.5 50t33.5 99zM520 -65h-520v201h520v-201zM536 263q-102 -90 -165 -90q-36 0 -59 24.5t-29 62.5q-30 -37 -71 -61t-83 -24q-49 0 -84 34t-35 85q0 84 78.5 146.5t166.5 64.5q56 -2 83 -39
q54 24 82 35q6 4 31 4h23q-3 -10 -23.5 -61t-32 -89t-11.5 -62q0 -40 29 -40q9 0 21 4.5t25 12.5t22 14t20 14.5t12 9.5v-45zM352 540l-26 -12q-112 74 -158 166l107 18q0 -68 77 -172z" />
    <glyph glyph-name="aacute" unicode="&#xe1;" horiz-adv-x="520" 
d="M294 411q0 45 -30 45q-42 0 -78.5 -53.5t-36.5 -98.5q0 -42 33 -42q45 0 78.5 50t33.5 99zM520 -65h-520v201h520v-201zM536 263q-102 -90 -165 -90q-36 0 -59 24.5t-29 62.5q-30 -37 -71 -61t-83 -24q-49 0 -84 34t-35 85q0 84 78.5 146.5t166.5 64.5q56 -2 83 -39
q54 24 82 35q6 4 31 4h23q-3 -10 -23.5 -61t-32 -89t-11.5 -62q0 -40 29 -40q9 0 21 4.5t25 12.5t22 14t20 14.5t12 9.5v-45zM280 690l110 13q-8 -53 -58.5 -100.5t-111.5 -74.5l-37 9q75 82 97 153z" />
    <glyph glyph-name="acircumflex" unicode="&#xe2;" horiz-adv-x="520" 
d="M294 411q0 45 -30 45q-42 0 -78.5 -53.5t-36.5 -98.5q0 -42 33 -42q45 0 78.5 50t33.5 99zM520 -65h-520v201h520v-201zM536 263q-102 -90 -165 -90q-36 0 -59 24.5t-29 62.5q-30 -37 -71 -61t-83 -24q-49 0 -84 34t-35 85q0 84 78.5 146.5t166.5 64.5q56 -2 83 -39
q54 24 82 35q6 4 31 4h23q-3 -10 -23.5 -61t-32 -89t-11.5 -62q0 -40 29 -40q9 0 21 4.5t25 12.5t22 14t20 14.5t12 9.5v-45zM413 554l-5 -20q-96 7 -127 108q-58 -77 -175 -114l6 29q89 55 146 155l109 20q-2 -38 -2 -57q0 -81 48 -121z" />
    <glyph glyph-name="atilde" unicode="&#xe3;" horiz-adv-x="520" 
d="M294 411q0 45 -30 45q-42 0 -78.5 -53.5t-36.5 -98.5q0 -42 33 -42q45 0 78.5 50t33.5 99zM520 -65h-520v201h520v-201zM536 263q-102 -90 -165 -90q-36 0 -59 24.5t-29 62.5q-30 -37 -71 -61t-83 -24q-49 0 -84 34t-35 85q0 84 78.5 146.5t166.5 64.5q56 -2 83 -39
q54 24 82 35q6 4 31 4h23q-3 -10 -23.5 -61t-32 -89t-11.5 -62q0 -40 29 -40q9 0 21 4.5t25 12.5t22 14t20 14.5t12 9.5v-45zM440 615q-21 -40 -46 -61.5t-63 -21.5q-25 0 -67.5 18.5t-61.5 18.5q-29 0 -51 -33l-28 17q10 21 16.5 32t19.5 27t30.5 24.5t39.5 9.5
q18 0 65.5 -19t69.5 -19q15 0 24 7t22 25z" />
    <glyph glyph-name="adieresis" unicode="&#xe4;" horiz-adv-x="520" 
d="M294 411q0 45 -30 45q-42 0 -78.5 -53.5t-36.5 -98.5q0 -42 33 -42q45 0 78.5 50t33.5 99zM520 -65h-520v201h520v-201zM536 263q-102 -90 -165 -90q-36 0 -59 24.5t-29 62.5q-30 -37 -71 -61t-83 -24q-49 0 -84 34t-35 85q0 84 78.5 146.5t166.5 64.5q56 -2 83 -39
q54 24 82 35q6 4 31 4h23q-3 -10 -23.5 -61t-32 -89t-11.5 -62q0 -40 29 -40q9 0 21 4.5t25 12.5t22 14t20 14.5t12 9.5v-45zM255 604l-2 -10q-13 -66 -62 -66q-32 0 -69 31q22 32 39 82q50 -33 84 -36zM397 604l-2 -10q-13 -66 -61 -66q-32 0 -69 31q20 29 38 82
q52 -33 84 -36z" />
    <glyph glyph-name="aring" unicode="&#xe5;" horiz-adv-x="520" 
d="M294 411q0 45 -30 45q-42 0 -78.5 -53.5t-36.5 -98.5q0 -42 33 -42q45 0 78.5 50t33.5 99zM520 -65h-520v201h520v-201zM536 263q-102 -90 -165 -90q-36 0 -59 24.5t-29 62.5q-30 -37 -71 -61t-83 -24q-49 0 -84 34t-35 85q0 84 78.5 146.5t166.5 64.5q56 -2 83 -39
q54 24 82 35q6 4 31 4h23q-3 -10 -23.5 -61t-32 -89t-11.5 -62q0 -40 29 -40q9 0 21 4.5t25 12.5t22 14t20 14.5t12 9.5v-45zM322 610q0 18 -12.5 31t-30.5 13t-31 -13t-13 -31t13 -30.5t31 -12.5t30.5 12.5t12.5 30.5zM361 610q0 -34 -24 -58t-58 -24t-58 24t-24 58t24 58
t58 24t58 -24t24 -58z" />
    <glyph glyph-name="ae" unicode="&#xe6;" horiz-adv-x="627" 
d="M274 412q0 44 -29 44q-41 0 -77 -53.5t-36 -98.5q0 -42 33 -42q42 0 75.5 52.5t33.5 97.5zM395 352q97 24 97 78q0 26 -22 26q-34 0 -53 -32.5t-22 -71.5zM627 -65h-616v201h616v-201zM643 308v-45q-57 -43 -103.5 -65.5t-103.5 -22.5q-53 0 -99 23t-63 70
q-30 -39 -72.5 -65t-85.5 -26q-48 0 -82 34.5t-34 85.5q0 83 77 145.5t164 64.5q58 -2 84 -42q6 3 25 16t34 20t29 7q11 0 32 -3l-2 -5q22 6 46 6q40 0 76 -21t36 -59q0 -73 -196 -122q8 -24 29.5 -37.5t49.5 -13.5q72 0 159 55z" />
    <glyph glyph-name="ccedilla" unicode="&#xe7;" horiz-adv-x="348" 
d="M348 -65h-348v201h93l-8 -8q-4 -4 -4 -9q0 -12 12 -15q3 -1 10.5 -2t11.5 -2.5t9.5 -4t8 -7t2.5 -10.5q0 -16 -8.5 -26t-25 -14.5t-27.5 -5.5t-29 -2q-13 -2 -13 -13q-5 -27 -5 -37q0 -6 5 -10.5t10 -4.5h56q58 0 112.5 34.5t54.5 91.5q0 25 -14 45h97v-201zM364 308v-45
q-39 -27 -54.5 -37t-44 -24.5t-54.5 -21.5l-23 -24q29 -5 46 -22t17 -42q0 -48 -49 -80t-104 -32h-56l4 35q21 1 35 3t32 8t27 19t9 33q0 10 -2.5 16.5t-10 10.5t-10.5 5.5t-15.5 4.5t-14.5 3l53 54q-9 0 -33 2q-60 6 -94 43.5t-34 89.5q0 83 69 139t157 56q44 0 76.5 -21
t32.5 -63v-15l-123 -35q11 40 11 56q0 30 -20 30q-33 0 -56.5 -37t-23.5 -73q0 -42 29.5 -66t74.5 -24q56 0 149 54z" />
    <glyph glyph-name="egrave" unicode="&#xe8;" horiz-adv-x="368" 
d="M136 352q97 24 97 78q0 26 -22 26q-34 0 -53 -32.5t-22 -71.5zM368 -65h-368v201h368v-201zM384 263q-55 -44 -102 -66t-106 -22q-64 0 -115.5 34t-51.5 96q0 80 68.5 140.5t152.5 60.5q40 0 76 -20.5t36 -58.5q0 -25 -20.5 -46.5t-58.5 -37t-60.5 -23t-56.5 -16.5
q29 -61 84 -61q53 0 154 65v-45zM276 540l-26 -12q-112 74 -158 166l107 18q0 -68 77 -172z" />
    <glyph glyph-name="eacute" unicode="&#xe9;" horiz-adv-x="368" 
d="M136 352q97 24 97 78q0 26 -22 26q-34 0 -53 -32.5t-22 -71.5zM368 -65h-368v201h368v-201zM384 263q-55 -44 -102 -66t-106 -22q-64 0 -115.5 34t-51.5 96q0 80 68.5 140.5t152.5 60.5q40 0 76 -20.5t36 -58.5q0 -25 -20.5 -46.5t-58.5 -37t-60.5 -23t-56.5 -16.5
q29 -61 84 -61q53 0 154 65v-45zM242 690l110 13q-8 -53 -58.5 -100.5t-111.5 -74.5l-37 9q75 82 97 153z" />
    <glyph glyph-name="ecircumflex" unicode="&#xea;" horiz-adv-x="368" 
d="M136 352q97 24 97 78q0 26 -22 26q-34 0 -53 -32.5t-22 -71.5zM368 -65h-368v201h368v-201zM384 263q-55 -44 -102 -66t-106 -22q-64 0 -115.5 34t-51.5 96q0 80 68.5 140.5t152.5 60.5q40 0 76 -20.5t36 -58.5q0 -25 -20.5 -46.5t-58.5 -37t-60.5 -23t-56.5 -16.5
q29 -61 84 -61q53 0 154 65v-45zM357 554l-5 -20q-96 7 -127 108q-58 -77 -175 -114l6 29q89 55 146 155l109 20q-2 -38 -2 -57q0 -81 48 -121z" />
    <glyph glyph-name="edieresis" unicode="&#xeb;" horiz-adv-x="368" 
d="M136 352q97 24 97 78q0 26 -22 26q-34 0 -53 -32.5t-22 -71.5zM368 -65h-368v201h368v-201zM384 263q-55 -44 -102 -66t-106 -22q-64 0 -115.5 34t-51.5 96q0 80 68.5 140.5t152.5 60.5q40 0 76 -20.5t36 -58.5q0 -25 -20.5 -46.5t-58.5 -37t-60.5 -23t-56.5 -16.5
q29 -61 84 -61q53 0 154 65v-45zM211 604l-2 -10q-13 -66 -62 -66q-32 0 -69 31q22 32 39 82q50 -33 84 -36zM353 604l-2 -10q-13 -66 -61 -66q-32 0 -69 31q20 29 38 82q52 -33 84 -36z" />
    <glyph glyph-name="igrave" unicode="&#xec;" horiz-adv-x="244" 
d="M244 -65h-244v201h244v-201zM260 308v-45q-33 -28 -52 -42.5t-51 -30t-59 -15.5q-41 0 -65.5 30t-24.5 74q0 32 10 72t18 61t28 71l148 23q-6 -18 -26 -64.5t-31 -83.5t-11 -68q0 -24 25 -24t91 42zM214 540l-26 -12q-112 74 -158 166l107 18q0 -68 77 -172z" />
    <glyph glyph-name="iacute" unicode="&#xed;" horiz-adv-x="244" 
d="M244 -65h-244v201h244v-201zM260 308v-45q-33 -28 -52 -42.5t-51 -30t-59 -15.5q-41 0 -65.5 30t-24.5 74q0 32 10 72t18 61t28 71l148 23q-6 -18 -26 -64.5t-31 -83.5t-11 -68q0 -24 25 -24t91 42zM164 690l110 13q-8 -53 -58.5 -100.5t-111.5 -74.5l-37 9q75 82 97 153
z" />
    <glyph glyph-name="icircumflex" unicode="&#xee;" horiz-adv-x="244" 
d="M244 -65h-244v201h244v-201zM260 308v-45q-33 -28 -52 -42.5t-51 -30t-59 -15.5q-41 0 -65.5 30t-24.5 74q0 32 10 72t18 61t28 71l148 23q-6 -18 -26 -64.5t-31 -83.5t-11 -68q0 -24 25 -24t91 42zM276 554l-5 -20q-96 7 -127 108q-58 -77 -175 -114l6 29q89 55 146 155
l109 20q-2 -38 -2 -57q0 -81 48 -121z" />
    <glyph glyph-name="idieresis" unicode="&#xef;" horiz-adv-x="244" 
d="M244 -65h-244v201h244v-201zM260 308v-45q-33 -28 -52 -42.5t-51 -30t-59 -15.5q-41 0 -65.5 30t-24.5 74q0 32 10 72t18 61t28 71l148 23q-6 -18 -26 -64.5t-31 -83.5t-11 -68q0 -24 25 -24t91 42zM138 604l-2 -10q-13 -66 -62 -66q-32 0 -69 31q22 32 39 82
q50 -33 84 -36zM280 604l-2 -10q-13 -66 -61 -66q-32 0 -69 31q20 29 38 82q52 -33 84 -36z" />
    <glyph glyph-name="eth" unicode="&#xf0;" horiz-adv-x="353" 
d="M267 407q0 51 -33 51q-40 0 -73.5 -51t-33.5 -96q0 -48 35 -48q44 0 74.5 47.5t30.5 96.5zM353 -65h-353v201h353v-201zM369 308v-45q-57 -44 -106.5 -65.5t-111.5 -21.5q-61 0 -111.5 33.5t-50.5 96.5q0 21 8 45q21 64 88 110t135 46q6 0 16.5 -1.5t13.5 -1.5
q-13 28 -32 54l-60 -31l-17 35l51 26q-25 26 -79 67l70 58q50 -39 86 -86l66 34l17 -34l-61 -32q50 -80 50 -163q0 -87 -55 -165q40 14 83 41z" />
    <glyph glyph-name="ntilde" unicode="&#xf1;" horiz-adv-x="473" 
d="M473 -65h-473v201h473v-201zM489 263q-3 -2 -21.5 -15.5t-25 -18t-24 -16t-27.5 -16.5t-25 -11.5t-28.5 -9t-26.5 -2.5q-36 0 -64 22t-28 57q0 30 26.5 86.5t26.5 73.5q0 3 -3 3q-28 0 -122 -98q-6 -36 -6 -70q0 -26 3 -55l-121 -19q-14 56 -14 106q0 80 59 206l139 23
q-26 -64 -37 -97q99 91 173 91q30 0 51 -16.5t21 -47.5q0 -35 -28 -100t-28 -75t15 -10q34 0 115 54v-45zM435 615q-21 -40 -46 -61.5t-63 -21.5q-25 0 -67.5 18.5t-61.5 18.5q-29 0 -51 -33l-28 17q10 21 16.5 32t19.5 27t30.5 24.5t39.5 9.5q18 0 65.5 -19t69.5 -19
q15 0 24 7t22 25z" />
    <glyph glyph-name="ograve" unicode="&#xf2;" horiz-adv-x="437" 
d="M256 279q-44 46 -44 98q0 49 40 85q-48 -3 -77 -45.5t-29 -94.5q0 -31 11.5 -54t36.5 -23q30 0 62 34zM437 -65h-437v201h437v-201zM453 263q-47 -31 -90 -31q-31 0 -63 16q-28 -33 -68.5 -52.5t-82.5 -19.5q-56 0 -98.5 38t-42.5 95q0 70 52.5 122t125.5 65q32 12 75 12
q105 0 105 -81q0 -57 -39 -135q23 -15 49 -15q30 0 77 31v-45zM310 540l-26 -12q-112 74 -158 166l107 18q0 -68 77 -172z" />
    <glyph glyph-name="oacute" unicode="&#xf3;" horiz-adv-x="437" 
d="M256 279q-44 46 -44 98q0 49 40 85q-48 -3 -77 -45.5t-29 -94.5q0 -31 11.5 -54t36.5 -23q30 0 62 34zM437 -65h-437v201h437v-201zM453 263q-47 -31 -90 -31q-31 0 -63 16q-28 -33 -68.5 -52.5t-82.5 -19.5q-56 0 -98.5 38t-42.5 95q0 70 52.5 122t125.5 65q32 12 75 12
q105 0 105 -81q0 -57 -39 -135q23 -15 49 -15q30 0 77 31v-45zM252 690l110 13q-8 -53 -58.5 -100.5t-111.5 -74.5l-37 9q75 82 97 153z" />
    <glyph glyph-name="ocircumflex" unicode="&#xf4;" horiz-adv-x="437" 
d="M256 279q-44 46 -44 98q0 49 40 85q-48 -3 -77 -45.5t-29 -94.5q0 -31 11.5 -54t36.5 -23q30 0 62 34zM437 -65h-437v201h437v-201zM453 263q-47 -31 -90 -31q-31 0 -63 16q-28 -33 -68.5 -52.5t-82.5 -19.5q-56 0 -98.5 38t-42.5 95q0 70 52.5 122t125.5 65q32 12 75 12
q105 0 105 -81q0 -57 -39 -135q23 -15 49 -15q30 0 77 31v-45zM393 554l-5 -20q-96 7 -127 108q-58 -77 -175 -114l6 29q89 55 146 155l109 20q-2 -38 -2 -57q0 -81 48 -121z" />
    <glyph glyph-name="otilde" unicode="&#xf5;" horiz-adv-x="437" 
d="M256 279q-44 46 -44 98q0 49 40 85q-48 -3 -77 -45.5t-29 -94.5q0 -31 11.5 -54t36.5 -23q30 0 62 34zM437 -65h-437v201h437v-201zM453 263q-47 -31 -90 -31q-31 0 -63 16q-28 -33 -68.5 -52.5t-82.5 -19.5q-56 0 -98.5 38t-42.5 95q0 70 52.5 122t125.5 65q32 12 75 12
q105 0 105 -81q0 -57 -39 -135q23 -15 49 -15q30 0 77 31v-45zM410 615q-21 -40 -46 -61.5t-63 -21.5q-25 0 -67.5 18.5t-61.5 18.5q-29 0 -51 -33l-28 17q10 21 16.5 32t19.5 27t30.5 24.5t39.5 9.5q18 0 65.5 -19t69.5 -19q15 0 24 7t22 25z" />
    <glyph glyph-name="odieresis" unicode="&#xf6;" horiz-adv-x="437" 
d="M256 279q-44 46 -44 98q0 49 40 85q-48 -3 -77 -45.5t-29 -94.5q0 -31 11.5 -54t36.5 -23q30 0 62 34zM437 -65h-437v201h437v-201zM453 263q-47 -31 -90 -31q-31 0 -63 16q-28 -33 -68.5 -52.5t-82.5 -19.5q-56 0 -98.5 38t-42.5 95q0 70 52.5 122t125.5 65q32 12 75 12
q105 0 105 -81q0 -57 -39 -135q23 -15 49 -15q30 0 77 31v-45zM250 604l-2 -10q-13 -66 -62 -66q-32 0 -69 31q22 32 39 82q50 -33 84 -36zM392 604l-2 -10q-13 -66 -61 -66q-32 0 -69 31q20 29 38 82q52 -33 84 -36z" />
    <glyph glyph-name="oslash" unicode="&#xf8;" horiz-adv-x="421" 
d="M234 279q-20 20 -33 46l-60 -65q11 -15 31 -15q35 0 62 34zM230 461q-49 -3 -77 -45.5t-28 -94.5q0 -6 2 -20l63 69q0 51 40 91zM421 -65h-421v201h421v-201zM434 308v-45q-47 -32 -93 -32q-31 0 -63 16q-28 -33 -68 -52t-82 -19q-30 0 -56 10l-35 -38l-28 26l28 31
q-51 46 -51 104q0 69 53 121.5t125 64.5q47 18 81 18q35 0 62 -17l25 27l29 -26l-24 -26q14 -22 14 -58q0 -72 -45 -122q25 -14 51 -14q31 0 77 31z" />
    <glyph glyph-name="ugrave" unicode="&#xf9;" horiz-adv-x="509" 
d="M509 -65h-509v201h509v-201zM525 263q-107 -86 -172 -86q-85 0 -102 67q-85 -69 -154 -69q-96 0 -96 104q0 32 9 70.5t17 61.5t27 73q49 9 147 25q-7 -22 -25.5 -66.5t-29.5 -83t-11 -74.5q0 -32 21 -32q38 0 96 71q7 41 53 162l149 22q-5 -15 -17.5 -48.5t-19 -53.5
t-15.5 -49.5t-14 -55.5q-2 -12 -2 -16q0 -24 22 -24q37 0 117 47v-45zM360 540l-26 -12q-112 74 -158 166l107 18q0 -68 77 -172z" />
    <glyph glyph-name="uacute" unicode="&#xfa;" horiz-adv-x="509" 
d="M509 -65h-509v201h509v-201zM525 263q-107 -86 -172 -86q-85 0 -102 67q-85 -69 -154 -69q-96 0 -96 104q0 32 9 70.5t17 61.5t27 73q49 9 147 25q-7 -22 -25.5 -66.5t-29.5 -83t-11 -74.5q0 -32 21 -32q38 0 96 71q7 41 53 162l149 22q-5 -15 -17.5 -48.5t-19 -53.5
t-15.5 -49.5t-14 -55.5q-2 -12 -2 -16q0 -24 22 -24q37 0 117 47v-45zM291 690l110 13q-8 -53 -58.5 -100.5t-111.5 -74.5l-37 9q75 82 97 153z" />
    <glyph glyph-name="ucircumflex" unicode="&#xfb;" horiz-adv-x="509" 
d="M509 -65h-509v201h509v-201zM525 263q-107 -86 -172 -86q-85 0 -102 67q-85 -69 -154 -69q-96 0 -96 104q0 32 9 70.5t17 61.5t27 73q49 9 147 25q-7 -22 -25.5 -66.5t-29.5 -83t-11 -74.5q0 -32 21 -32q38 0 96 71q7 41 53 162l149 22q-5 -15 -17.5 -48.5t-19 -53.5
t-15.5 -49.5t-14 -55.5q-2 -12 -2 -16q0 -24 22 -24q37 0 117 47v-45zM408 554l-5 -20q-96 7 -127 108q-58 -77 -175 -114l6 29q89 55 146 155l109 20q-2 -38 -2 -57q0 -81 48 -121z" />
    <glyph glyph-name="udieresis" unicode="&#xfc;" horiz-adv-x="509" 
d="M509 -65h-509v201h509v-201zM525 263q-107 -86 -172 -86q-85 0 -102 67q-85 -69 -154 -69q-96 0 -96 104q0 32 9 70.5t17 61.5t27 73q49 9 147 25q-7 -22 -25.5 -66.5t-29.5 -83t-11 -74.5q0 -32 21 -32q38 0 96 71q7 41 53 162l149 22q-5 -15 -17.5 -48.5t-19 -53.5
t-15.5 -49.5t-14 -55.5q-2 -12 -2 -16q0 -24 22 -24q37 0 117 47v-45zM250 604l-2 -10q-13 -66 -62 -66q-32 0 -69 31q22 32 39 82q50 -33 84 -36zM392 604l-2 -10q-13 -66 -61 -66q-32 0 -69 31q20 29 38 82q52 -33 84 -36z" />
    <glyph glyph-name="yacute" unicode="&#xfd;" horiz-adv-x="526" 
d="M188 110q-7 -14 -11 -21.5t-13.5 -16t-21.5 -9.5q5 25 46 47zM215 137q-89 -32 -89 -77q0 -12 13 -12q19 0 34.5 14.5t23 30.5t16.5 38q1 4 2 6zM526 -65h-526v201h80q-30 -35 -30 -68q0 -39 31 -61.5t73 -22.5q127 0 210 152h162v-201zM542 263q-53 -33 -179 -85
q-79 -174 -209 -174q-33 0 -59 16t-26 48t31 60.5t64 43t70 25.5q2 8 10 35q-81 -58 -141 -58q-41 0 -66 25.5t-25 67.5q0 102 72 221l153 16q-7 -16 -32.5 -67t-40 -91t-14.5 -70q0 -23 17 -23q33 0 67 39q14 15 25.5 32.5t23 41.5t17 37t18 45t15.5 39l148 20
q-83 -239 -94 -268q12 5 34 13t33.5 12.5t28 11.5t30.5 14.5t29 17.5v-45zM315 690l110 13q-8 -53 -58.5 -100.5t-111.5 -74.5l-37 9q75 82 97 153z" />
    <glyph glyph-name="thorn" unicode="&#xfe;" horiz-adv-x="539" 
d="M335 421q-39 0 -66.5 -46t-27.5 -94q0 -55 37 -55q38 0 68 48t30 95q0 52 -41 52zM538 -65h-538v201h52q-8 -53 -22 -159l178 25q5 38 20 134h310v-201zM555 308v-45q-41 -30 -116 -58t-138 -28q-52 0 -82 22q-15 -84 -28 -180l-139 -19q21 167 59 333q-40 -41 -93 -75
v45q88 59 141 187q12 29 21 74t12 75l3 30h121l-43 -208q60 53 116 53q54 0 88 -45t34 -107q0 -50 -25 -93q33 15 69 39z" />
    <glyph glyph-name="ydieresis" unicode="&#xff;" horiz-adv-x="526" 
d="M188 110q-7 -14 -11 -21.5t-13.5 -16t-21.5 -9.5q5 25 46 47zM215 137q-89 -32 -89 -77q0 -12 13 -12q19 0 34.5 14.5t23 30.5t16.5 38q1 4 2 6zM526 -65h-526v201h80q-30 -35 -30 -68q0 -39 31 -61.5t73 -22.5q127 0 210 152h162v-201zM542 263q-53 -33 -179 -85
q-79 -174 -209 -174q-33 0 -59 16t-26 48t31 60.5t64 43t70 25.5q2 8 10 35q-81 -58 -141 -58q-41 0 -66 25.5t-25 67.5q0 102 72 221l153 16q-7 -16 -32.5 -67t-40 -91t-14.5 -70q0 -23 17 -23q33 0 67 39q14 15 25.5 32.5t23 41.5t17 37t18 45t15.5 39l148 20
q-83 -239 -94 -268q12 5 34 13t33.5 12.5t28 11.5t30.5 14.5t29 17.5v-45zM282 604l-2 -10q-13 -66 -62 -66q-32 0 -69 31q22 32 39 82q50 -33 84 -36zM424 604l-2 -10q-13 -66 -61 -66q-32 0 -69 31q20 29 38 82q52 -33 84 -36z" />
    <glyph glyph-name="dotlessi" unicode="&#x131;" horiz-adv-x="244" 
d="M244 -65h-244v201h244v-201zM260 308v-45q-33 -28 -52 -42.5t-51 -30t-59 -15.5q-41 0 -65.5 30t-24.5 74q0 32 10 72t18 61t28 71l148 23q-6 -18 -26 -64.5t-31 -83.5t-11 -68q0 -24 25 -24t91 42z" />
    <glyph glyph-name="OE" unicode="&#x152;" horiz-adv-x="1018" 
d="M697 442q-40 23 -60 57q-15 -52 -35 -99q40 27 95 42zM1018 -65h-754q-24 0 -41.5 -17t-17.5 -42q0 -40 38 -55l-3 -19q-22 -2 -34 -2q-77 0 -143 45.5t-66 121.5q0 44 26 81.5t68 59.5q25 -36 65 -58t85 -22q102 0 214 108h69q35 -53 98 -80.5t134 -27.5q125 0 256 108
h6v-201zM1029 175q-144 -127 -273 -127q-90 0 -162 47.5t-83 133.5q-55 -74 -127 -127.5t-142 -53.5q-81 0 -128.5 65t-47.5 153q0 130 66 256.5t175 214.5l154 31q-72 -73 -120.5 -138t-84.5 -156.5t-36 -186.5q0 -66 24 -98.5t63 -32.5q59 0 115.5 51t93.5 124t59.5 150.5
t22.5 133.5q0 78 -38 78q-39 0 -72 -49.5t-33 -110.5q0 -12 4.5 -19.5t13 -11t17 -5t21.5 -1.5q-17 -87 -80 -87q-37 0 -59.5 28t-22.5 68q0 81 62 165.5t133 84.5q40 0 69 -28.5t38 -70.5q33 46 92.5 73t121.5 27q54 0 94.5 -24.5t53.5 -77.5l-79 -89q0 43 -19.5 87.5
t-59.5 44.5t-67 -46t-27 -95q0 -9 2 -23q2 -12 8 -21t15.5 -14.5t17.5 -9.5t22 -6t21.5 -2.5t23 -1.5t19.5 -1l-25 -89q-40 7 -67 7q-55 0 -92 -36.5t-37 -93.5q0 -55 39.5 -96t98.5 -41q57 0 106.5 32.5t102.5 88.5z" />
    <glyph glyph-name="oe" unicode="&#x153;" horiz-adv-x="574" 
d="M219 461q-47 -4 -75 -46.5t-28 -93.5q0 -31 11.5 -53.5t36.5 -22.5q26 0 51 22q-6 17 -6 32q-30 41 -30 82q0 47 40 80zM335 352q98 24 98 77q0 27 -23 27q-33 0 -52.5 -32.5t-22.5 -71.5zM574 -65h-582v201h582v-201zM584 263q-58 -43 -104 -65t-104 -22q-86 0 -134 48
q-54 -48 -124 -48q-56 0 -98 38.5t-42 95.5q0 68 54.5 123t123.5 62q25 18 74 18q65 0 94 -36q56 29 109 29q38 0 73.5 -21t35.5 -58q0 -25 -22.5 -46.5t-52.5 -35.5q-47 -23 -121 -41q18 -51 80 -51q73 0 158 55v-45z" />
    <glyph glyph-name="Scaron" unicode="&#x160;" horiz-adv-x="539" 
d="M539 -65h-271q-25 0 -42.5 -17t-17.5 -42q0 -40 38 -55l-2 -19q-22 -2 -34 -2q-87 0 -148 48q-62 49 -62 120q0 74 69 124q64 -60 174 -60q136 0 222 104h74v-201zM294 136q-21 -8 -40 -8q-23 0 -37 8h77zM559 658l-92 -125q0 2 -5 28t-7.5 33t-8.5 29t-13 30.5
t-17.5 21.5t-25 18t-32.5 5q-31 0 -55.5 -24.5t-24.5 -56.5q0 -22 15.5 -48.5t31.5 -44.5t48 -50q30 -30 43.5 -45t37 -44.5t33.5 -58.5t10 -59q0 -92 -79.5 -153.5t-174.5 -61.5q-66 0 -120.5 27.5t-79.5 85.5l104 166q1 -10 2.5 -33.5t3.5 -41t6 -41.5t11 -41t17.5 -33
t27.5 -24t39 -8q47 0 84 30.5t37 76.5q0 41 -52 91q-2 2 -23 22t-25 24.5t-22 23t-23.5 26.5t-19 25t-18 29t-11.5 28.5t-9.5 32t-2.5 32.5q0 84 63 145.5t152 61.5q102 0 175 -99zM547 987l-6 -29q-89 -55 -146 -155l-109 -20q2 38 2 57q0 81 -48 121l5 20q96 -7 127 -108
q58 77 175 114z" />
    <glyph glyph-name="scaron" unicode="&#x161;" horiz-adv-x="377" 
d="M377 -65h-377v201h377v-201zM393 308v-45q-43 -32 -116.5 -60t-136.5 -28q-45 0 -70 12.5t-48 43.5l88 76q1 -3 6 -14l7.5 -16.5t8.5 -15t11.5 -14t13.5 -8.5t17 -4q22 0 41.5 16t19.5 36q0 14 -13 32.5t-34 40t-27 30.5q-52 -64 -146 -128v46q97 60 141 184
q90 12 136 17q-19 -38 -19 -52q0 -24 31.5 -60.5t34.5 -60.5q0 -48 -28 -72q16 6 33 15t32.5 18.5t16.5 10.5zM421 732l-6 -29q-89 -55 -146 -155l-109 -20q2 38 2 57q0 81 -48 121l5 20q96 -7 127 -108q58 77 175 114z" />
    <glyph glyph-name="Ydieresis" unicode="&#x178;" horiz-adv-x="782" 
d="M403 -20q-7 -20 -20 -45h-45q8 9 29 25q24 14 36 20zM434 15q-131 -53 -131 -116q0 -26 31 -26q58 0 100 142zM445 136l-10 -42q-39 -14 -66.5 -26.5t-58.5 -33t-51 -48.5t-27 -63q-23 -18 -23 -47q0 -40 37 -55l-2 -19q-22 -2 -33 -2q-48 0 -95.5 18.5t-81.5 58
t-34 91.5q0 54 39.5 96.5t97.5 60.5q25 -84 132 -85q83 0 158 96h18zM785 200q-35 -54 -74.5 -78t-119.5 -52q-16 -43 -36.5 -81.5t-51.5 -80t-73 -66t-89 -24.5q-40 0 -66.5 20t-26.5 57q0 36 16.5 65t49.5 51.5t62.5 36.5t74.5 31q20 81 62 243q-18 -42 -40 -81
t-53.5 -83.5t-71 -71.5t-79.5 -27q-121 0 -121 131q0 76 52.5 237t52.5 207q0 27 -12.5 43t-33.5 16q-39 0 -70.5 -40.5t-31.5 -81.5q0 -57 55 -93l-80 -79q-24 23 -36 38t-22 39t-10 53q0 84 67 156.5t147 72.5q65 0 113 -55q42 -47 42 -131q0 -25 -4 -54t-9 -51.5t-15 -56
t-15 -49t-17 -50t-14 -40.5q0 -1 -3.5 -10.5t-6.5 -19.5t-6.5 -22.5t-5.5 -25.5t-2 -23q0 -34 24 -34q77 0 211 344q78 197 96 264l146 16q-14 -60 -42.5 -193.5t-52.5 -234.5t-50 -191q43 19 69 36.5t51 47.5zM782 -65h-235q34 56 59 120q103 36 151 81h25v-201zM468 809
l-2 -10q-13 -66 -62 -66q-32 0 -69 31q22 32 39 82q50 -33 84 -36zM610 809l-2 -10q-13 -66 -61 -66q-32 0 -69 31q20 29 38 82q52 -33 84 -36z" />
    <glyph glyph-name="Zcaron" unicode="&#x17d;" horiz-adv-x="665" 
d="M665 -65h-397q-25 0 -42 -17t-17 -42q0 -40 37 -55l-2 -19q-22 -2 -33 -2q-48 0 -95.5 18.5t-81.5 58t-34 91.5q0 35 19 70t49 53q-9 -18 -9 -38q0 -17 17 -20h73q15 0 19 14q9 36 42 36q30 0 93 -25t102 -25q118 0 223 103h37v-201zM657 197q-50 -64 -115 -104t-136 -40
q-37 0 -101.5 25t-96.5 25q-46 0 -59 -49h-72l7 24q25 79 77.5 155.5t105 129t123 125t112.5 126.5q-23 -5 -42 -5q-29 0 -87 13.5t-89 13.5q-28 0 -52.5 -13.5t-24.5 -40.5q0 -8 3.5 -16.5t11.5 -17t13.5 -13.5t16.5 -14.5t14 -11.5l-76 -77q-55 48 -55 104
q0 81 70.5 149.5t154.5 68.5q26 0 78.5 -13t81.5 -13q47 0 76 32l44 -15q-23 -62 -61.5 -121.5t-84.5 -110.5t-92 -98t-96.5 -103t-84.5 -106q37 11 74 11q39 0 110 -25t106 -25q43 0 94 52zM594 985l-6 -29q-89 -55 -146 -155l-109 -20q2 38 2 57q0 81 -48 121l5 20
q96 -7 127 -108q58 77 175 114z" />
    <glyph glyph-name="zcaron" unicode="&#x17e;" horiz-adv-x="480" 
d="M485 -65h-485v201h485v-201zM496 263q-5 -4 -30 -25t-39 -30.5t-39 -20t-49 -10.5q-27 0 -77 12q-42 10 -60 10q-33 0 -66 -26h-68l233 233q-11 -1 -34 -1q-47 0 -78 10q-62 -83 -176 -152v45q38 24 73.5 61t53 62.5t50.5 77.5q53 -14 113 -14q57 0 127 13l17 -32
l-193 -194q27 0 77 -10q39 -7 52 -7q55 0 113 43v-45zM511 732l-6 -29q-89 -55 -146 -155l-109 -20q2 38 2 57q0 81 -48 121l5 20q96 -7 127 -108q58 77 175 114z" />
    <glyph glyph-name="circumflex" unicode="&#x2c6;" horiz-adv-x="307" 
d="M307 554l-5 -20q-96 7 -127 108q-58 -77 -175 -114l6 29q89 55 146 155l109 20q-2 -38 -2 -57q0 -81 48 -121z" />
    <glyph glyph-name="caron" unicode="&#x2c7;" horiz-adv-x="307" 
d="M307 732l-6 -29q-89 -55 -146 -155l-109 -20q2 38 2 57q0 81 -48 121l5 20q96 -7 127 -108q58 77 175 114z" />
    <glyph glyph-name="ring" unicode="&#x2da;" horiz-adv-x="164" 
d="M125 610q0 18 -12.5 31t-30.5 13t-31 -13t-13 -31t13 -30.5t31 -12.5t30.5 12.5t12.5 30.5zM164 610q0 -34 -24 -58t-58 -24t-58 24t-24 58t24 58t58 24t58 -24t24 -58z" />
    <glyph glyph-name="tilde" unicode="&#x2dc;" horiz-adv-x="317" 
d="M317 615q-21 -40 -46 -61.5t-63 -21.5q-25 0 -67.5 18.5t-61.5 18.5q-29 0 -51 -33l-28 17q10 21 16.5 32t19.5 27t30.5 24.5t39.5 9.5q18 0 65.5 -19t69.5 -19q15 0 24 7t22 25z" />
    <glyph glyph-name="quoteleft" unicode="&#x2018;" horiz-adv-x="249" 
d="M249 -65h-237v201h237v-201zM211 673q-2 -1 -16.5 -8t-20 -10.5t-19 -11t-20 -14t-14.5 -15.5t-11.5 -18.5t-3.5 -19.5q0 -13 5.5 -23.5t18.5 -19.5t20.5 -13t24.5 -12l-88 -104q-39 26 -61 51t-25 61q0 2 -0.5 6t-0.5 6q0 37 17 68t49 55t61 39t70 32z" />
    <glyph glyph-name="quoteright" unicode="&#x2019;" horiz-adv-x="237" 
d="M237 -65h-237v201h237v-201zM125 758q87 -59 87 -124q0 -62 -49 -109q-42 -41 -148 -85l-14 49q2 1 16.5 8t20 10.5t19 11.5t20 14t14.5 15t11.5 18.5t3.5 19.5q0 13 -5.5 23.5t-18.5 19.5t-20.5 13t-24.5 12z" />
    <glyph glyph-name="quotedblleft" unicode="&#x201c;" horiz-adv-x="374" 
d="M338 -65h-338v201h338v-201zM374 683q-4 -2 -23 -12t-29.5 -16.5t-24.5 -17.5t-21 -23.5t-7 -26.5q0 -23 18 -38.5t52 -30.5l-88 -104q-69 47 -82 90l-76 -90q-88 59 -88 124q0 37 17 68t49 54.5t61.5 39t69.5 32.5l14 -49q-4 -2 -23 -12t-29.5 -16.5t-24.5 -17.5
t-21 -23.5t-7 -26.5q0 -39 53 -61q0 75 52.5 121.5t143.5 84.5z" />
    <glyph glyph-name="quotedblright" unicode="&#x201d;" horiz-adv-x="428" 
d="M428 -65h-428v201h428v-201zM313 758q88 -59 88 -124q0 -37 -17 -68t-49 -54.5t-61.5 -39t-69.5 -32.5l-14 49q4 2 23 12t29.5 16.5t24.5 17.5t21 23.5t7 26.5q0 39 -53 61q0 -75 -52.5 -121.5t-143.5 -84.5l-14 49q4 2 23 12t29.5 16.5t24.5 17.5t21 23.5t7 26.5
q0 23 -18 38.5t-52 30.5l88 104q69 -47 82 -90z" />
    <glyph glyph-name="bullet" unicode="&#x2022;" horiz-adv-x="425" 
d="M425 -65h-425v201h425v-201zM355 361q0 -59 -41.5 -100.5t-100.5 -41.5t-101 41.5t-42 100.5t42 100.5t101 41.5t100.5 -41.5t41.5 -100.5z" />
  </font>
</defs>
</svg>
